  0
SECTION
  2
HEADER
  9
$ACADVER
  1
AC1032
  9
$ACADMAINTVER
 90
      155
  9
$DWGCODEPAGE
  3
ANSI_1252
  9
$LASTSAVEDBY
  1
ctolentino
  9
$REQUIREDVERSIONS
160
                 0
  9
$INSBASE
 10
0.0
 20
0.0
 30
0.0
  9
$EXTMIN
 10
2.121518365837346
 20
1.490733711909002
 30
0.0
  9
$EXTMAX
 10
1272.136314479726
 20
939.834999082144
 30
0.0
  9
$LIMMIN
 10
0.0
 20
0.0
  9
$LIMMAX
 10
12.0
 20
9.0
  9
$ORTHOMODE
 70
     0
  9
$REGENMODE
 70
     1
  9
$FILLMODE
 70
     1
  9
$QTEXTMODE
 70
     0
  9
$MIRRTEXT
 70
     0
  9
$LTSCALE
 40
1.0
  9
$ATTMODE
 70
     1
  9
$TEXTSIZE
 40
0.2
  9
$TRACEWID
 40
0.05
  9
$TEXTSTYLE
  7
Standard
  9
$CLAYER
  8
0
  9
$CELTYPE
  6
ByLayer
  9
$CECOLOR
 62
   256
  9
$CELTSCALE
 40
1.0
  9
$DISPSILH
 70
     0
  9
$DIMSCALE
 40
1.0
  9
$DIMASZ
 40
0.18
  9
$DIMEXO
 40
0.0625
  9
$DIMDLI
 40
0.38
  9
$DIMRND
 40
0.0
  9
$DIMDLE
 40
0.0
  9
$DIMEXE
 40
0.18
  9
$DIMTP
 40
0.0
  9
$DIMTM
 40
0.0
  9
$DIMTXT
 40
0.18
  9
$DIMCEN
 40
0.09
  9
$DIMTSZ
 40
0.0
  9
$DIMTOL
 70
     0
  9
$DIMLIM
 70
     0
  9
$DIMTIH
 70
     1
  9
$DIMTOH
 70
     1
  9
$DIMSE1
 70
     0
  9
$DIMSE2
 70
     0
  9
$DIMTAD
 70
     0
  9
$DIMZIN
 70
     0
  9
$DIMTOFFSET
 70
     1
  9
$DIMBLK
  1

  9
$DIMASO
 70
     1
  9
$DIMSHO
 70
     1
  9
$DIMPOST
  1

  9
$DIMAPOST
  1

  9
$DIMALT
 70
     0
  9
$DIMALTD
 70
     2
  9
$DIMALTF
 40
25.4
  9
$DIMLFAC
 40
1.0
  9
$DIMTOFL
 70
     0
  9
$DIMTVP
 40
0.0
  9
$DIMTIX
 70
     0
  9
$DIMSOXD
 70
     0
  9
$DIMSAH
 70
     0
  9
$DIMBLK1
  1

  9
$DIMBLK2
  1

  9
$DIMSTYLE
  2
Standard
  9
$DIMCLRD
 70
     0
  9
$DIMCLRE
 70
     0
  9
$DIMCLRT
 70
     0
  9
$DIMTFAC
 40
1.0
  9
$DIMGAP
 40
0.09
  9
$DIMJUST
 70
     0
  9
$DIMSD1
 70
     0
  9
$DIMSD2
 70
     0
  9
$DIMTOLJ
 70
     1
  9
$DIMTZIN
 70
     0
  9
$DIMALTZ
 70
     0
  9
$DIMALTTZ
 70
     0
  9
$DIMUPT
 70
     0
  9
$DIMDEC
 70
     4
  9
$DIMTDEC
 70
     4
  9
$DIMALTU
 70
     2
  9
$DIMALTTD
 70
     2
  9
$DIMTXSTY
  7
Standard
  9
$DIMAUNIT
 70
     0
  9
$DIMADEC
 70
     0
  9
$DIMALTRND
 40
0.0
  9
$DIMAZIN
 70
     0
  9
$DIMDSEP
 70
    46
  9
$DIMATFIT
 70
     3
  9
$DIMFRAC
 70
     0
  9
$DIMLDRBLK
  1

  9
$DIMLUNIT
 70
     2
  9
$DIMLWD
 70
    -2
  9
$DIMLWE
 70
    -2
  9
$DIMTMOVE
 70
     0
  9
$DIMFXL
 40
1.0
  9
$DIMFXLON
 70
     0
  9
$DIMJOGANG
 40
0.7853981633974483
  9
$DIMTFILL
 70
     0
  9
$DIMTFILLCLR
 70
     0
  9
$DIMARCSYM
 70
     0
  9
$DIMLTYPE
  6

  9
$DIMLTEX1
  6

  9
$DIMLTEX2
  6

  9
$DIMTXTDIRECTION
 70
     0
  9
$LUNITS
 70
     2
  9
$LUPREC
 70
     4
  9
$SKETCHINC
 40
0.1
  9
$FILLETRAD
 40
0.0
  9
$AUNITS
 70
     0
  9
$AUPREC
 70
     0
  9
$MENU
  1
.
  9
$ELEVATION
 40
0.0
  9
$PELEVATION
 40
0.0
  9
$THICKNESS
 40
0.0
  9
$LIMCHECK
 70
     0
  9
$CHAMFERA
 40
0.0
  9
$CHAMFERB
 40
0.0
  9
$CHAMFERC
 40
0.0
  9
$CHAMFERD
 40
0.0
  9
$SKPOLY
 70
     0
  9
$TDCREATE
 40
2460916.438306169
  9
$TDUCREATE
 40
2460915.938306169
  9
$TDUPDATE
 40
2460916.581322627
  9
$TDUUPDATE
 40
2460916.081322627
  9
$TDINDWG
 40
0.0660556134
  9
$TDUSRTIMER
 40
0.0660555903
  9
$USRTIMER
 70
     1
  9
$ANGBASE
 50
0.0
  9
$ANGDIR
 70
     0
  9
$PDMODE
 70
     0
  9
$PDSIZE
 40
0.0
  9
$PLINEWID
 40
0.0
  9
$SPLFRAME
 70
     0
  9
$SPLINETYPE
 70
     6
  9
$SPLINESEGS
 70
     8
  9
$HANDSEED
  5
3064
  9
$SURFTAB1
 70
     6
  9
$SURFTAB2
 70
     6
  9
$SURFTYPE
 70
     6
  9
$SURFU
 70
     6
  9
$SURFV
 70
     6
  9
$UCSBASE
  2

  9
$UCSNAME
  2

  9
$UCSORG
 10
0.0
 20
0.0
 30
0.0
  9
$UCSXDIR
 10
1.0
 20
0.0
 30
0.0
  9
$UCSYDIR
 10
0.0
 20
1.0
 30
0.0
  9
$UCSORTHOREF
  2

  9
$UCSORTHOVIEW
 70
     0
  9
$UCSORGTOP
 10
0.0
 20
0.0
 30
0.0
  9
$UCSORGBOTTOM
 10
0.0
 20
0.0
 30
0.0
  9
$UCSORGLEFT
 10
0.0
 20
0.0
 30
0.0
  9
$UCSORGRIGHT
 10
0.0
 20
0.0
 30
0.0
  9
$UCSORGFRONT
 10
0.0
 20
0.0
 30
0.0
  9
$UCSORGBACK
 10
0.0
 20
0.0
 30
0.0
  9
$PUCSBASE
  2

  9
$PUCSNAME
  2

  9
$PUCSORG
 10
0.0
 20
0.0
 30
0.0
  9
$PUCSXDIR
 10
1.0
 20
0.0
 30
0.0
  9
$PUCSYDIR
 10
0.0
 20
1.0
 30
0.0
  9
$PUCSORTHOREF
  2

  9
$PUCSORTHOVIEW
 70
     0
  9
$PUCSORGTOP
 10
0.0
 20
0.0
 30
0.0
  9
$PUCSORGBOTTOM
 10
0.0
 20
0.0
 30
0.0
  9
$PUCSORGLEFT
 10
0.0
 20
0.0
 30
0.0
  9
$PUCSORGRIGHT
 10
0.0
 20
0.0
 30
0.0
  9
$PUCSORGFRONT
 10
0.0
 20
0.0
 30
0.0
  9
$PUCSORGBACK
 10
0.0
 20
0.0
 30
0.0
  9
$USERI1
 70
     0
  9
$USERI2
 70
     0
  9
$USERI3
 70
     0
  9
$USERI4
 70
     0
  9
$USERI5
 70
     0
  9
$USERR1
 40
0.0
  9
$USERR2
 40
0.0
  9
$USERR3
 40
0.0
  9
$USERR4
 40
0.0
  9
$USERR5
 40
0.0
  9
$WORLDVIEW
 70
     1
  9
$SHADEDGE
 70
     3
  9
$SHADEDIF
 70
    70
  9
$TILEMODE
 70
     1
  9
$MAXACTVP
 70
    64
  9
$PINSBASE
 10
0.0
 20
0.0
 30
0.0
  9
$PLIMCHECK
 70
     0
  9
$PEXTMIN
 10
0.0
 20
0.0
 30
0.0
  9
$PEXTMAX
 10
0.0
 20
0.0
 30
0.0
  9
$PLIMMIN
 10
0.0
 20
0.0
  9
$PLIMMAX
 10
12.0
 20
9.0
  9
$UNITMODE
 70
     0
  9
$VISRETAIN
 70
     1
  9
$PLINEGEN
 70
     0
  9
$PSLTSCALE
 70
     1
  9
$TREEDEPTH
 70
  3020
  9
$CMLSTYLE
  2
Standard
  9
$CMLJUST
 70
     0
  9
$CMLSCALE
 40
1.0
  9
$PROXYGRAPHICS
 70
     1
  9
$MEASUREMENT
 70
     0
  9
$CELWEIGHT
370
    -1
  9
$ENDCAPS
280
     0
  9
$JOINSTYLE
280
     0
  9
$LWDISPLAY
290
     0
  9
$INSUNITS
 70
     1
  9
$HYPERLINKBASE
  1

  9
$STYLESHEET
  1

  9
$XEDIT
290
     1
  9
$CEPSNTYPE
380
     0
  9
$PSTYLEMODE
290
     1
  9
$FINGERPRINTGUID
  2
{011C5076-1CE6-4951-8944-42E214B48432}
  9
$VERSIONGUID
  2
{EF5A116A-4A25-4390-9277-3BEEF0A8AB21}
  9
$EXTNAMES
290
     1
  9
$PSVPSCALE
 40
0.0
  9
$OLESTARTUP
290
     0
  9
$SORTENTS
280
   127
  9
$INDEXCTL
280
     0
  9
$HIDETEXT
280
     1
  9
$XCLIPFRAME
280
     2
  9
$HALOGAP
280
     0
  9
$OBSCOLOR
 70
   257
  9
$OBSLTYPE
280
     0
  9
$INTERSECTIONDISPLAY
280
     0
  9
$INTERSECTIONCOLOR
 70
   257
  9
$DIMASSOC
280
     2
  9
$PROJECTNAME
  1

  9
$CAMERADISPLAY
290
     0
  9
$LENSLENGTH
 40
50.0
  9
$CAMERAHEIGHT
 40
0.0
  9
$STEPSPERSEC
 40
2.0
  9
$STEPSIZE
 40
6.0
  9
$3DDWFPREC
 40
2.0
  9
$PSOLWIDTH
 40
0.25
  9
$PSOLHEIGHT
 40
4.0
  9
$LOFTANG1
 40
1.570796326794897
  9
$LOFTANG2
 40
1.570796326794897
  9
$LOFTMAG1
 40
0.0
  9
$LOFTMAG2
 40
0.0
  9
$LOFTPARAM
 70
     7
  9
$LOFTNORMALS
280
     1
  9
$LATITUDE
 40
37.795
  9
$LONGITUDE
 40
-122.394
  9
$NORTHDIRECTION
 40
0.0
  9
$TIMEZONE
 70
 -8000
  9
$LIGHTGLYPHDISPLAY
280
     1
  9
$TILEMODELIGHTSYNCH
280
     1
  9
$CMATERIAL
347
96
  9
$SOLIDHIST
280
     0
  9
$SHOWHIST
280
     1
  9
$DWFFRAME
280
     2
  9
$DGNFRAME
280
     0
  9
$REALWORLDSCALE
290
     1
  9
$INTERFERECOLOR
 62
     1
  9
$INTERFEREOBJVS
345
A3
  9
$INTERFEREVPVS
346
A0
  9
$CSHADOW
280
     0
  9
$SHADOWPLANELOCATION
 40
0.0
  0
ENDSEC
  0
SECTION
  2
CLASSES
  0
CLASS
  1
ACDBDICTIONARYWDFLT
  2
AcDbDictionaryWithDefault
  3
ObjectDBX Classes
 90
        0
 91
        1
280
     0
281
     0
  0
CLASS
  1
ACDBPLACEHOLDER
  2
AcDbPlaceHolder
  3
ObjectDBX Classes
 90
        0
 91
        1
280
     0
281
     0
  0
CLASS
  1
LAYOUT
  2
AcDbLayout
  3
ObjectDBX Classes
 90
        0
 91
        1
280
     0
281
     0
  0
CLASS
  1
DICTIONARYVAR
  2
AcDbDictionaryVar
  3
ObjectDBX Classes
 90
        0
 91
        1
280
     0
281
     0
  0
CLASS
  1
TABLESTYLE
  2
AcDbTableStyle
  3
ObjectDBX Classes
 90
     4095
 91
        1
280
     0
281
     0
  0
CLASS
  1
MATERIAL
  2
AcDbMaterial
  3
ObjectDBX Classes
 90
     1153
 91
        1
280
     0
281
     0
  0
CLASS
  1
VISUALSTYLE
  2
AcDbVisualStyle
  3
ObjectDBX Classes
 90
     4095
 91
        1
280
     0
281
     0
  0
CLASS
  1
SCALE
  2
AcDbScale
  3
ObjectDBX Classes
 90
     1153
 91
        1
280
     0
281
     0
  0
CLASS
  1
MLEADERSTYLE
  2
AcDbMLeaderStyle
  3
ACDB_MLEADERSTYLE_CLASS
 90
     4095
 91
        1
280
     0
281
     0
  0
CLASS
  1
CELLSTYLEMAP
  2
AcDbCellStyleMap
  3
ObjectDBX Classes
 90
     1152
 91
        1
280
     0
281
     0
  0
CLASS
  1
LAYER_INDEX
  2
AcDbLayerIndex
  3
ObjectDBX Classes
 90
        0
 91
        1
280
     0
281
     0
  0
CLASS
  1
SPATIAL_INDEX
  2
AcDbSpatialIndex
  3
AutoCAD 2000
 90
        0
 91
        1
280
     0
281
     0
  0
CLASS
  1
IDBUFFER
  2
AcDbIdBuffer
  3
ObjectDBX Classes
 90
        0
 91
        1
280
     0
281
     0
  0
CLASS
  1
ACDBSECTIONVIEWSTYLE
  2
AcDbSectionViewStyle
  3
ObjectDBX Classes
 90
     1025
 91
        1
280
     0
281
     0
  0
CLASS
  1
ACDBDETAILVIEWSTYLE
  2
AcDbDetailViewStyle
  3
ObjectDBX Classes
 90
     1025
 91
        1
280
     0
281
     0
  0
CLASS
  1
SUN
  2
AcDbSun
  3
SCENEOE
 90
     1153
 91
        1
280
     0
281
     0
  0
CLASS
  1
SORTENTSTABLE
  2
AcDbSortentsTable
  3
ObjectDBX Classes
 90
        0
 91
        1
280
     0
281
     0
  0
CLASS
  1
MULTILEADER
  2
AcDbMLeader
  3
ACDB_MLEADER_CLASS
 90
     1025
 91
        1
280
     0
281
     1
  0
CLASS
  1
DIMASSOC
  2
AcDbDimAssoc
  3
"AcDbDimAssoc|Product Desc:     AcDim ARX App For Dimension|Company:          Autodesk, Inc.|WEB Address:      www.autodesk.com"
 90
        0
 91
        1
280
     0
281
     0
  0
ENDSEC
  0
SECTION
  2
TABLES
  0
TABLE
  2
VPORT
  5
8
330
0
100
AcDbSymbolTable
 70
     1
  0
VPORT
  5
94
330
8
100
AcDbSymbolTableRecord
100
AcDbViewportTableRecord
  2
*Active
 70
     0
 10
0.0
 20
0.0
 11
1.0
 21
1.0
 12
636.0681572398628
 22
469.917499541072
 13
0.0
 23
0.0
 14
0.5
 24
0.5
 15
0.5
 25
0.5
 16
0.0
 26
0.0
 36
1.0
 17
0.0
 27
0.0
 37
0.0
 40
949.7935156287098
 41
2.163826998689384
 42
50.0
 43
0.0
 44
0.0
 50
0.0
 51
0.0
 71
     0
 72
  1000
 73
     1
 74
     3
 75
     0
 76
     1
 77
     0
 78
     0
281
     0
 65
     1
110
0.0
120
0.0
130
0.0
111
1.0
121
0.0
131
0.0
112
0.0
122
1.0
132
0.0
 79
     0
146
0.0
348
9F
 60
     3
 61
     5
292
     1
282
     1
141
0.0
142
0.0
 63
   250
421
  3355443
361
20C
1001
ACAD_NAV_VCDISPLAY
1070
     3
  0
ENDTAB
  0
TABLE
  2
LTYPE
  5
5
330
0
100
AcDbSymbolTable
 70
     4
  0
LTYPE
  5
14
330
5
100
AcDbSymbolTableRecord
100
AcDbLinetypeTableRecord
  2
ByBlock
 70
     0
  3

 72
    65
 73
     0
 40
0.0
  0
LTYPE
  5
15
330
5
100
AcDbSymbolTableRecord
100
AcDbLinetypeTableRecord
  2
ByLayer
 70
     0
  3

 72
    65
 73
     0
 40
0.0
  0
LTYPE
  5
16
330
5
100
AcDbSymbolTableRecord
100
AcDbLinetypeTableRecord
  2
Continuous
 70
     0
  3
Solid line
 72
    65
 73
     0
 40
0.0
  0
LTYPE
  5
51C
330
5
100
AcDbSymbolTableRecord
100
AcDbLinetypeTableRecord
  2
Dash
 70
     0
  3

 72
    65
 73
     2
 40
6.350000000000001
 49
3.175
 74
     0
 49
-3.175
 74
     0
  0
LTYPE
  5
51D
330
5
100
AcDbSymbolTableRecord
100
AcDbLinetypeTableRecord
  2
XAR-1873-FP03-17_off$0$HIDDEN
 70
     0
  3
Hidden __ __ __ __ __ __ __ __ __ __ __ __ __ _
 72
    65
 73
     2
 40
0.375
 49
0.25
 74
     0
 49
-0.125
 74
     0
  0
LTYPE
  5
22E8
330
5
100
AcDbSymbolTableRecord
100
AcDbLinetypeTableRecord
  2
PHANTOM
 70
     0
  3
Phantom ______  __  __  ______  __  __  ______
 72
    65
 73
     6
 40
12.7
 49
6.35
 74
     0
 49
-1.27
 74
     0
 49
1.27
 74
     0
 49
-1.27
 74
     0
 49
1.27
 74
     0
 49
-1.27
 74
     0
  0
ENDTAB
  0
TABLE
  2
LAYER
  5
2
102
{ACAD_XDICTIONARY
360
18E
102
}
330
0
100
AcDbSymbolTable
 70
     9
  0
LAYER
  5
10
330
2
100
AcDbSymbolTableRecord
100
AcDbLayerTableRecord
  2
0
 70
     0
 62
     7
  6
Continuous
370
    -3
390
F
347
98
348
0
  0
LAYER
  5
50B
102
{ACAD_XDICTIONARY
360
50C
102
}
330
2
100
AcDbSymbolTableRecord
100
AcDbLayerTableRecord
  2
DEFPOINTS
 70
     0
 62
     7
  6
Continuous
290
     0
370
    -3
390
F
347
98
348
0
1001
AcAecLayerStandard
1000

1000

  0
LAYER
  5
510
102
{ACAD_XDICTIONARY
360
511
102
}
330
2
100
AcDbSymbolTableRecord
100
AcDbLayerTableRecord
  2
A-_ANOT----_H-_N
 70
     0
 62
    11
  6
Continuous
370
    -3
390
F
347
98
348
0
1001
AcAecLayerStandard
1000

1000

  0
LAYER
  5
513
102
{ACAD_XDICTIONARY
360
514
102
}
330
2
100
AcDbSymbolTableRecord
100
AcDbLayerTableRecord
  2
A-DETL-GENF-OTLN
 70
     0
 62
     3
  6
Continuous
370
     5
390
F
347
98
348
0
1001
AcAecLayerStandard
1000

1000

  0
LAYER
  5
516
102
{ACAD_XDICTIONARY
360
517
102
}
330
2
100
AcDbSymbolTableRecord
100
AcDbLayerTableRecord
  2
_lines
 70
     0
 62
     3
  6
Continuous
370
    -3
390
F
347
98
348
0
1001
AcAecLayerStandard
1000

1000

  0
LAYER
  5
519
102
{ACAD_XDICTIONARY
360
51A
102
}
330
2
100
AcDbSymbolTableRecord
100
AcDbLayerTableRecord
  2
GE FLASHING
 70
     0
 62
     1
  6
Continuous
370
    -3
390
F
347
98
348
0
1001
AcAecLayerStandard
1000

1000

  0
LAYER
  5
80A
102
{ACAD_XDICTIONARY
360
80B
102
}
330
2
100
AcDbSymbolTableRecord
100
AcDbLayerTableRecord
  2
_circles
 70
     0
 62
     3
  6
Continuous
370
    -3
390
F
347
98
348
0
1001
AcAecLayerStandard
1000

1000

  0
LAYER
  5
810
102
{ACAD_XDICTIONARY
360
811
102
}
330
2
100
AcDbSymbolTableRecord
100
AcDbLayerTableRecord
  2
_hatch
 70
     0
 62
   253
  6
Continuous
370
    -3
390
F
347
98
348
0
1001
AcAecLayerStandard
1000

1000

  0
LAYER
  5
1766
102
{ACAD_XDICTIONARY
360
1767
102
}
330
2
100
AcDbSymbolTableRecord
100
AcDbLayerTableRecord
  2
GE TILES
 70
     0
 62
     1
  6
Continuous
370
    -3
390
F
347
98
348
0
1001
AcAecLayerStandard
1000

1000

  0
ENDTAB
  0
TABLE
  2
STYLE
  5
3
330
0
100
AcDbSymbolTable
 70
     5
  0
STYLE
  5
11
330
3
100
AcDbSymbolTableRecord
100
AcDbTextStyleTableRecord
  2
Standard
 70
     0
 40
0.0
 41
1.0
 50
0.0
 71
     0
 42
0.2
  3
arial.ttf
  4

1001
ACAD
1000
Arial
1071
       34
  0
STYLE
  5
DC
330
3
100
AcDbSymbolTableRecord
100
AcDbTextStyleTableRecord
  2
Annotative
 70
     0
 40
0.0
 41
1.0
 50
0.0
 71
     0
 42
0.2
  3
arial.ttf
  4

1001
AcadAnnotative
1000
AnnotativeData
1002
{
1070
     1
1070
     1
1002
}
1001
ACAD
1000
Arial
1071
       34
  0
STYLE
  5
521
330
3
100
AcDbSymbolTableRecord
100
AcDbTextStyleTableRecord
  2
RS
 70
     0
 40
0.0
 41
1.0
 50
0.0
 71
     0
 42
0.2
  3
swisscl.ttf
  4

1001
ACAD
1000
Swis721 LtCn BT
1071
       34
  0
STYLE
  5
537
330
3
100
AcDbSymbolTableRecord
100
AcDbTextStyleTableRecord
  2
Arial
 70
     0
 40
12.5
 41
1.0
 50
0.0
 71
     0
 42
0.2
  3
arial.ttf
  4

1001
ACAD
1000
Arial
1071
       34
  0
STYLE
  5
20A0
330
3
100
AcDbSymbolTableRecord
100
AcDbTextStyleTableRecord
  2
PDF Arial
 70
     0
 40
0.0
 41
1.0
 50
0.0
 71
     0
 42
0.2
  3
arial.ttf
  4

1001
ACAD
1000
Arial
1071
       34
  0
ENDTAB
  0
TABLE
  2
VIEW
  5
6
330
0
100
AcDbSymbolTable
 70
     0
  0
ENDTAB
  0
TABLE
  2
UCS
  5
7
330
0
100
AcDbSymbolTable
 70
     0
  0
ENDTAB
  0
TABLE
  2
APPID
  5
9
330
0
100
AcDbSymbolTable
 70
    13
  0
APPID
  5
12
330
9
100
AcDbSymbolTableRecord
100
AcDbRegAppTableRecord
  2
ACAD
 70
     0
  0
APPID
  5
DD
330
9
100
AcDbSymbolTableRecord
100
AcDbRegAppTableRecord
  2
AcadAnnoPO
 70
     0
  0
APPID
  5
DE
330
9
100
AcDbSymbolTableRecord
100
AcDbRegAppTableRecord
  2
AcadAnnotative
 70
     0
  0
APPID
  5
DF
330
9
100
AcDbSymbolTableRecord
100
AcDbRegAppTableRecord
  2
ACAD_DSTYLE_DIMJAG
 70
     0
  0
APPID
  5
E0
330
9
100
AcDbSymbolTableRecord
100
AcDbRegAppTableRecord
  2
ACAD_DSTYLE_DIMTALN
 70
     0
  0
APPID
  5
107
330
9
100
AcDbSymbolTableRecord
100
AcDbRegAppTableRecord
  2
ACAD_MLEADERVER
 70
     0
  0
APPID
  5
1A6
330
9
100
AcDbSymbolTableRecord
100
AcDbRegAppTableRecord
  2
ACAD_NAV_VCDISPLAY
 70
     0
  0
APPID
  5
50F
330
9
100
AcDbSymbolTableRecord
100
AcDbRegAppTableRecord
  2
AcAecLayerStandard
 70
     0
  0
APPID
  5
52D
330
9
100
AcDbSymbolTableRecord
100
AcDbRegAppTableRecord
  2
ACAD_DSTYLE_DIMBREAK
 70
     0
  0
APPID
  5
532
330
9
100
AcDbSymbolTableRecord
100
AcDbRegAppTableRecord
  2
REVIT
 70
     0
  0
APPID
  5
533
330
9
100
AcDbSymbolTableRecord
100
AcDbRegAppTableRecord
  2
ACAD_PSEXT
 70
     0
  0
APPID
  5
535
330
9
100
AcDbSymbolTableRecord
100
AcDbRegAppTableRecord
  2
HATCHBACKGROUNDCOLOR
 70
     0
  0
APPID
  5
ADA
330
9
100
AcDbSymbolTableRecord
100
AcDbRegAppTableRecord
  2
AcDbDynamicBlockGUID
 70
     0
  0
ENDTAB
  0
TABLE
  2
DIMSTYLE
  5
A
330
0
100
AcDbSymbolTable
 70
     4
100
AcDbDimStyleTable
  0
DIMSTYLE
105
27
330
A
100
AcDbSymbolTableRecord
100
AcDbDimStyleTableRecord
  2
Standard
 70
     0
178
     0
340
11
  0
DIMSTYLE
105
E1
330
A
100
AcDbSymbolTableRecord
100
AcDbDimStyleTableRecord
  2
Annotative
 70
     0
 40
0.0
178
     0
340
11
1001
AcadAnnotative
1000
AnnotativeData
1002
{
1070
     1
1070
     1
1002
}
1001
ACAD_DSTYLE_DIMJAG
1070
   388
1040
1.5
1001
ACAD_DSTYLE_DIMTALN
1070
   392
1070
     0
  0
DIMSTYLE
105
520
102
{ACAD_REACTORS
330
2FCE
330
3024
330
3023
102
}
330
A
100
AcDbSymbolTableRecord
100
AcDbDimStyleTableRecord
  2
DIM150
 70
     0
 41
5.0
 42
0.0
 43
0.0
 44
7.0
 46
7.0
 90
        2
 73
     0
 74
     0
 77
     1
140
5.0
141
0.0
147
1.0
172
     1
176
    24
177
     8
271
     0
178
     4
271
     0
272
     0
279
     2
340
521
341
522
342
528
346
51D
347
51D
1001
ACAD_DSTYLE_DIMBREAK
1070
   391
1040
1.0
1001
ACAD_DSTYLE_DIMJAG
1070
   388
1040
1.0
1001
ACAD_DSTYLE_DIMTALN
1070
   392
1070
     0
  0
DIMSTYLE
105
530
330
A
100
AcDbSymbolTableRecord
100
AcDbDimStyleTableRecord
  2
ISO-25
 70
     0
 41
2.5
 42
0.625
 43
3.75
 44
1.25
 73
     0
 74
     0
 77
     1
 78
     8
140
2.5
141
-2.5
143
0.03937007874016
147
0.625
171
     3
172
     1
178
     0
271
     2
272
     2
274
     3
278
    44
283
     0
284
     8
340
11
  0
ENDTAB
  0
TABLE
  2
BLOCK_RECORD
  5
1
330
0
100
AcDbSymbolTable
 70
    25
  0
BLOCK_RECORD
  5
1F
330
1
100
AcDbSymbolTableRecord
100
AcDbBlockTableRecord
  2
*Model_Space
340
22
 70
     0
280
     1
281
     0
  0
BLOCK_RECORD
  5
58
330
1
100
AcDbSymbolTableRecord
100
AcDbBlockTableRecord
  2
*Paper_Space
340
59
 70
     0
280
     1
281
     0
  0
BLOCK_RECORD
  5
5D
330
1
100
AcDbSymbolTableRecord
100
AcDbBlockTableRecord
  2
*Paper_Space0
340
5E
 70
     0
280
     1
281
     0
  0
BLOCK_RECORD
  5
522
330
1
100
AcDbSymbolTableRecord
100
AcDbBlockTableRecord
  2
_OPEN
340
0
 70
     0
280
     1
281
     0
  0
BLOCK_RECORD
  5
528
330
1
100
AcDbSymbolTableRecord
100
AcDbBlockTableRecord
  2
_OBLIQUE
340
0
102
{BLKREFS
331
2FDB
331
2FDC
331
65C
331
65D
331
669
331
66A
331
676
331
677
331
683
331
684
331
692
331
693
331
6B0
331
6B1
331
6BC
331
6BD
331
6C8
331
6C9
331
6D4
331
6D5
331
6E0
331
6E1
331
7CB
331
7CC
331
7D7
331
7D8
331
7E3
331
7E4
331
7EF
331
7F0
331
7FB
331
7FC
331
919
331
91A
331
926
331
927
331
933
331
934
331
944
331
945
331
96E
331
96F
331
97A
331
97B
331
986
331
987
331
992
331
993
331
A8F
331
A90
331
A9B
331
A9C
331
AA7
331
AA8
331
AB3
331
AB4
331
BB3
331
BB4
331
BC0
331
BC1
331
BF9
331
BFA
331
C0B
331
C0C
331
C17
331
C18
331
C23
331
C24
331
D06
331
D07
331
D12
331
D13
331
D1E
331
D1F
331
E31
331
E32
331
E3E
331
E3F
331
E4B
331
E4C
331
E58
331
E59
331
E67
331
E68
331
E85
331
E86
331
E91
331
E92
331
E9D
331
E9E
331
EA9
331
EAA
331
EB5
331
EB6
331
FA0
331
FA1
331
FAC
331
FAD
331
FB8
331
FB9
331
FC4
331
FC5
331
FD0
331
FD1
331
10CF
331
10D0
331
10DC
331
10DD
331
1109
331
110A
331
111B
331
111C
331
1127
331
1128
331
1133
331
1134
331
1216
331
1217
331
1222
331
1223
331
122E
331
122F
331
134F
331
1350
331
135C
331
135D
331
1369
331
136A
331
137C
331
137D
331
1388
331
1389
331
1394
331
1395
331
147A
331
147B
331
1486
331
1487
331
1492
331
1493
331
15B0
331
15B1
331
15BD
331
15BE
331
15CA
331
15CB
331
15DB
331
15DC
331
1607
331
1608
331
1613
331
1614
331
161F
331
1620
331
162B
331
162C
331
172A
331
172B
331
1736
331
1737
331
1742
331
1743
331
174E
331
174F
331
1803
331
1804
331
1828
331
1829
331
1837
331
1838
331
1846
331
1847
331
1855
331
1856
331
1862
331
1863
331
1871
331
1872
331
18F1
331
18F2
331
18FD
331
18FE
331
1909
331
190A
331
1915
331
1916
331
1921
331
1922
331
192B
331
192C
331
1937
331
1938
331
19DE
331
19DF
331
19EA
331
19EB
331
19F6
331
19F7
331
1A02
331
1A03
331
1A0E
331
1A0F
331
1A18
331
1A19
331
1A24
331
1A25
331
1AB2
331
1AB3
331
1B64
331
1B65
331
1B87
331
1B88
331
1B96
331
1B97
331
1BB7
331
1BB8
331
1BC3
331
1BC4
331
1BCF
331
1BD0
331
1C65
331
1C66
331
1C71
331
1C72
331
1C7D
331
1C7E
331
1CE9
331
1CEA
331
1D1C
331
1D1D
331
1D63
331
1D64
331
1DC9
331
1DCA
331
1DF0
331
1DF1
331
1DFF
331
1E00
331
1E1D
331
1E1E
331
1E29
331
1E2A
331
1E35
331
1E36
331
1E83
331
1E84
331
1E8F
331
1E90
331
1E9B
331
1E9C
331
1F01
331
1F02
331
1F31
331
1F32
331
1F3E
331
1F3F
331
1F4B
331
1F4C
331
1F58
331
1F59
331
1F63
331
1F64
331
1F70
331
1F71
331
1F93
331
1F94
331
1F9F
331
1FA0
331
1FAB
331
1FAC
331
1FB7
331
1FB8
331
1FC3
331
1FC4
331
1FCD
331
1FCE
331
1FD9
331
1FDA
331
2031
331
2032
331
203D
331
203E
331
2049
331
204A
331
2055
331
2056
331
2061
331
2062
331
206B
331
206C
331
2077
331
2078
331
2125
331
2126
331
2134
331
2135
331
2142
331
2143
331
2151
331
2152
331
215E
331
215F
331
21A6
331
21A7
331
21B7
331
21B8
331
21C3
331
21C4
331
21CE
331
21CF
331
21DC
331
21DD
331
21E6
331
21E7
331
21F4
331
21F5
331
2294
331
2295
331
22A0
331
22A1
331
22AB
331
22AC
331
22B9
331
22BA
331
22C3
331
22C4
331
22D1
331
22D2
331
2331
331
2332
331
2340
331
2341
331
2364
331
2365
331
23A8
331
23A9
331
23B4
331
23B5
331
23C0
331
23C1
331
241F
331
2420
331
242B
331
242C
331
2437
331
2438
331
2498
331
2499
331
24A7
331
24A8
331
24BA
331
24BB
331
24E4
331
24E5
331
252D
331
252E
331
2539
331
253A
331
2545
331
2546
331
2551
331
2552
331
25C3
331
25C4
331
25CF
331
25D0
331
25DB
331
25DC
331
25E7
331
25E8
331
266E
331
266F
331
267D
331
267E
331
268B
331
268C
331
269A
331
269B
331
26A7
331
26A8
331
26CC
331
26CD
331
2728
331
2729
331
2734
331
2735
331
273F
331
2740
331
274D
331
274E
331
2757
331
2758
331
2765
331
2766
331
280F
331
2810
331
281B
331
281C
331
2826
331
2827
331
2834
331
2835
331
283E
331
283F
331
284C
331
284D
331
28A6
331
28A7
331
28B5
331
28B6
331
28DA
331
28DB
331
2916
331
2917
331
2922
331
2923
331
292E
331
292F
331
2990
331
2991
331
299C
331
299D
331
29A8
331
29A9
331
2A09
331
2A0A
331
2A18
331
2A19
331
2A2B
331
2A2C
331
2A4A
331
2A4B
331
2A8B
331
2A8C
331
2A97
331
2A98
331
2AA3
331
2AA4
331
2AAF
331
2AB0
331
2B1E
331
2B1F
331
2B2A
331
2B2B
331
2B36
331
2B37
331
2B42
331
2B43
331
2C0D
331
2C0E
331
2C5A
331
2C5B
331
2C6D
331
2C6E
331
2C89
331
2C8A
331
2C96
331
2C97
331
2CA6
331
2CA7
331
2CB2
331
2CB3
331
2CBE
331
2CBF
331
2CCA
331
2CCB
331
2CD6
331
2CD7
331
2DB3
331
2DB4
331
2DBF
331
2DC0
331
2DCB
331
2DCC
331
2DD7
331
2DD8
331
2DE3
331
2DE4
331
2E9C
331
2E9D
331
2EDD
331
2EDE
331
2EF0
331
2EF1
331
2F15
331
2F16
331
2F22
331
2F23
331
2F31
331
2F32
331
2F3D
331
2F3E
331
2F49
331
2F4A
331
2F55
331
2F56
331
2F61
331
2F62
331
302B
331
302C
331
3037
331
3038
331
3043
331
3044
331
304F
331
3050
331
305B
331
305C
102
}
 70
     0
280
     1
281
     0
  0
BLOCK_RECORD
  5
606
102
{ACAD_XDICTIONARY
360
607
102
}
330
1
100
AcDbSymbolTableRecord
100
AcDbBlockTableRecord
  2
G$C6871B53C
340
0
 70
     0
280
     1
281
     0
  0
BLOCK_RECORD
  5
614
102
{ACAD_XDICTIONARY
360
615
102
}
330
1
100
AcDbSymbolTableRecord
100
AcDbBlockTableRecord
  2
G$CD7152208
340
0
 70
     0
280
     1
281
     0
  0
BLOCK_RECORD
  5
639
330
1
100
AcDbSymbolTableRecord
100
AcDbBlockTableRecord
  2
_Dot
340
0
 70
     0
280
     1
281
     0
  0
BLOCK_RECORD
  5
64A
102
{ACAD_XDICTIONARY
360
64B
102
}
330
1
100
AcDbSymbolTableRecord
100
AcDbBlockTableRecord
  2
G$C2A2A107F
340
0
 70
     0
280
     1
281
     0
  0
BLOCK_RECORD
  5
BC8
330
1
100
AcDbSymbolTableRecord
100
AcDbBlockTableRecord
  2
G$C165DBF54
340
0
102
{BLKREFS
331
2FDF
102
}
 70
     0
280
     1
281
     0
1001
AcDbDynamicBlockGUID
1000
{479d2c7b-f6c3-4861-acbc-d34a4f4a2dc7}
  0
BLOCK_RECORD
  5
187B
102
{ACAD_XDICTIONARY
360
187C
102
}
330
1
100
AcDbSymbolTableRecord
100
AcDbBlockTableRecord
  2
G$CEF564B3B
340
0
 70
     0
280
     1
281
     0
  0
BLOCK_RECORD
  5
1882
102
{ACAD_XDICTIONARY
360
1883
102
}
330
1
100
AcDbSymbolTableRecord
100
AcDbBlockTableRecord
  2
G$CB19DC8F7
340
0
 70
     0
280
     1
281
     0
1001
AcDbDynamicBlockGUID
1000
{f172ea19-8cb5-418d-a29b-c5652f4599e6}
  0
BLOCK_RECORD
  5
188F
102
{ACAD_XDICTIONARY
360
1890
102
}
330
1
100
AcDbSymbolTableRecord
100
AcDbBlockTableRecord
  2
G$CE1693FE5
340
0
 70
     0
280
     1
281
     0
  0
BLOCK_RECORD
  5
1B9E
330
1
100
AcDbSymbolTableRecord
100
AcDbBlockTableRecord
  2
G$CFFEEE416
340
0
 70
     0
280
     1
281
     0
1001
AcDbDynamicBlockGUID
1000
{0c2157f6-b3ee-4cc8-8ef8-e3c5727a5504}
  0
BLOCK_RECORD
  5
1D07
330
1
100
AcDbSymbolTableRecord
100
AcDbBlockTableRecord
  2
G$C71E0D0B6
340
0
 70
     0
280
     1
281
     0
1001
AcDbDynamicBlockGUID
1000
{1b67938a-c04f-4007-9aec-0af97924580e}
  0
BLOCK_RECORD
  5
1F7C
102
{ACAD_XDICTIONARY
360
1F7D
102
}
330
1
100
AcDbSymbolTableRecord
100
AcDbBlockTableRecord
  2
G$CD8E13982
340
0
 70
     0
280
     1
281
     0
1001
AcDbDynamicBlockGUID
1000
{a60dc6bd-090b-4d02-89df-6ca7ec748270}
  0
BLOCK_RECORD
  5
2168
330
1
100
AcDbSymbolTableRecord
100
AcDbBlockTableRecord
  2
G$C453E252E
340
0
 70
     0
280
     1
281
     0
1001
AcDbDynamicBlockGUID
1000
{5617beaa-9f4d-4b54-802b-8a0c3ab02923}
  0
BLOCK_RECORD
  5
218F
102
{ACAD_XDICTIONARY
360
2190
102
}
330
1
100
AcDbSymbolTableRecord
100
AcDbBlockTableRecord
  2
G$C34E990A1
340
0
 70
     0
280
     1
281
     0
  0
BLOCK_RECORD
  5
2321
330
1
100
AcDbSymbolTableRecord
100
AcDbBlockTableRecord
  2
G$CC91778B9
340
0
102
{BLKREFS
331
237E
102
}
 70
     0
280
     1
281
     0
1001
AcDbDynamicBlockGUID
1000
{4a7b87a7-3508-4c0b-92ee-70d2268fe1a6}
  0
BLOCK_RECORD
  5
237A
102
{ACAD_XDICTIONARY
360
237B
102
}
330
1
100
AcDbSymbolTableRecord
100
AcDbBlockTableRecord
  2
G$CBE61CC38
340
0
 70
     0
280
     1
281
     0
  0
BLOCK_RECORD
  5
2382
330
1
100
AcDbSymbolTableRecord
100
AcDbBlockTableRecord
  2
G$CB27C112C
340
0
 70
     0
280
     1
281
     0
1001
AcDbDynamicBlockGUID
1000
{c052728d-9344-4c66-8aae-fa5bc194eecd}
  0
BLOCK_RECORD
  5
24C2
102
{ACAD_XDICTIONARY
360
24C3
102
}
330
1
100
AcDbSymbolTableRecord
100
AcDbBlockTableRecord
  2
G$C56DAE06E
340
0
 70
     0
280
     1
281
     0
  0
BLOCK_RECORD
  5
24FE
330
1
100
AcDbSymbolTableRecord
100
AcDbBlockTableRecord
  2
G$C83A38C16
340
0
 70
     0
280
     1
281
     0
1001
AcDbDynamicBlockGUID
1000
{4122586b-fc58-4d96-8268-8d5b18754cbf}
  0
BLOCK_RECORD
  5
26E0
102
{ACAD_XDICTIONARY
360
26E1
102
}
330
1
100
AcDbSymbolTableRecord
100
AcDbBlockTableRecord
  2
G$C2E32D176
340
0
 70
     0
280
     1
281
     0
  0
BLOCK_RECORD
  5
3025
330
1
100
AcDbSymbolTableRecord
100
AcDbBlockTableRecord
  2
*D290
340
0
 70
     0
280
     1
281
     0
  0
BLOCK_RECORD
  5
3049
330
1
100
AcDbSymbolTableRecord
100
AcDbBlockTableRecord
  2
*D293
340
0
 70
     0
280
     1
281
     0
  0
BLOCK_RECORD
  5
3055
330
1
100
AcDbSymbolTableRecord
100
AcDbBlockTableRecord
  2
*D294
340
0
 70
     0
280
     1
281
     0
  0
ENDTAB
  0
ENDSEC
  0
SECTION
  2
BLOCKS
  0
BLOCK
  5
20
330
1F
100
AcDbEntity
  8
0
100
AcDbBlockBegin
  2
*Model_Space
 70
     0
 10
0.0
 20
0.0
 30
0.0
  3
*Model_Space
  1

  0
ENDBLK
  5
21
330
1F
100
AcDbEntity
  8
0
100
AcDbBlockEnd
  0
BLOCK
  5
5A
330
58
100
AcDbEntity
 67
     1
  8
0
100
AcDbBlockBegin
  2
*Paper_Space
 70
     0
 10
0.0
 20
0.0
 30
0.0
  3
*Paper_Space
  1

  0
ENDBLK
  5
5B
330
58
100
AcDbEntity
 67
     1
  8
0
100
AcDbBlockEnd
  0
BLOCK
  5
5F
330
5D
100
AcDbEntity
  8
0
100
AcDbBlockBegin
  2
*Paper_Space0
 70
     0
 10
0.0
 20
0.0
 30
0.0
  3
*Paper_Space0
  1

  0
ENDBLK
  5
60
330
5D
100
AcDbEntity
  8
0
100
AcDbBlockEnd
  0
BLOCK
  5
523
330
522
100
AcDbEntity
  8
0
370
    -1
100
AcDbBlockBegin
  2
_OPEN
 70
     0
 10
0.0
 20
0.0
 30
0.0
  3
_OPEN
  1

  0
LINE
  5
524
330
522
100
AcDbEntity
  8
0
  6
ByBlock
 62
     0
370
    -1
100
AcDbLine
 10
-1.0
 20
0.1666666666666667
 30
0.0
 11
0.0
 21
0.0
 31
0.0
  0
LINE
  5
525
330
522
100
AcDbEntity
  8
0
  6
ByBlock
 62
     0
370
    -1
100
AcDbLine
 10
0.0
 20
0.0
 30
0.0
 11
-1.0
 21
-0.1666666666666667
 31
0.0
  0
LINE
  5
526
330
522
100
AcDbEntity
  8
0
  6
ByBlock
 62
     0
370
    -1
100
AcDbLine
 10
0.0
 20
0.0
 30
0.0
 11
-1.0
 21
0.0
 31
0.0
  0
ENDBLK
  5
527
330
522
100
AcDbEntity
  8
0
370
    -1
100
AcDbBlockEnd
  0
BLOCK
  5
529
330
528
100
AcDbEntity
  8
0
370
    -1
100
AcDbBlockBegin
  2
_OBLIQUE
 70
     0
 10
0.0
 20
0.0
 30
0.0
  3
_OBLIQUE
  1

  0
LINE
  5
52A
330
528
100
AcDbEntity
  8
0
  6
ByBlock
 62
     0
370
    -2
100
AcDbLine
 10
-0.5
 20
-0.5
 30
0.0
 11
0.5
 21
0.5
 31
0.0
  0
LINE
  5
52B
330
528
100
AcDbEntity
  8
0
  6
ByBlock
 62
     0
370
    -2
100
AcDbLine
 10
0.0
 20
0.0
 30
0.0
 11
0.0
 21
0.0
 31
0.0
  0
ENDBLK
  5
52C
330
528
100
AcDbEntity
  8
A-_ANOT----_H-_N
370
    -1
100
AcDbBlockEnd
  0
BLOCK
  5
609
330
606
100
AcDbEntity
  8
0
100
AcDbBlockBegin
  2
G$C6871B53C
 70
     0
 10
0.0
 20
0.0
 30
0.0
  3
G$C6871B53C
  1

  0
LWPOLYLINE
  5
60A
330
606
100
AcDbEntity
  8
0
 62
     3
370
    -3
100
AcDbPolyline
 90
        4
 70
     1
 43
0.0
 10
0.0
 20
0.0
 10
40.0
 20
0.0
 10
40.0
 20
50.0
 10
0.0
 20
50.0
  0
LINE
  5
60B
330
606
100
AcDbEntity
  8
0
 62
     8
 48
0.5
370
    -3
100
AcDbLine
 10
0.0
 20
50.0
 30
0.0
 11
40.0
 21
0.0
 31
0.0
  0
LINE
  5
60C
330
606
100
AcDbEntity
  8
0
 62
     8
 48
0.5
370
    -3
100
AcDbLine
 10
0.0
 20
0.0
 30
0.0
 11
40.0
 21
50.0
 31
0.0
  0
ENDBLK
  5
60D
330
606
100
AcDbEntity
  8
0
100
AcDbBlockEnd
  0
BLOCK
  5
617
330
614
100
AcDbEntity
  8
0
100
AcDbBlockBegin
  2
G$CD7152208
 70
     0
 10
0.0
 20
0.0
 30
0.0
  3
G$CD7152208
  1

  0
LINE
  5
618
330
614
100
AcDbEntity
  8
_lines
100
AcDbLine
 10
16.88076436214124
 20
87.75396592278958
 30
0.0
 11
16.88076436214124
 21
90.41469002391386
 31
0.0
  0
ARC
  5
619
330
614
100
AcDbEntity
  8
_lines
100
AcDbCircle
 10
15.88076436214124
 20
90.41469002391386
 30
0.0
 40
1.0
100
AcDbArc
 50
0.0
 51
90.0
  0
LINE
  5
61A
330
614
100
AcDbEntity
  8
_lines
100
AcDbLine
 10
15.88076436214124
 20
91.41469002391386
 30
0.0
 11
3.051734022178607
 21
91.41469002391386
 31
0.0
  0
ARC
  5
61B
330
614
100
AcDbEntity
  8
_lines
100
AcDbCircle
 10
3.051734022178607
 20
90.41469002391023
 30
0.0
 40
1.000000000001535
100
AcDbArc
 50
90.0
 51
169.5118037983809
  0
LINE
  5
61C
330
614
100
AcDbEntity
  8
_lines
100
AcDbLine
 10
2.068441592201452
 20
90.59672298013356
 30
0.0
 11
0.0334151400465998
 21
79.60406458068064
 31
0.0
  0
ARC
  5
61D
330
614
100
AcDbEntity
  8
_lines
100
AcDbCircle
 10
2.000000000000909
 20
79.23999866823397
 30
0.0
 40
2.00000000000096
100
AcDbArc
 50
169.5118037983667
 51
237.7651800470682
  0
LINE
  5
61E
330
614
100
AcDbEntity
  8
_lines
100
AcDbLine
 10
0.9332191429266459
 20
77.54826033060999
 30
0.0
 11
6.371753296591123
 21
74.11881500999334
 31
0.0
  0
ARC
  5
61F
330
614
100
AcDbEntity
  8
_lines
100
AcDbCircle
 10
-9.629959559511008
 20
48.74273994565374
 30
0.0
 40
30.00000000000131
100
AcDbArc
 50
14.33762585345906
 51
57.76518004708165
  0
LINE
  5
620
330
614
100
AcDbEntity
  8
_lines
100
AcDbLine
 10
19.43564002405219
 20
56.17179916254281
 30
0.0
 11
24.88320987134648
 21
34.85861814428245
 31
0.0
  0
ARC
  5
621
330
614
100
AcDbEntity
  8
_lines
100
AcDbCircle
 10
53.94880945490786
 20
42.28767736117152
 30
0.0
 40
29.99999999999993
100
AcDbArc
 50
194.3376258534557
 51
229.3656677408582
  0
LINE
  5
622
330
614
100
AcDbEntity
  8
_lines
100
AcDbLine
 10
34.41193753198604
 20
19.52124076105065
 30
0.0
 11
38.30499333734133
 21
16.18043982702875
 31
0.0
  0
ARC
  5
623
330
614
100
AcDbEntity
  8
_lines
100
AcDbCircle
 10
25.28041205539466
 20
1.002815426949383
 30
0.0
 40
19.9999999999985
100
AcDbArc
 50
36.21083694825055
 51
49.36566774085934
  0
LINE
  5
624
330
614
100
AcDbEntity
  8
_lines
100
AcDbLine
 10
42.50828968670521
 20
10.33716085122251
 30
0.0
 11
42.03339202656753
 21
7.259654366209361
 31
0.0
  0
ARC
  5
625
330
614
100
AcDbEntity
  8
_lines
100
AcDbCircle
 10
40.53168502446533
 20
10.64217562005797
 30
0.0
 40
1.999999999999788
100
AcDbArc
 50
351.2277387767663
 51
36.21083694826925
  0
LINE
  5
626
330
614
100
AcDbEntity
  8
_lines
100
AcDbLine
 10
41.41738386142606
 20
12.81798114441881
 30
0.0
 11
42.14538220506802
 21
11.82369219180509
 31
0.0
  0
ARC
  5
627
330
614
100
AcDbEntity
  8
_lines
100
AcDbCircle
 10
46.9749036821695
 20
6.497117444119795
 30
0.0
 40
4.9999999999997
100
AcDbArc
 50
171.227738776756
 51
207.9735891547149
  0
LINE
  5
628
330
614
100
AcDbEntity
  8
_lines
100
AcDbLine
 10
42.55908415777958
 20
4.151794880375746
 30
0.0
 11
44.20019929318551
 21
1.061870974503108
 31
0.0
  0
ARC
  5
629
330
614
100
AcDbEntity
  8
_lines
100
AcDbCircle
 10
45.96652710294165
 20
2.000000000001819
 30
0.0
 40
2.000000000000503
100
AcDbArc
 50
207.9735891548032
 51
270.0
  0
LINE
  5
62A
330
614
100
AcDbEntity
  8
_lines
100
AcDbLine
 10
45.96652710294165
 20
0.0
 30
0.0
 11
130.542071139379
 21
0.0
 31
0.0
  0
ARC
  5
62B
330
614
100
AcDbEntity
  8
_lines
100
AcDbCircle
 10
130.542071139379
 20
2.000000000001819
 30
0.0
 40
2.000000000001817
100
AcDbArc
 50
270.0
 51
0.0
  0
LINE
  5
62C
330
614
100
AcDbEntity
  8
_lines
100
AcDbLine
 10
132.5420711393808
 20
2.000000000001819
 30
0.0
 11
132.5420711393808
 21
73.5
 31
0.0
  0
ARC
  5
62D
330
614
100
AcDbEntity
  8
_lines
100
AcDbCircle
 10
131.042071139379
 20
73.5
 30
0.0
 40
1.500000000000002
100
AcDbArc
 50
0.0
 51
180.0
  0
LINE
  5
62E
330
614
100
AcDbEntity
  8
_lines
100
AcDbLine
 10
129.542071139379
 20
73.5
 30
0.0
 11
129.542071139379
 21
68.5
 31
0.0
  0
LINE
  5
62F
330
614
100
AcDbEntity
  8
_lines
100
AcDbLine
 10
131.042071139379
 20
73.5
 30
0.0
 11
131.042071139379
 21
62.15193032068782
 31
0.0
  0
ARC
  5
630
330
614
100
AcDbEntity
  8
_lines
100
AcDbCircle
 10
126.042071139379
 20
62.15193032068782
 30
0.0
 40
4.999999999999996
100
AcDbArc
 50
298.7687820837271
 51
0.0
  0
LINE
  5
631
330
614
100
AcDbEntity
  8
_lines
100
AcDbLine
 10
128.4484518502222
 20
57.76908514038769
 30
0.0
 11
92.31948031753109
 21
37.93264177486344
 31
0.0
  0
ARC
  5
632
330
614
100
AcDbEntity
  8
_lines
100
AcDbCircle
 10
89.91309960668787
 20
42.31548695516358
 30
0.0
 40
4.999999999999999
100
AcDbArc
 50
242.5985020513257
 51
298.7687820837271
  0
LINE
  5
633
330
614
100
AcDbEntity
  8
_lines
100
AcDbLine
 10
87.61198462772245
 20
37.87647018862845
 30
0.0
 11
9.670371818519016
 21
78.28015013687582
 31
0.0
  0
ARC
  5
634
330
614
100
AcDbEntity
  8
_lines
100
AcDbCircle
 10
11.97148679748443
 20
82.71916690341095
 30
0.0
 40
4.999999999999999
100
AcDbArc
 50
171.8014896755656
 51
242.5985020513257
  0
ARC
  5
635
330
614
100
AcDbEntity
  8
_lines
100
AcDbCircle
 10
11.97148679748443
 20
84.14519890070551
 30
0.0
 40
5.000000000000023
100
AcDbArc
 50
90.0
 51
188.198510324455
  0
LINE
  5
636
330
614
100
AcDbEntity
  8
_lines
100
AcDbLine
 10
11.97148679748443
 20
89.14519890070551
 30
0.0
 11
14.66945682582627
 21
89.14519890070551
 31
0.0
  0
ENDBLK
  5
637
330
614
100
AcDbEntity
  8
0
100
AcDbBlockEnd
  0
BLOCK
  5
63A
330
639
100
AcDbEntity
  8
0
100
AcDbBlockBegin
  2
_Dot
 70
     0
 10
0.0
 20
0.0
 30
0.0
  3
_Dot
  1

  0
LWPOLYLINE
  5
63B
330
639
100
AcDbEntity
  8
0
  6
ByBlock
 62
     0
440
 16777216
100
AcDbPolyline
 90
        2
 70
     1
 43
0.5
 10
-0.25
 20
0.0
 42
1.0
 10
0.25
 20
0.0
 42
1.0
  0
LINE
  5
63C
330
639
100
AcDbEntity
  8
0
  6
ByBlock
 62
     0
440
 16777216
370
    -2
100
AcDbLine
 10
-0.5
 20
0.0
 30
0.0
 11
-1.0
 21
0.0
 31
0.0
  0
ENDBLK
  5
63D
330
639
100
AcDbEntity
  8
0
100
AcDbBlockEnd
  0
BLOCK
  5
64D
330
64A
100
AcDbEntity
  8
0
100
AcDbBlockBegin
  2
G$C2A2A107F
 70
     0
 10
0.0
 20
0.0
 30
0.0
  3
G$C2A2A107F
  1

  0
LWPOLYLINE
  5
64E
330
64A
100
AcDbEntity
  8
0
 62
     1
 48
0.5
370
    -3
100
AcDbPolyline
 90
       13
 70
     0
 43
0.39
 10
3.991807792449436
 20
0.0607952146779098
 10
0.2052291347154096
 20
11.60084799211245
 42
-0.3154444403219085
 10
4.148211283686578
 20
17.2288358209812
 10
167.1912729961223
 20
76.04996977377732
 42
0.3160763298158982
 10
172.4763846200494
 20
83.5752193447529
 42
0.0979840179088652
 10
171.8633558313695
 20
86.67339389046492
 42
-0.1901895654699158
 10
171.7753170694477
 20
92.62187120955605
 42
-0.2331417737959737
 10
176.9113534049084
 20
97.42200648388143
 10
338.5020032749271
 20
153.8107698771269
 42
0.4195131113913144
 10
340.2870431224546
 20
157.7016170894017
 10
337.5324503276252
 20
165.085650864052
 42
-0.3849086565160594
 10
340.8742863619391
 20
170.8982900926762
 10
359.8959654100909
 20
177.0788082708418
  0
ENDBLK
  5
64F
330
64A
100
AcDbEntity
  8
0
100
AcDbBlockEnd
  0
BLOCK
  5
BC9
330
BC8
100
AcDbEntity
  8
0
100
AcDbBlockBegin
  2
G$C165DBF54
 70
     0
 10
0.0
 20
0.0
 30
0.0
  3
G$C165DBF54
  1

  0
LINE
  5
BCA
330
BC8
100
AcDbEntity
  8
_lines
100
AcDbLine
 10
0.3929681876434188
 20
20.27561882960981
 30
0.0
 11
8.124407595323646
 21
0.0
 31
0.0
1001
REVIT
1002
{
1070
     3
1000
541600
1002
}
  0
ARC
  5
BCB
330
BC8
100
AcDbEntity
  8
_lines
100
AcDbCircle
 10
5.988025489960819
 20
22.40910964332579
 30
0.0
 40
5.988025489960886
100
AcDbArc
 50
109.9696388459708
 51
200.8727024843681
1001
REVIT
1002
{
1070
     3
1000
541600
1002
}
  0
LINE
  5
BCC
330
BC8
100
AcDbEntity
  8
_lines
100
AcDbLine
 10
361.5033518494483
 20
188.7323064455377
 30
0.0
 11
342.4816728012966
 21
182.5517882673721
 31
0.0
1001
REVIT
1002
{
1070
     3
1000
541600
1002
}
  0
ARC
  5
BCD
330
BC8
100
AcDbEntity
  8
_lines
100
AcDbCircle
 10
344.026757773172
 20
177.7965056858957
 30
0.0
 40
5.000000000000037
100
AcDbArc
 50
108.0000000000086
 51
200.872702484329
1001
REVIT
1002
{
1070
     3
1000
541600
1002
}
  0
LINE
  5
BCE
330
BC8
100
AcDbEntity
  8
0
 62
     1
 48
0.5
370
    -3
100
AcDbLine
 10
343.5449590526696
 20
150.746785398358
 30
0.0
 11
3.942982148970259
 21
28.03709747219364
 31
0.0
1001
REVIT
1002
{
1070
     3
1000
541600
1002
}
  0
LINE
  5
BCF
330
BC8
100
AcDbEntity
  8
_lines
100
AcDbLine
 10
339.3548861255831
 20
176.0150413139672
 30
0.0
 11
346.5176818500531
 21
157.2306845848125
 31
0.0
1001
REVIT
1002
{
1070
     3
1000
541600
1002
}
  0
ARC
  5
BD0
330
BC8
100
AcDbEntity
  8
_lines
100
AcDbCircle
 10
341.8458102024642
 20
155.4492202128822
 30
0.0
 40
4.999999999999972
100
AcDbArc
 50
289.8665030839831
 51
20.8727024843527
1001
REVIT
1002
{
1070
     3
1000
541600
1002
}
  0
CIRCLE
  5
BD1
330
BC8
100
AcDbEntity
  8
_circles
100
AcDbCircle
 10
340.0597577961616
 20
177.1414329795771
 30
0.0
 40
0.5
1001
REVIT
1002
{
1070
     3
1000
548272
1002
}
  0
LWPOLYLINE
  5
BD2
330
BC8
100
AcDbEntity
  8
0
 62
     1
 48
0.5
370
    -3
100
AcDbPolyline
 90
        8
 70
     0
 43
0.39
 10
8.124407595323646
 20
0.0
 10
0.1289867743497073
 20
21.17294031940961
 42
-0.3736071094690657
 10
3.942982148970281
 20
28.03709747219425
 10
343.5449590526696
 20
150.7467853983584
 42
0.4193666086212307
 10
346.5176818500531
 20
157.2306845848125
 10
339.2385977974005
 20
176.3565320589077
 42
-0.4077765970010953
 10
342.4816728012966
 20
182.5517882673721
 10
361.5033518494483
 20
188.7323064455377
  0
ENDBLK
  5
BD3
330
BC8
100
AcDbEntity
  8
0
100
AcDbBlockEnd
  0
BLOCK
  5
187E
330
187B
100
AcDbEntity
  8
0
100
AcDbBlockBegin
  2
G$CEF564B3B
 70
     0
 10
0.0
 20
0.0
 30
0.0
  3
G$CEF564B3B
  1

  0
LWPOLYLINE
  5
187F
330
187B
100
AcDbEntity
  8
GE FLASHING
 62
     1
 48
0.5
370
    -3
100
AcDbPolyline
 90
        5
 70
     0
 43
1.0
 10
90.37167965212939
 20
93.13741346982351
 10
90.37167965212939
 20
137.7740636299386
 10
0.5
 20
137.7740636299386
 10
0.5
 20
44.19081537009652
 10
9.5
 20
0.0999999999999091
  0
ENDBLK
  5
1880
330
187B
100
AcDbEntity
  8
0
100
AcDbBlockEnd
  0
BLOCK
  5
1885
330
1882
100
AcDbEntity
  8
GE FLASHING
100
AcDbBlockBegin
  2
G$CB19DC8F7
 70
     0
 10
0.0
 20
0.0
 30
0.0
  3
G$CB19DC8F7
  1

  0
LWPOLYLINE
  5
1886
330
1882
100
AcDbEntity
  8
GE TILES
 62
     1
 48
0.5
370
    -3
100
AcDbPolyline
 90
      100
 70
     0
 43
1.0
 10
0.5
 20
40.50640191459752
 10
0.5
 20
0.506401914597518
 10
14.1725153997686
 20
0.500118431415558
 42
0.3144374898271473
 10
16.81581283750165
 20
2.344808262156221
 42
-0.0952816377930046
 10
20.63509879313187
 20
8.684814391263444
 42
-0.1507717279415002
 10
25.66152323887854
 20
11.69320834219798
 42
-0.0890307948874332
 10
28.90061418777259
 20
11.89573612264667
 42
-0.1464817733278774
 10
34.20013489598841
 20
9.617286225188764
 42
-0.0085850172702223
 10
36.36945415475475
 20
7.737145184496057
 42
0.1851250302374373
 10
40.67128017781943
 20
6.092474862468862
 42
0.0161362627762171
 10
43.97366053396672
 20
6.202164435833765
 42
0.1680002659188674
 10
47.62084806579151
 20
7.737145184629753
 42
-0.0485798954908245
 10
52.27894242697039
 20
11.16329436993465
 42
-0.1983824016748921
 10
57.21651403806118
 20
11.88637168073956
 42
-0.047523137941845
 10
61.33409766229579
 20
10.42406521811972
 42
-0.1630622330458971
 10
63.93659805260813
 20
7.953000555517974
 42
0.0298243649624302
 10
66.57762552654731
 20
3.622572194136865
 42
-0.0554847166023468
 10
67.81706495662638
 20
1.33439106573951
 42
0.3144581315813627
 10
68.82136102408822
 20
0.6822900860524896
 42
-0.1075480814737937
 10
69.8177868205812
 20
0.500118431415558
 10
80.89175846141552
 20
0.5064024137050183
 42
0.2677971490740892
 10
83.57467810244816
 20
2.056401914584967
 10
86.33025617792191
 20
7.937827973607455
 42
-0.2909805391793188
 10
90.38222667345235
 20
10.51404450718292
 10
105.539499278756
 20
10.55585857672531
 10
111.2089692617174
 20
11.23063264256552
 10
114.6655868486605
 20
11.19046292570647
 10
118.6311006377946
 20
10.62367477374619
 10
123.0573623773744
 20
9.386827873678612
 10
126.1594207850212
 20
8.056397858123091
 10
129.2248930004716
 20
6.47201829828191
 10
131.4881645881032
 20
5.811293573851344
 10
133.7432006337431
 20
5.74502765606303
 10
135.8499342378982
 20
6.203079345412789
 10
137.5337544901186
 20
6.986468366736517
 10
140.7950917390208
 20
8.807104952828468
 42
-0.2343085133768697
 10
156.8614793675533
 20
7.594591718855554
 42
-0.0369830761216474
 10
158.9750527230408
 20
6.11872238388105
 42
0.0452840395304961
 10
161.2311011927886
 20
4.59835705992009
 42
0.0839199469717881
 10
163.9300143321916
 20
3.658674814784263
 42
0.0577814066399808
 10
167.1340254517172
 20
3.491394980279438
 42
0.0817118573763595
 10
169.8277797613273
 20
4.111711191467748
 42
0.060460522145006
 10
172.7267047677788
 20
5.73389432799695
 42
-0.0175628328589988
 10
175.3359050103627
 20
7.502983267269883
 42
-0.1193038223792303
 10
178.3178182144256
 20
8.501805458517993
 42
-0.0466804696993966
 10
182.6728703623321
 20
8.468861645591005
 42
-0.1224255899562275
 10
185.7635084384356
 20
7.359928461627078
 42
-0.0021976574366095
 10
187.7148586459762
 20
6.046227317925513
 42
0.0598692057381186
 10
190.1835734509341
 20
4.769353675192178
 42
0.0805518231819641
 10
196.5889408784378
 20
3.491062266356948
 42
0.1085830654256639
 10
202.470526338966
 20
4.561922786614105
 42
0.0431621048222569
 10
206.0825613577226
 20
6.454738890144654
 42
-0.073120503309113
 10
213.5135972274193
 20
9.799796311475802
 42
-0.2135351777441864
 10
219.0976687736083
 20
8.991474148594534
 42
0.0277003729638193
 10
221.8823694662906
 20
7.437039103971074
 42
0.0666138996187925
 10
225.5894862758341
 20
6.205645711431771
 42
0.1383936215819727
 10
231.5653848895408
 20
6.729081522864362
 42
0.071769835774096
 10
235.2223579450556
 20
8.754056798192778
 42
-0.0511818591444494
 10
238.3013124250056
 20
10.62792028270633
 42
-0.1776902975007202
 10
241.5546881623677
 20
10.93049883443064
 42
-0.2052507455354989
 10
243.8378261473599
 20
9.144415901918364
 10
247.0417144123421
 20
2.293215352718562
 42
0.2911769892817301
 10
249.8498349677729
 20
0.506401914597518
 10
261.1567026265111
 20
0.5448467670753416
 42
0.2667636498253825
 10
263.5460291287709
 20
2.465096660755535
 10
267.3861375849601
 20
10.05756280756714
 42
-0.1913380611813692
 10
269.9149055353237
 20
11.06203593723512
 10
279.353229131154
 20
11.03820211102266
 42
-0.1941050331233009
 10
283.4751162140983
 20
8.954638598132533
 42
0.0713673250360073
 10
285.0694761338123
 20
7.587074005034992
 42
0.1305424751270063
 10
289.9025117658671
 20
6.055598081225071
 42
0.1537998043526602
 10
294.8000385041751
 20
7.347742183331775
 42
-0.0342019839470086
 10
297.2821976325763
 20
8.687003429507058
 42
-0.1759827198152869
 10
299.609032997389
 20
8.86889660181123
 42
-0.0245861296963565
 10
301.8102541421395
 20
8.140541378602848
 42
-0.1390652413202865
 10
303.0185787390719
 20
7.231336964232469
 42
0.1892836867809608
 10
304.4670411471247
 20
6.348679678694225
 42
-0.0012892425160863
 10
306.240592503932
 20
6.033779596651584
 42
0.22312029341888
 10
308.7863599962434
 20
6.713049575530476
 42
-0.0259294320993023
 10
309.90007038779
 20
7.556101087043771
 42
-0.0668917843344885
 10
313.8636002301564
 20
9.532276123581596
 42
-0.2028112030561561
 10
317.6937928740622
 20
9.258872889142367
 42
0.0033231228805357
 10
319.5754927409284
 20
8.31529122162192
 42
0.0339765351938608
 10
324.3389263245299
 20
6.355948850759432
 42
0.174403570499621
 10
329.9220580049969
 20
6.484526417232246
 42
-0.0142766282042484
 10
332.4259145242595
 20
7.369692131039301
 42
0.1273253406553399
 10
335.278345056076
 20
9.176132187994881
 42
-0.2836931045728486
 10
339.8049350942242
 20
10.40443517272979
 42
-0.0046855754428039
 10
343.7463822015347
 20
9.197030756550248
 42
-0.195884940313394
 10
345.7104704139006
 20
7.564403306076656
 42
0.2728160678700086
 10
347.6450242904602
 20
6.384423292642623
 42
-0.0576703196817088
 10
350.0823247332728
 20
6.065165383007297
 42
0.2597477929231045
 10
352.3466979607565
 20
6.674340685362495
 42
-0.0797956924462406
 10
353.9226653300943
 20
7.780073461120082
 42
0.1930007918767561
 10
355.5701900673371
 20
9.595599550231327
 42
-0.3447979284179001
 10
357.2784954296867
 20
10.64560463221051
 42
0.1498657568152403
 10
359.1987351896905
 20
11.00410606923788
 10
374.6972637832068
 20
10.99034944575214
 42
-0.3059463717492144
 10
377.8929074820962
 20
8.552612251653045
 10
380.8102808585181
 20
2.296285237615848
  0
ENDBLK
  5
1887
330
1882
100
AcDbEntity
  8
GE FLASHING
100
AcDbBlockEnd
  0
BLOCK
  5
1892
330
188F
100
AcDbEntity
  8
_lines
100
AcDbBlockBegin
  2
G$CE1693FE5
 70
     0
 10
0.0
 20
0.0
 30
0.0
  3
G$CE1693FE5
  1

  0
HATCH
  5
1893
330
188F
100
AcDbEntity
  8
0
  6
Dash
 62
     8
 48
0.1
370
    18
100
AcDbHatch
 10
0.0
 20
0.0
 30
0.0
210
0.0
220
0.0
230
1.0
  2
SOLID
 70
     1
 71
     0
 91
        1
 92
        0
 93
        4
 72
     1
 10
1.959124880144373
 20
0.7372192214470488
 11
1.959124880144373
 21
5.569324604104168
 72
     1
 10
1.959124880144373
 20
5.569324604104168
 11
2.618048341415488
 21
5.569324604104168
 72
     1
 10
2.618048341416397
 20
5.569324604104168
 11
2.618048341416397
 21
0.7372192214470488
 72
     1
 10
2.618048341416397
 20
0.7372192214470488
 11
1.959124880145282
 21
0.7372192214470488
 97
        0
 75
     0
 76
     1
 98
        1
 10
2.618048341416397
 20
3.153271912775836
1001
REVIT
1002
{
1070
     3
1000
162980
1002
}
  0
LINE
  5
1894
330
188F
100
AcDbEntity
  8
0
  6
Dash
 62
     8
 48
0.1
370
    18
100
AcDbLine
 10
2.618048341416397
 20
2.102181275184194
 30
0.0
 11
3.086642861036125
 21
2.102181275184194
 31
0.0
1001
REVIT
1002
{
1070
     3
1000
162980
1002
}
  0
LINE
  5
1895
330
188F
100
AcDbEntity
  8
0
  6
Dash
 62
     8
 48
0.1
370
    18
100
AcDbLine
 10
3.677922969505744
 20
2.102181275184194
 30
0.0
 11
40.70648383665321
 21
2.102181275185103
 31
0.0
1001
REVIT
1002
{
1070
     3
1000
162980
1002
}
  0
LINE
  5
1896
330
188F
100
AcDbEntity
  8
0
  6
Dash
 62
     8
 48
0.1
370
    18
100
AcDbLine
 10
40.70648383665412
 20
4.204362550368842
 30
0.0
 11
3.933691160676972
 21
4.204362550367932
 31
0.0
1001
REVIT
1002
{
1070
     3
1000
162980
1002
}
  0
LINE
  5
1897
330
188F
100
AcDbEntity
  8
0
  6
Dash
 62
     8
 48
0.1
370
    18
100
AcDbLine
 10
3.342411052208263
 20
4.204362550367932
 30
0.0
 11
2.618048341416397
 21
4.204362550367478
 31
0.0
1001
REVIT
1002
{
1070
     3
1000
162980
1002
}
  0
LINE
  5
1898
330
188F
100
AcDbEntity
  8
0
  6
Dash
 62
     8
 48
0.1
370
    18
100
AcDbLine
 10
0.0
 20
1.336261008598285
 30
0.0
 11
0.0
 21
4.970282816953386
 31
0.0
1001
REVIT
1002
{
1070
     3
1000
162980
1002
}
  0
ARC
  5
1899
330
188F
100
AcDbEntity
  8
0
  6
Dash
 62
     8
 48
0.1
370
    18
100
AcDbCircle
 10
0.7093329076560622
 20
1.336261008598285
 30
0.0
 40
0.7093329076562176
100
AcDbArc
 50
122.3800650937775
 51
237.6199349062225
1001
REVIT
1002
{
1070
     3
1000
162980
1002
}
  0
ARC
  5
189A
330
188F
100
AcDbEntity
  8
0
  6
Dash
 62
     8
 48
0.1
370
    18
100
AcDbCircle
 10
2.416052691327423
 20
3.153271912775836
 30
0.0
 40
2.416052691327213
100
AcDbArc
 50
149.7273586810873
 51
210.2726413189127
1001
REVIT
1002
{
1070
     3
1000
162980
1002
}
  0
ARC
  5
189B
330
188F
100
AcDbEntity
  8
0
  6
Dash
 62
     8
 48
0.1
370
    18
100
AcDbCircle
 10
0.7093329076560622
 20
4.970282816953386
 30
0.0
 40
0.7093329076562584
100
AcDbArc
 50
122.3800650937972
 51
237.6199349062225
1001
REVIT
1002
{
1070
     3
1000
162980
1002
}
  0
LINE
  5
189C
330
188F
100
AcDbEntity
  8
0
  6
Dash
 62
     8
 48
0.1
370
    18
100
AcDbLine
 10
1.629663149508815
 20
5.569324604104168
 30
0.0
 11
0.3294617306355576
 21
5.569324604104168
 31
0.0
1001
REVIT
1002
{
1070
     3
1000
162980
1002
}
  0
LINE
  5
189D
330
188F
100
AcDbEntity
  8
0
  6
Dash
 62
     8
 48
0.1
370
    18
100
AcDbLine
 10
1.629663149508815
 20
4.37124102980215
 30
0.0
 11
0.3294617306355576
 21
4.37124102980215
 31
0.0
1001
REVIT
1002
{
1070
     3
1000
162980
1002
}
  0
LINE
  5
189E
330
188F
100
AcDbEntity
  8
0
  6
Dash
 62
     8
 48
0.1
370
    18
100
AcDbLine
 10
1.629663149508815
 20
1.935302795749521
 30
0.0
 11
0.3294617306355576
 21
1.935302795749521
 31
0.0
1001
REVIT
1002
{
1070
     3
1000
162980
1002
}
  0
LINE
  5
189F
330
188F
100
AcDbEntity
  8
0
  6
Dash
 62
     8
 48
0.1
370
    18
100
AcDbLine
 10
1.629663149508815
 20
0.7372192214470488
 30
0.0
 11
0.3294617306355576
 21
0.7372192214470488
 31
0.0
1001
REVIT
1002
{
1070
     3
1000
162980
1002
}
  0
LINE
  5
18A0
330
188F
100
AcDbEntity
  8
0
  6
Dash
 62
     8
 48
0.1
370
    18
100
AcDbLine
 10
1.629663149508815
 20
6.306543825551216
 30
0.0
 11
1.629663149509724
 21
0.0
 31
0.0
1001
REVIT
1002
{
1070
     3
1000
162980
1002
}
  0
LINE
  5
18A1
330
188F
100
AcDbEntity
  8
0
  6
Dash
 62
     8
 48
0.1
370
    18
100
AcDbLine
 10
1.959124880144373
 20
6.306543825551216
 30
0.0
 11
1.629663149508815
 21
6.306543825551216
 31
0.0
1001
REVIT
1002
{
1070
     3
1000
162980
1002
}
  0
LINE
  5
18A2
330
188F
100
AcDbEntity
  8
0
  6
Dash
 62
     8
 48
0.1
370
    18
100
AcDbLine
 10
1.629663149509724
 20
0.0
 30
0.0
 11
1.959124880145282
 21
0.0000000000004547
 31
0.0
1001
REVIT
1002
{
1070
     3
1000
162980
1002
}
  0
LINE
  5
18A3
330
188F
100
AcDbEntity
  8
0
  6
Dash
 62
     8
 48
0.1
370
    18
100
AcDbLine
 10
1.959124880144373
 20
6.306543825551216
 30
0.0
 11
1.959124880145282
 21
5.569324604104168
 31
0.0
1001
REVIT
1002
{
1070
     3
1000
162980
1002
}
  0
LINE
  5
18A4
330
188F
100
AcDbEntity
  8
0
  6
Dash
 62
     8
 48
0.1
370
    18
100
AcDbLine
 10
1.959124880145282
 20
0.7372192214475035
 30
0.0
 11
1.959124880145282
 21
0.0000000000004547
 31
0.0
1001
REVIT
1002
{
1070
     3
1000
162980
1002
}
  0
LINE
  5
18A5
330
188F
100
AcDbEntity
  8
0
  6
Dash
 62
     8
 48
0.1
370
    18
100
AcDbLine
 10
3.937443091726891
 20
4.235200001892736
 30
0.0
 11
4.379852680223848
 21
1.726170545823152
 31
0.0
1001
REVIT
1002
{
1070
     3
1000
162980
1002
}
  0
LINE
  5
18A6
330
188F
100
AcDbEntity
  8
0
  6
Dash
 62
     8
 48
0.1
370
    18
100
AcDbLine
 10
4.379852680223848
 20
1.726170545823152
 30
0.0
 11
4.594818725230652
 21
2.102181275184194
 31
0.0
1001
REVIT
1002
{
1070
     3
1000
162980
1002
}
  0
LINE
  5
18A7
330
188F
100
AcDbEntity
  8
0
  6
Dash
 62
     8
 48
0.1
370
    18
100
AcDbLine
 10
40.70648383665321
 20
2.102181275185103
 30
0.0
 11
41.95912488014528
 21
3.1532719127772
 31
0.0
1001
REVIT
1002
{
1070
     3
1000
162980
1002
}
  0
LINE
  5
18A8
330
188F
100
AcDbEntity
  8
0
  6
Dash
 62
     8
 48
0.1
370
    18
100
AcDbLine
 10
40.70648383665412
 20
4.204362550368842
 30
0.0
 11
41.95912488014528
 21
3.1532719127772
 31
0.0
1001
REVIT
1002
{
1070
     3
1000
162980
1002
}
  0
LINE
  5
18A9
330
188F
100
AcDbEntity
  8
0
  6
Dash
 62
     8
 48
0.1
370
    18
100
AcDbLine
 10
41.95912488014528
 20
3.1532719127772
 30
0.0
 11
39.35424813983536
 21
4.204362550368842
 31
0.0
1001
REVIT
1002
{
1070
     3
1000
162980
1002
}
  0
ARC
  5
18AA
330
188F
100
AcDbEntity
  8
0
  6
Dash
 62
     8
 48
0.1
370
    18
100
AcDbCircle
 10
42.43472275428303
 20
3.203085492852551
 30
0.0
 40
2.049097326358384
100
AcDbArc
 50
164.3059196023562
 51
212.497514400309
1001
REVIT
1002
{
1070
     3
1000
162980
1002
}
  0
LINE
  5
18AB
330
188F
100
AcDbEntity
  8
0
  6
Dash
 62
     8
 48
0.1
370
    18
100
AcDbLine
 10
5.853350113638953
 20
4.580373279728974
 30
0.0
 11
6.356623064038104
 21
1.726170545823152
 31
0.0
1001
REVIT
1002
{
1070
     3
1000
162980
1002
}
  0
LINE
  5
18AC
330
188F
100
AcDbEntity
  8
0
  6
Dash
 62
     8
 48
0.1
370
    18
100
AcDbLine
 10
5.638384068632149
 20
4.204362550367932
 30
0.0
 11
5.853350113638953
 21
4.580373279728974
 31
0.0
1001
REVIT
1002
{
1070
     3
1000
162980
1002
}
  0
LINE
  5
18AD
330
188F
100
AcDbEntity
  8
0
  6
Dash
 62
     8
 48
0.1
370
    18
100
AcDbLine
 10
6.356623064038104
 20
1.726170545823152
 30
0.0
 11
6.571589109044908
 21
2.102181275184194
 31
0.0
1001
REVIT
1002
{
1070
     3
1000
162980
1002
}
  0
LINE
  5
18AE
330
188F
100
AcDbEntity
  8
0
  6
Dash
 62
     8
 48
0.1
370
    18
100
AcDbLine
 10
7.830120497453208
 20
4.580373279728974
 30
0.0
 11
8.333393447853268
 21
1.726170545823152
 31
0.0
1001
REVIT
1002
{
1070
     3
1000
162980
1002
}
  0
LINE
  5
18AF
330
188F
100
AcDbEntity
  8
0
  6
Dash
 62
     8
 48
0.1
370
    18
100
AcDbLine
 10
7.615154452446404
 20
4.204362550367932
 30
0.0
 11
7.830120497453208
 21
4.580373279728974
 31
0.0
1001
REVIT
1002
{
1070
     3
1000
162980
1002
}
  0
LINE
  5
18B0
330
188F
100
AcDbEntity
  8
0
  6
Dash
 62
     8
 48
0.1
370
    18
100
AcDbLine
 10
8.333393447853268
 20
1.726170545823152
 30
0.0
 11
8.548359492860072
 21
2.102181275184194
 31
0.0
1001
REVIT
1002
{
1070
     3
1000
162980
1002
}
  0
LINE
  5
18B1
330
188F
100
AcDbEntity
  8
0
  6
Dash
 62
     8
 48
0.1
370
    18
100
AcDbLine
 10
9.806890881267464
 20
4.580373279728974
 30
0.0
 11
10.31016383166752
 21
1.726170545823152
 31
0.0
1001
REVIT
1002
{
1070
     3
1000
162980
1002
}
  0
LINE
  5
18B2
330
188F
100
AcDbEntity
  8
0
  6
Dash
 62
     8
 48
0.1
370
    18
100
AcDbLine
 10
9.59192483626066
 20
4.204362550367932
 30
0.0
 11
9.806890881267464
 21
4.580373279728974
 31
0.0
1001
REVIT
1002
{
1070
     3
1000
162980
1002
}
  0
LINE
  5
18B3
330
188F
100
AcDbEntity
  8
0
  6
Dash
 62
     8
 48
0.1
370
    18
100
AcDbLine
 10
10.31016383166752
 20
1.726170545823152
 30
0.0
 11
10.52512987667433
 21
2.102181275184194
 31
0.0
1001
REVIT
1002
{
1070
     3
1000
162980
1002
}
  0
LINE
  5
18B4
330
188F
100
AcDbEntity
  8
0
  6
Dash
 62
     8
 48
0.1
370
    18
100
AcDbLine
 10
11.78366126508172
 20
4.580373279728974
 30
0.0
 11
12.28693421548178
 21
1.726170545823152
 31
0.0
1001
REVIT
1002
{
1070
     3
1000
162980
1002
}
  0
LINE
  5
18B5
330
188F
100
AcDbEntity
  8
0
  6
Dash
 62
     8
 48
0.1
370
    18
100
AcDbLine
 10
11.56869522007491
 20
4.204362550367932
 30
0.0
 11
11.78366126508172
 21
4.580373279728974
 31
0.0
1001
REVIT
1002
{
1070
     3
1000
162980
1002
}
  0
LINE
  5
18B6
330
188F
100
AcDbEntity
  8
0
  6
Dash
 62
     8
 48
0.1
370
    18
100
AcDbLine
 10
12.28693421548178
 20
1.726170545823152
 30
0.0
 11
12.50190026048858
 21
2.102181275184194
 31
0.0
1001
REVIT
1002
{
1070
     3
1000
162980
1002
}
  0
LINE
  5
18B7
330
188F
100
AcDbEntity
  8
0
  6
Dash
 62
     8
 48
0.1
370
    18
100
AcDbLine
 10
13.76043164889688
 20
4.580373279728974
 30
0.0
 11
14.26370459929603
 21
1.726170545823152
 31
0.0
1001
REVIT
1002
{
1070
     3
1000
162980
1002
}
  0
LINE
  5
18B8
330
188F
100
AcDbEntity
  8
0
  6
Dash
 62
     8
 48
0.1
370
    18
100
AcDbLine
 10
13.54546560389008
 20
4.204362550367932
 30
0.0
 11
13.76043164889688
 21
4.580373279728974
 31
0.0
1001
REVIT
1002
{
1070
     3
1000
162980
1002
}
  0
LINE
  5
18B9
330
188F
100
AcDbEntity
  8
0
  6
Dash
 62
     8
 48
0.1
370
    18
100
AcDbLine
 10
14.26370459929603
 20
1.726170545823152
 30
0.0
 11
14.47867064430284
 21
2.102181275184194
 31
0.0
1001
REVIT
1002
{
1070
     3
1000
162980
1002
}
  0
LINE
  5
18BA
330
188F
100
AcDbEntity
  8
0
  6
Dash
 62
     8
 48
0.1
370
    18
100
AcDbLine
 10
15.73720203271114
 20
4.580373279728974
 30
0.0
 11
16.24047498311029
 21
1.726170545823152
 31
0.0
1001
REVIT
1002
{
1070
     3
1000
162980
1002
}
  0
LINE
  5
18BB
330
188F
100
AcDbEntity
  8
0
  6
Dash
 62
     8
 48
0.1
370
    18
100
AcDbLine
 10
15.52223598770433
 20
4.204362550367932
 30
0.0
 11
15.73720203271114
 21
4.580373279728974
 31
0.0
1001
REVIT
1002
{
1070
     3
1000
162980
1002
}
  0
LINE
  5
18BC
330
188F
100
AcDbEntity
  8
0
  6
Dash
 62
     8
 48
0.1
370
    18
100
AcDbLine
 10
16.24047498311029
 20
1.726170545823152
 30
0.0
 11
16.45544102811709
 21
2.102181275184194
 31
0.0
1001
REVIT
1002
{
1070
     3
1000
162980
1002
}
  0
LINE
  5
18BD
330
188F
100
AcDbEntity
  8
0
  6
Dash
 62
     8
 48
0.1
370
    18
100
AcDbLine
 10
17.71397241652539
 20
4.580373279728974
 30
0.0
 11
18.21724536692454
 21
1.726170545823607
 31
0.0
1001
REVIT
1002
{
1070
     3
1000
162980
1002
}
  0
LINE
  5
18BE
330
188F
100
AcDbEntity
  8
0
  6
Dash
 62
     8
 48
0.1
370
    18
100
AcDbLine
 10
17.49900637151859
 20
4.204362550368387
 30
0.0
 11
17.71397241652539
 21
4.580373279728974
 31
0.0
1001
REVIT
1002
{
1070
     3
1000
162980
1002
}
  0
LINE
  5
18BF
330
188F
100
AcDbEntity
  8
0
  6
Dash
 62
     8
 48
0.1
370
    18
100
AcDbLine
 10
18.21724536692454
 20
1.726170545823607
 30
0.0
 11
18.43221141193226
 21
2.102181275184648
 31
0.0
1001
REVIT
1002
{
1070
     3
1000
162980
1002
}
  0
LINE
  5
18C0
330
188F
100
AcDbEntity
  8
0
  6
Dash
 62
     8
 48
0.1
370
    18
100
AcDbLine
 10
19.69074280033965
 20
4.580373279729429
 30
0.0
 11
20.19401575073971
 21
1.726170545823607
 31
0.0
1001
REVIT
1002
{
1070
     3
1000
162980
1002
}
  0
LINE
  5
18C1
330
188F
100
AcDbEntity
  8
0
  6
Dash
 62
     8
 48
0.1
370
    18
100
AcDbLine
 10
19.47577675533284
 20
4.204362550368387
 30
0.0
 11
19.69074280033965
 21
4.580373279729429
 31
0.0
1001
REVIT
1002
{
1070
     3
1000
162980
1002
}
  0
LINE
  5
18C2
330
188F
100
AcDbEntity
  8
0
  6
Dash
 62
     8
 48
0.1
370
    18
100
AcDbLine
 10
20.19401575073971
 20
1.726170545823607
 30
0.0
 11
20.40898179574651
 21
2.102181275184648
 31
0.0
1001
REVIT
1002
{
1070
     3
1000
162980
1002
}
  0
LINE
  5
18C3
330
188F
100
AcDbEntity
  8
0
  6
Dash
 62
     8
 48
0.1
370
    18
100
AcDbLine
 10
21.6675131841539
 20
4.580373279729429
 30
0.0
 11
22.17078613455396
 21
1.726170545823607
 31
0.0
1001
REVIT
1002
{
1070
     3
1000
162980
1002
}
  0
LINE
  5
18C4
330
188F
100
AcDbEntity
  8
0
  6
Dash
 62
     8
 48
0.1
370
    18
100
AcDbLine
 10
21.4525471391471
 20
4.204362550368387
 30
0.0
 11
21.6675131841539
 21
4.580373279729429
 31
0.0
1001
REVIT
1002
{
1070
     3
1000
162980
1002
}
  0
LINE
  5
18C5
330
188F
100
AcDbEntity
  8
0
  6
Dash
 62
     8
 48
0.1
370
    18
100
AcDbLine
 10
22.17078613455396
 20
1.726170545823607
 30
0.0
 11
22.38575217956077
 21
2.102181275184648
 31
0.0
1001
REVIT
1002
{
1070
     3
1000
162980
1002
}
  0
LINE
  5
18C6
330
188F
100
AcDbEntity
  8
0
  6
Dash
 62
     8
 48
0.1
370
    18
100
AcDbLine
 10
23.64428356796907
 20
4.580373279729429
 30
0.0
 11
24.14755651836822
 21
1.726170545823607
 31
0.0
1001
REVIT
1002
{
1070
     3
1000
162980
1002
}
  0
LINE
  5
18C7
330
188F
100
AcDbEntity
  8
0
  6
Dash
 62
     8
 48
0.1
370
    18
100
AcDbLine
 10
23.42931752296226
 20
4.204362550368387
 30
0.0
 11
23.64428356796907
 21
4.580373279729429
 31
0.0
1001
REVIT
1002
{
1070
     3
1000
162980
1002
}
  0
LINE
  5
18C8
330
188F
100
AcDbEntity
  8
0
  6
Dash
 62
     8
 48
0.1
370
    18
100
AcDbLine
 10
24.14755651836822
 20
1.726170545823607
 30
0.0
 11
24.36252256337502
 21
2.102181275184648
 31
0.0
1001
REVIT
1002
{
1070
     3
1000
162980
1002
}
  0
LINE
  5
18C9
330
188F
100
AcDbEntity
  8
0
  6
Dash
 62
     8
 48
0.1
370
    18
100
AcDbLine
 10
25.62105395178332
 20
4.580373279729429
 30
0.0
 11
26.12432690218247
 21
1.726170545823607
 31
0.0
1001
REVIT
1002
{
1070
     3
1000
162980
1002
}
  0
LINE
  5
18CA
330
188F
100
AcDbEntity
  8
0
  6
Dash
 62
     8
 48
0.1
370
    18
100
AcDbLine
 10
25.40608790677652
 20
4.204362550368387
 30
0.0
 11
25.62105395178332
 21
4.580373279729429
 31
0.0
1001
REVIT
1002
{
1070
     3
1000
162980
1002
}
  0
LINE
  5
18CB
330
188F
100
AcDbEntity
  8
0
  6
Dash
 62
     8
 48
0.1
370
    18
100
AcDbLine
 10
26.12432690218247
 20
1.726170545823607
 30
0.0
 11
26.33929294718928
 21
2.102181275184648
 31
0.0
1001
REVIT
1002
{
1070
     3
1000
162980
1002
}
  0
LINE
  5
18CC
330
188F
100
AcDbEntity
  8
0
  6
Dash
 62
     8
 48
0.1
370
    18
100
AcDbLine
 10
27.59782433559758
 20
4.580373279729429
 30
0.0
 11
28.10109728599673
 21
1.726170545823607
 31
0.0
1001
REVIT
1002
{
1070
     3
1000
162980
1002
}
  0
LINE
  5
18CD
330
188F
100
AcDbEntity
  8
0
  6
Dash
 62
     8
 48
0.1
370
    18
100
AcDbLine
 10
27.38285829059078
 20
4.204362550368387
 30
0.0
 11
27.59782433559758
 21
4.580373279729429
 31
0.0
1001
REVIT
1002
{
1070
     3
1000
162980
1002
}
  0
LINE
  5
18CE
330
188F
100
AcDbEntity
  8
0
  6
Dash
 62
     8
 48
0.1
370
    18
100
AcDbLine
 10
28.10109728599673
 20
1.726170545823607
 30
0.0
 11
28.31606333100444
 21
2.102181275184648
 31
0.0
1001
REVIT
1002
{
1070
     3
1000
162980
1002
}
  0
LINE
  5
18CF
330
188F
100
AcDbEntity
  8
0
  6
Dash
 62
     8
 48
0.1
370
    18
100
AcDbLine
 10
29.57459471941183
 20
4.580373279729429
 30
0.0
 11
30.07786766981189
 21
1.726170545823607
 31
0.0
1001
REVIT
1002
{
1070
     3
1000
162980
1002
}
  0
LINE
  5
18D0
330
188F
100
AcDbEntity
  8
0
  6
Dash
 62
     8
 48
0.1
370
    18
100
AcDbLine
 10
29.35962867440503
 20
4.204362550368387
 30
0.0
 11
29.57459471941183
 21
4.580373279729429
 31
0.0
1001
REVIT
1002
{
1070
     3
1000
162980
1002
}
  0
LINE
  5
18D1
330
188F
100
AcDbEntity
  8
0
  6
Dash
 62
     8
 48
0.1
370
    18
100
AcDbLine
 10
30.07786766981189
 20
1.726170545823607
 30
0.0
 11
30.2928337148187
 21
2.102181275184648
 31
0.0
1001
REVIT
1002
{
1070
     3
1000
162980
1002
}
  0
LINE
  5
18D2
330
188F
100
AcDbEntity
  8
0
  6
Dash
 62
     8
 48
0.1
370
    18
100
AcDbLine
 10
31.55136510322609
 20
4.580373279729429
 30
0.0
 11
32.05463805362615
 21
1.726170545824061
 31
0.0
1001
REVIT
1002
{
1070
     3
1000
162980
1002
}
  0
LINE
  5
18D3
330
188F
100
AcDbEntity
  8
0
  6
Dash
 62
     8
 48
0.1
370
    18
100
AcDbLine
 10
31.33639905821929
 20
4.204362550368387
 30
0.0
 11
31.55136510322609
 21
4.580373279729429
 31
0.0
1001
REVIT
1002
{
1070
     3
1000
162980
1002
}
  0
LINE
  5
18D4
330
188F
100
AcDbEntity
  8
0
  6
Dash
 62
     8
 48
0.1
370
    18
100
AcDbLine
 10
32.05463805362615
 20
1.726170545824061
 30
0.0
 11
32.26960409863295
 21
2.102181275185103
 31
0.0
1001
REVIT
1002
{
1070
     3
1000
162980
1002
}
  0
LINE
  5
18D5
330
188F
100
AcDbEntity
  8
0
  6
Dash
 62
     8
 48
0.1
370
    18
100
AcDbLine
 10
33.52813548704125
 20
4.580373279729884
 30
0.0
 11
34.0314084374404
 21
1.726170545824061
 31
0.0
1001
REVIT
1002
{
1070
     3
1000
162980
1002
}
  0
LINE
  5
18D6
330
188F
100
AcDbEntity
  8
0
  6
Dash
 62
     8
 48
0.1
370
    18
100
AcDbLine
 10
33.31316944203445
 20
4.204362550368842
 30
0.0
 11
33.52813548704125
 21
4.580373279729884
 31
0.0
1001
REVIT
1002
{
1070
     3
1000
162980
1002
}
  0
LINE
  5
18D7
330
188F
100
AcDbEntity
  8
0
  6
Dash
 62
     8
 48
0.1
370
    18
100
AcDbLine
 10
34.0314084374404
 20
1.726170545824061
 30
0.0
 11
34.24637448244721
 21
2.102181275185103
 31
0.0
1001
REVIT
1002
{
1070
     3
1000
162980
1002
}
  0
LINE
  5
18D8
330
188F
100
AcDbEntity
  8
0
  6
Dash
 62
     8
 48
0.1
370
    18
100
AcDbLine
 10
35.50490587085551
 20
4.580373279729884
 30
0.0
 11
36.00817882125466
 21
1.726170545824061
 31
0.0
1001
REVIT
1002
{
1070
     3
1000
162980
1002
}
  0
LINE
  5
18D9
330
188F
100
AcDbEntity
  8
0
  6
Dash
 62
     8
 48
0.1
370
    18
100
AcDbLine
 10
35.28993982584871
 20
4.204362550368842
 30
0.0
 11
35.50490587085551
 21
4.580373279729884
 31
0.0
1001
REVIT
1002
{
1070
     3
1000
162980
1002
}
  0
LINE
  5
18DA
330
188F
100
AcDbEntity
  8
0
  6
Dash
 62
     8
 48
0.1
370
    18
100
AcDbLine
 10
36.00817882125466
 20
1.726170545824061
 30
0.0
 11
36.22314486626146
 21
2.102181275185103
 31
0.0
1001
REVIT
1002
{
1070
     3
1000
162980
1002
}
  0
LINE
  5
18DB
330
188F
100
AcDbEntity
  8
0
  6
Dash
 62
     8
 48
0.1
370
    18
100
AcDbLine
 10
37.48167625466976
 20
4.580373279729884
 30
0.0
 11
37.98494920506892
 21
1.726170545824061
 31
0.0
1001
REVIT
1002
{
1070
     3
1000
162980
1002
}
  0
LINE
  5
18DC
330
188F
100
AcDbEntity
  8
0
  6
Dash
 62
     8
 48
0.1
370
    18
100
AcDbLine
 10
37.26671020966296
 20
4.204362550368842
 30
0.0
 11
37.48167625466976
 21
4.580373279729884
 31
0.0
1001
REVIT
1002
{
1070
     3
1000
162980
1002
}
  0
LINE
  5
18DD
330
188F
100
AcDbEntity
  8
0
  6
Dash
 62
     8
 48
0.1
370
    18
100
AcDbLine
 10
37.98494920506892
 20
1.726170545824061
 30
0.0
 11
38.19991525007663
 21
2.102181275185103
 31
0.0
1001
REVIT
1002
{
1070
     3
1000
162980
1002
}
  0
LINE
  5
18DE
330
188F
100
AcDbEntity
  8
0
  6
Dash
 62
     8
 48
0.1
370
    18
100
AcDbLine
 10
39.45844663848402
 20
4.580373279729884
 30
0.0
 11
39.96171958888408
 21
1.726170545824061
 31
0.0
1001
REVIT
1002
{
1070
     3
1000
162980
1002
}
  0
LINE
  5
18DF
330
188F
100
AcDbEntity
  8
0
  6
Dash
 62
     8
 48
0.1
370
    18
100
AcDbLine
 10
39.24348059347722
 20
4.204362550368842
 30
0.0
 11
39.45844663848402
 21
4.580373279729884
 31
0.0
1001
REVIT
1002
{
1070
     3
1000
162980
1002
}
  0
LINE
  5
18E0
330
188F
100
AcDbEntity
  8
0
  6
Dash
 62
     8
 48
0.1
370
    18
100
AcDbLine
 10
39.96171958888408
 20
1.726170545824061
 30
0.0
 11
40.17668563389088
 21
2.102181275185103
 31
0.0
1001
REVIT
1002
{
1070
     3
1000
162980
1002
}
  0
LINE
  5
18E1
330
188F
100
AcDbEntity
  8
0
  6
Dash
 62
     8
 48
0.1
370
    18
100
AcDbLine
 10
2.618048341416397
 20
0.7372192214475035
 30
0.0
 11
1.959124880145282
 21
0.7372192214475035
 31
0.0
1001
REVIT
1002
{
1070
     3
1000
162980
1002
}
  0
LINE
  5
18E2
330
188F
100
AcDbEntity
  8
0
  6
Dash
 62
     8
 48
0.1
370
    18
100
AcDbLine
 10
1.959124880145282
 20
0.7372192214475035
 30
0.0
 11
1.959124880145282
 21
5.569324604104168
 31
0.0
1001
REVIT
1002
{
1070
     3
1000
162980
1002
}
  0
LINE
  5
18E3
330
188F
100
AcDbEntity
  8
0
  6
Dash
 62
     8
 48
0.1
370
    18
100
AcDbLine
 10
1.959124880145282
 20
5.569324604104168
 30
0.0
 11
2.618048341416397
 21
5.569324604104168
 31
0.0
1001
REVIT
1002
{
1070
     3
1000
162980
1002
}
  0
LINE
  5
18E4
330
188F
100
AcDbEntity
  8
0
  6
Dash
 62
     8
 48
0.1
370
    18
100
AcDbLine
 10
2.618048341416397
 20
5.569324604104168
 30
0.0
 11
2.618048341416397
 21
0.7372192214475035
 31
0.0
1001
REVIT
1002
{
1070
     3
1000
162980
1002
}
  0
ENDBLK
  5
18E5
330
188F
100
AcDbEntity
  8
_lines
100
AcDbBlockEnd
  0
BLOCK
  5
1B9F
330
1B9E
100
AcDbEntity
  8
GE FLASHING
100
AcDbBlockBegin
  2
G$CFFEEE416
 70
     0
 10
0.0
 20
0.0
 30
0.0
  3
G$CFFEEE416
  1

  0
LWPOLYLINE
  5
1BA0
330
1B9E
100
AcDbEntity
  8
GE FLASHING
 62
     1
 48
0.5
370
    -3
100
AcDbPolyline
 90
        8
 70
     0
 43
1.0
 10
120.2506355166174
 20
102.3073795712119
 10
120.2506355166174
 20
127.2726251936328
 42
0.4261215697160685
 10
11.90508573276247
 20
109.1114543666113
 42
0.1263024924240355
 10
0.4987492207874311
 20
74.9233762122708
 42
0.1378201073506474
 10
8.421211949048484
 20
36.46658780623329
 42
0.0596632094150468
 10
18.01550678228477
 20
22.32968965646114
 42
0.0456468013572097
 10
26.30985579481467
 20
14.38111016126413
 10
42.66844770816624
 20
0.3798622972080921
  0
ENDBLK
  5
1BA1
330
1B9E
100
AcDbEntity
  8
GE FLASHING
100
AcDbBlockEnd
  0
BLOCK
  5
1D08
330
1D07
100
AcDbEntity
  8
GE FLASHING
100
AcDbBlockBegin
  2
G$C71E0D0B6
 70
     0
 10
0.0
 20
0.0
 30
0.0
  3
G$C71E0D0B6
  1

  0
LWPOLYLINE
  5
1D09
330
1D07
100
AcDbEntity
  8
GE FLASHING
 62
     1
 48
0.5
370
    -3
100
AcDbPolyline
 90
        6
 70
     0
 10
84.8906824743417
 20
0.1303657658017983
 40
1.0
 41
1.0
 10
82.21464028448554
 20
10.03895441472287
 40
1.0
 41
1.0
 10
82.21464028448554
 20
132.2328268406391
 40
1.0
 41
1.0
 42
0.397073853822023
 10
81.43768398112206
 20
133.0638825915184
 40
1.0
 41
1.0
 10
5.255401401899704
 20
133.0638825915184
 40
1.0
 41
1.0
 10
4.46406023068225
 20
102.3833992841342
 40
1.0
 41
0.0
  0
ENDBLK
  5
1D0A
330
1D07
100
AcDbEntity
  8
GE FLASHING
100
AcDbBlockEnd
  0
BLOCK
  5
1F7F
330
1F7C
100
AcDbEntity
  8
GE FLASHING
100
AcDbBlockBegin
  2
G$CD8E13982
 70
     0
 10
0.0
 20
0.0
 30
0.0
  3
G$CD8E13982
  1

  0
LWPOLYLINE
  5
1F80
330
1F7C
100
AcDbEntity
  8
GE FLASHING
 62
     1
 48
0.5
370
    -3
100
AcDbPolyline
 90
        5
 70
     0
 43
1.0
 10
90.3716796521282
 20
102.0890183531688
 10
90.3716796521282
 20
137.7740636299386
 10
0.5
 20
137.7740636299386
 10
0.5
 20
44.19081537009652
 10
9.5
 20
0.0999999999999091
  0
ENDBLK
  5
1F81
330
1F7C
100
AcDbEntity
  8
GE FLASHING
100
AcDbBlockEnd
  0
BLOCK
  5
2169
330
2168
100
AcDbEntity
  8
DEFPOINTS
100
AcDbBlockBegin
  2
G$C453E252E
 70
     0
 10
0.0
 20
0.0
 30
0.0
  3
G$C453E252E
  1

  0
LWPOLYLINE
  5
216A
330
2168
100
AcDbEntity
  8
0
 62
     1
 48
0.5
370
    -3
100
AcDbPolyline
 90
       98
 70
     0
 43
0.55
 10
0.5
 20
166.1106642134437
 10
0.5
 20
126.1106642134437
 10
22.02312594964496
 20
118.6255800442577
 42
0.3144374898271473
 10
25.12528432434829
 20
119.5010886588498
 42
-0.0952816377930046
 10
30.81299492805829
 20
124.2373921770413
 42
-0.1507717279415002
 10
36.54814827388236
 20
125.4304525161251
 42
-0.0890307948874332
 10
39.67443872233434
 20
124.559225961787
 42
-0.1464817733278774
 10
43.93328675721204
 20
120.6684076561032
 42
-0.0085850172702223
 10
45.36580605647578
 20
118.1806848346077
 42
0.1851250302374373
 10
48.89007182185287
 20
115.2158579567167
 42
0.0161362627762171
 10
52.04569498363981
 20
114.2361690877551
 42
0.1680002659188674
 10
55.99459588555328
 20
114.4897917569624
 42
-0.0485798954908245
 10
61.51884086103746
 20
116.1983170767799
 42
-0.1983824016748921
 10
66.42038571826015
 20
115.2616676094322
 42
-0.047523137941845
 10
69.83042668281723
 20
112.5295519981837
 42
-0.1630622330458971
 10
71.47831087985833
 20
109.3415045516294
 42
0.0298243649624302
 10
72.55264691199591
 20
104.3843442757052
 42
-0.0554847166023468
 10
72.97288900448893
 20
101.8161971691543
 42
0.3144581315813627
 10
73.70769723363901
 20
100.8707326562289
 42
-0.1075480814737937
 10
74.58922572250958
 20
100.3717753404399
 10
85.05247246159706
 20
96.74501989411965
 42
0.2677971490740892
 10
88.09539067171227
 20
97.32914746538972
 10
92.6278224178227
 20
101.9811841682367
 42
-0.2909805391793188
 10
97.3006729976496
 20
103.0856405879858
 10
111.6329235114986
 20
98.15296824369034
 10
117.2100212751839
 20
96.93059740718854
 10
120.4621871855052
 20
95.75874603424836
 10
124.0223379080671
 20
93.92247937233424
 10
127.7979355302332
 20
91.30208897451848
 10
130.2919066896525
 20
89.02768394314717
 10
132.668010892045
 20
86.5253835389758
 10
134.5892993910675
 20
85.15877973963325
 10
136.6978135855152
 20
84.35644151244469
 10
138.8382282491766
 20
84.09805634147506
 10
140.6858550277871
 20
84.2857376870561
 10
144.3639631342262
 20
84.93578306011841
 42
-0.2343085133768697
 10
159.1435541811957
 20
78.51996758138466
 42
-0.0369830761216474
 10
160.6560290981815
 20
76.43243261199314
 42
0.0452840395304961
 10
162.2884987569992
 20
74.25612651468145
 42
0.0839199469717881
 10
164.529813391528
 20
72.48309420676651
 42
0.0577814066399808
 10
167.5016539546159
 20
71.27403115437392
 42
0.0817118573763595
 10
170.2498351544114
 20
70.9763659473092
 42
0.060460522145006
 10
173.5204849444876
 20
71.55782469231508
 42
-0.0175628328589988
 10
176.5656328960322
 20
72.37310104678818
 42
-0.1193038223792303
 10
179.7101921324925
 20
72.33846963497217
 42
-0.0466804696993966
 10
183.8134474489921
 20
70.87872297427657
 42
-0.1224255899562275
 10
186.3692897707069
 20
68.81730439706098
 42
-0.0021976574366095
 10
187.7817157249392
 20
66.9361794008837
 42
0.0598692057381186
 10
189.6949583765413
 20
64.92012839859854
 42
0.0805518231819641
 10
195.326551026611
 20
61.61136351863024
 42
0.1085830654256639
 10
201.2339584046185
 20
60.69357931000559
 42
0.0431621048222569
 10
205.2670358421597
 20
61.29676763988755
 42
-0.073120503309113
 10
213.3841783468383
 20
62.0190562300395
 42
-0.2135351777441864
 10
218.3940902408526
 20
59.42367137106794
 42
0.0277003729638193
 10
220.5147825783447
 20
57.0417624169977
 42
0.0666138996187925
 10
223.6128186410219
 20
54.66243114936333
 42
0.1383936215819727
 10
229.4297437736118
 20
53.19657600923711
 42
0.071769835774096
 10
233.548625897045
 20
53.90986896988852
 42
-0.0511818591444494
 10
237.0719040026443
 20
54.67002450581549
 42
-0.1776902975007202
 10
240.2445093092924
 20
53.88862637640341
 42
-0.2052507455354989
 10
241.8154037958761
 20
51.45241993762465
 10
242.5945433755633
 20
43.92933609552801
 42
0.2911769892817301
 10
244.6611305053079
 20
41.32022495346155
 10
255.3549358027376
 20
37.64745181595845
 42
0.2667636498253825
 10
258.2419635365877
 20
38.67765162791784
 10
264.3601998182708
 20
44.59027878911002
 42
-0.1913380611813692
 10
267.0785426506113
 20
44.70963481481522
 10
275.9867713133722
 20
41.59098407405418
 42
-0.1941050331233009
 10
279.197081221851
 20
38.27057742300804
 42
0.0713673250360073
 10
280.2546019079532
 20
36.45567619474514
 42
0.1305424751270063
 10
284.3178145591905
 20
33.42352268993272
 42
0.1537998043526602
 10
289.3682064088403
 20
33.03758655785532
 42
-0.0342019839470086
 10
292.1523430241359
 20
33.48849445486303
 42
-0.1759827198152869
 10
294.4100892652473
 20
32.89703029549128
 42
-0.0245861296963565
 10
296.2505755042871
 20
31.48689332938648
 42
-0.1390652413202865
 10
297.0937823088648
 20
30.23162312605291
 42
0.1892836867809608
 10
298.1725472104567
 20
28.92265654193034
 42
-0.0012892425160863
 10
299.7446583843575
 20
28.0433881336503
 42
0.22312029341888
 10
302.3723808448917
 20
27.84995985360638
 42
-0.0259294320993023
 10
303.7010168155466
 20
28.28102034215317
 42
-0.0668917843344885
 10
308.0934838137873
 20
28.8476509588063
 42
-0.2028112030561561
 10
311.6220431038864
 20
27.33292512411299
 42
0.0033231228805357
 10
313.0900863962893
 20
25.82428678313227
 42
0.0339765351938608
 10
316.9471917091246
 20
22.41077530119219
 42
0.174403570499621
 10
322.2635551519579
 20
20.70075445461225
 42
-0.0142766282042484
 10
324.9192275910646
 20
20.71557694172498
 42
0.1273253406553399
 10
328.2063991200912
 20
21.48634860503989
 42
-0.2836931045728486
 10
332.8854379625404
 20
21.16178565795417
 42
-0.0046855754428039
 10
336.2127067987499
 20
18.72824650365146
 42
-0.195884940313394
 10
337.5325457073159
 20
16.54166466127026
 42
0.2728160678700086
 10
338.9729704788197
 20
14.79237108640791
 42
-0.0576703196817088
 10
341.1706721630449
 20
13.6912505804903
 42
0.2597477929231045
 10
343.5095777461311
 20
13.52391458390866
 42
-0.0797956924462406
 10
345.3610609986713
 20
14.051482481118
 42
0.1930007918767561
 10
347.5129816439303
 20
15.22609317261504
 42
-0.3447979284179001
 10
349.4711990277619
 20
15.65760512016095
 42
0.1498657568152403
 10
351.4027832807506
 20
15.36635558821854
 10
358.7209800373239
 20
12.81779899982166
 42
-0.4664497104991921
  0
ENDBLK
  5
216B
330
2168
100
AcDbEntity
  8
DEFPOINTS
100
AcDbBlockEnd
  0
BLOCK
  5
2192
330
218F
100
AcDbEntity
  8
_lines
100
AcDbBlockBegin
  2
G$C34E990A1
 70
     0
 10
0.0
 20
0.0
 30
0.0
  3
G$C34E990A1
  1

  0
LINE
  5
2193
330
218F
100
AcDbEntity
  8
0
  6
Dash
 62
     8
 48
0.1
370
    18
100
AcDbLine
 10
6.387056972178183
 20
7.540172313074436
 30
0.0
 11
19.46220542609397
 21
7.211774602193145
 31
0.0
  0
LINE
  5
2194
330
218F
100
AcDbEntity
  8
0
  6
Dash
 62
     8
 48
0.1
370
    18
100
AcDbLine
 10
23.39934705136364
 20
2.311529939132015
 30
0.0
 11
23.4369132631431
 21
6.173179565977989
 31
0.0
  0
LINE
  5
2195
330
218F
100
AcDbEntity
  8
0
  6
Dash
 62
     8
 48
0.1
370
    18
100
AcDbLine
 10
6.350990872779274
 20
10.54203421581769
 30
0.0
 11
0.0
 21
9.20163850382778
 31
0.0
  0
LINE
  5
2196
330
218F
100
AcDbEntity
  8
0
  6
Dash
 62
     8
 48
0.1
370
    18
100
AcDbLine
 10
0.0
 20
9.20163850382778
 30
0.0
 11
6.387056972178183
 21
7.540172313074436
 31
0.0
  0
LINE
  5
2197
330
218F
100
AcDbEntity
  8
0
  6
Dash
 62
     8
 48
0.1
370
    18
100
AcDbLine
 10
20.03134322612171
 20
10.1984330665282
 30
0.0
 11
6.350990872779274
 21
10.54203421581769
 31
0.0
  0
LINE
  5
2198
330
218F
100
AcDbEntity
  8
0
  6
Dash
 62
     8
 48
0.1
370
    18
100
AcDbLine
 10
20.43704985802329
 20
6.202362524075397
 30
0.0
 11
20.39948449607834
 21
2.340712335273565
 31
0.0
  0
ARC
  5
2199
330
218F
100
AcDbEntity
  8
0
  6
Dash
 62
     8
 48
0.1
370
    18
100
AcDbCircle
 10
19.43709716971503
 20
6.212089864156951
 30
0.0
 40
1.0
100
AcDbArc
 50
359.4426556777765
 51
88.56125168117025
  0
ARC
  5
219A
330
218F
100
AcDbEntity
  8
0
  6
Dash
 62
     8
 48
0.1
370
    18
100
AcDbCircle
 10
19.43709716971503
 20
6.212089864156951
 30
0.0
 40
4.0
100
AcDbArc
 50
359.4426556777374
 51
88.56125168116938
  0
ARC
  5
219B
330
218F
100
AcDbEntity
  8
0
  6
Dash
 62
     8
 48
0.1
370
    18
100
AcDbCircle
 10
21.89941577533669
 20
2.326121303293803
 30
0.0
 40
1.500002246902295
100
AcDbArc
 50
179.4426556777365
 51
359.4426429887364
  0
ARC
  5
219C
330
218F
100
AcDbEntity
  8
0
  6
Dash
 62
     8
 48
0.1
370
    18
100
AcDbCircle
 10
21.89941577533669
 20
2.326121303293803
 30
0.0
 40
2.326121303293777
100
AcDbArc
 50
129.5971798420052
 51
49.28811882450213
  0
ENDBLK
  5
219D
330
218F
100
AcDbEntity
  8
_lines
100
AcDbBlockEnd
  0
BLOCK
  5
2322
330
2321
100
AcDbEntity
  8
DEFPOINTS
100
AcDbBlockBegin
  2
G$CC91778B9
 70
     0
 10
0.0
 20
0.0
 30
0.0
  3
G$CC91778B9
  1

  0
SPLINE
  5
2323
330
2321
100
AcDbEntity
  8
0
 62
   253
 48
0.5
370
    25
100
AcDbSpline
210
0.0
220
0.0
230
1.0
 70
    12
 71
     3
 72
    11
 73
     7
 74
     0
 42
0.0
 43
0.0
 40
0.0
 40
0.0
 40
0.0
 40
0.0
 40
1.0
 40
1.0
 40
1.0
 40
2.0
 40
2.0
 40
2.0
 40
2.0
 10
145.0614020853754
 20
27.56350566559877
 30
0.0
 41
1.0
 10
145.0614020853754
 20
67.58890670406481
 30
0.0
 41
1.0
 10
112.5867973686545
 20
100.0635056655979
 30
0.0
 41
1.0
 10
72.56139019132388
 20
100.0635056655979
 30
0.0
 41
1.0
 10
32.47460510040037
 20
100.0635056655979
 30
0.0
 41
1.0
 10
0.0614020853754482
 20
67.58890670406481
 30
0.0
 41
1.0
 10
0.0614020853754482
 20
27.56350566559877
 30
0.0
 41
1.0
  0
SPLINE
  5
2324
330
2321
100
AcDbEntity
  8
0
  6
PHANTOM
 62
   253
 48
2.0
370
    25
100
AcDbSpline
210
0.0
220
0.0
230
1.0
 70
    12
 71
     3
 72
    11
 73
     7
 74
     0
 42
0.000000001
 43
0.0
 40
0.0395325300710462
 40
0.0395325300710462
 40
0.0395325300710462
 40
0.0395325300710462
 40
1.0
 40
1.0
 40
1.0
 40
1.962280804529156
 40
1.962280804529156
 40
1.962280804529156
 40
1.962280804529156
 10
144.910685958139
 20
27.43048775926983
 30
0.0
 41
1.0
 10
142.4819949582047
 20
65.31268931277147
 30
0.0
 41
1.0
 10
111.0044917558108
 20
95.21380217730757
 30
0.0
 41
1.0
 10
72.56139019132388
 20
95.21380217730757
 30
0.0
 41
1.0
 10
33.98664638304261
 20
95.21380217730757
 30
0.0
 41
1.0
 10
2.517519460662063
 20
65.19967787237762
 30
0.0
 41
1.0
 10
0.1984209038506081
 20
27.21584108406187
 30
0.0
 41
1.0
  0
LWPOLYLINE
  5
2325
330
2321
100
AcDbEntity
  8
0
 62
   253
 48
0.5
370
    25
100
AcDbPolyline
 90
        2
 70
     0
 43
0.0
 10
0.0614020853754482
 20
27.56350566559877
 10
8.02958532874161
 20
7.345442747353901
  0
SPLINE
  5
2326
330
2321
100
AcDbEntity
  8
0
  6
PHANTOM
 62
   253
 48
2.0
370
    25
100
AcDbSpline
210
0.0
220
0.0
230
1.0
 70
    12
 71
     3
 72
    11
 73
     7
 74
     0
 42
0.000000001
 43
0.0
 40
0.0404789136530578
 40
0.0404789136530578
 40
0.0404789136530578
 40
0.0404789136530578
 40
1.0
 40
1.0
 40
1.0
 40
1.940506743829165
 40
1.940506743829165
 40
1.940506743829165
 40
1.940506743829165
 10
143.7794202889968
 20
24.5521973549576
 30
0.0
 41
1.0
 10
132.4899536236396
 20
61.75429359618732
 30
0.0
 41
1.0
 10
94.08473180061324
 20
84.3411146015617
 30
0.0
 41
1.0
 10
55.67950962434224
 20
75.44665321507091
 30
0.0
 41
1.0
 10
28.83207580272765
 20
69.15337956933995
 30
0.0
 41
1.0
 10
8.772310827306173
 20
49.12182397407415
 30
0.0
 41
1.0
 10
1.271255763118209
 20
24.49368447406959
 30
0.0
 41
1.0
  0
LWPOLYLINE
  5
2327
330
2321
100
AcDbEntity
  8
0
 62
   253
 48
0.5
370
    25
100
AcDbPolyline
 90
        2
 70
     0
 43
0.0
 10
144.9895561603271
 20
27.6311579929175
 10
137.0402519312767
 20
7.405664806347967
  0
ENDBLK
  5
2328
330
2321
100
AcDbEntity
  8
DEFPOINTS
100
AcDbBlockEnd
  0
BLOCK
  5
237D
330
237A
100
AcDbEntity
  8
GE FLASHING
100
AcDbBlockBegin
  2
G$CBE61CC38
 70
     0
 10
0.0
 20
0.0
 30
0.0
  3
G$CBE61CC38
  1

  0
INSERT
  5
237E
330
237A
100
AcDbEntity
  8
GE FLASHING
 62
     1
 48
0.5
370
    -3
100
AcDbBlockReference
  2
G$CC91778B9
 10
0.2341937276260069
 20
-7.198113014906085
 30
0.0
  0
LWPOLYLINE
  5
237F
330
237A
100
AcDbEntity
  8
GE FLASHING
 62
     1
 48
0.5
370
    -3
100
AcDbPolyline
 90
        5
 70
     0
 10
137.2744456589026
 20
0.2075517914418015
 40
0.55
 41
0.55
 10
145.111790591819
 20
20.72271966905009
 40
0.55
 41
0.55
 10
144.2728895898535
 20
32.56263202062382
 40
0.55
 41
0.55
 42
0.9187922265646195
 10
0.2955958130014551
 20
20.36539265069314
 40
0.5500000000000002
 41
0.55
 10
8.282104181509567
 20
0.1008324918866492
 40
0.55
 41
0.0
  0
ENDBLK
  5
2380
330
237A
100
AcDbEntity
  8
GE FLASHING
100
AcDbBlockEnd
  0
BLOCK
  5
2383
330
2382
100
AcDbEntity
  8
DEFPOINTS
100
AcDbBlockBegin
  2
G$CB27C112C
 70
     0
 10
0.0
 20
0.0
 30
0.0
  3
G$CB27C112C
  1

  0
LWPOLYLINE
  5
2384
330
2382
100
AcDbEntity
  8
0
 62
     1
 48
0.5
370
    -3
100
AcDbPolyline
 90
      100
 70
     0
 43
0.55
 10
0.5
 20
33.56416563160383
 10
0.5
 20
0.506401914597518
 10
14.1725153997686
 20
0.500118431415558
 42
0.3144374898271473
 10
16.81581283750165
 20
2.344808262156221
 42
-0.0952816377930046
 10
20.63509879313187
 20
8.684814391263444
 42
-0.1507717279415002
 10
25.66152323887854
 20
11.69320834219798
 42
-0.0890307948874332
 10
28.90061418777259
 20
11.89573612264667
 42
-0.1464817733278774
 10
34.20013489598841
 20
9.617286225188764
 42
-0.0085850172702223
 10
36.36945415475475
 20
7.737145184496057
 42
0.1851250302374373
 10
40.67128017781943
 20
6.092474862468862
 42
0.0161362627762171
 10
43.97366053396672
 20
6.202164435833765
 42
0.1680002659188674
 10
47.62084806579151
 20
7.737145184629753
 42
-0.0485798954908245
 10
52.27894242697039
 20
11.16329436993465
 42
-0.1983824016748921
 10
57.21651403806118
 20
11.88637168073956
 42
-0.047523137941845
 10
61.33409766229579
 20
10.42406521811972
 42
-0.1630622330458971
 10
63.93659805260813
 20
7.953000555517974
 42
0.0298243649624302
 10
66.57762552654731
 20
3.622572194136865
 42
-0.0554847166023468
 10
67.81706495662638
 20
1.33439106573951
 42
0.3144581315813627
 10
68.82136102408822
 20
0.6822900860524896
 42
-0.1075480814737937
 10
69.8177868205812
 20
0.500118431415558
 10
80.89175846141552
 20
0.5064024137050183
 42
0.2677971490740892
 10
83.57467810244816
 20
2.056401914584967
 10
86.33025617792191
 20
7.937827973607455
 42
-0.2909805391793188
 10
90.38222667345235
 20
10.51404450718292
 10
105.539499278756
 20
10.55585857672531
 10
111.2089692617174
 20
11.23063264256552
 10
114.6655868486605
 20
11.19046292570647
 10
118.6311006377946
 20
10.62367477374619
 10
123.0573623773744
 20
9.386827873678612
 10
126.1594207850212
 20
8.056397858123091
 10
129.2248930004716
 20
6.47201829828191
 10
131.4881645881032
 20
5.811293573851344
 10
133.7432006337431
 20
5.74502765606303
 10
135.8499342378982
 20
6.203079345412789
 10
137.5337544901186
 20
6.986468366736517
 10
140.7950917390208
 20
8.807104952828468
 42
-0.2343085133768697
 10
156.8614793675533
 20
7.594591718855554
 42
-0.0369830761216474
 10
158.9750527230408
 20
6.11872238388105
 42
0.0452840395304961
 10
161.2311011927886
 20
4.59835705992009
 42
0.0839199469717881
 10
163.9300143321916
 20
3.658674814784263
 42
0.0577814066399808
 10
167.1340254517172
 20
3.491394980279438
 42
0.0817118573763595
 10
169.8277797613273
 20
4.111711191467748
 42
0.060460522145006
 10
172.7267047677788
 20
5.73389432799695
 42
-0.0175628328589988
 10
175.3359050103627
 20
7.502983267269883
 42
-0.1193038223792303
 10
178.3178182144256
 20
8.501805458517993
 42
-0.0466804696993966
 10
182.6728703623321
 20
8.468861645591005
 42
-0.1224255899562275
 10
185.7635084384356
 20
7.359928461627078
 42
-0.0021976574366095
 10
187.7148586459762
 20
6.046227317925513
 42
0.0598692057381186
 10
190.1835734509341
 20
4.769353675192178
 42
0.0805518231819641
 10
196.5889408784378
 20
3.491062266356948
 42
0.1085830654256639
 10
202.470526338966
 20
4.561922786614105
 42
0.0431621048222569
 10
206.0825613577226
 20
6.454738890144654
 42
-0.073120503309113
 10
213.5135972274193
 20
9.799796311475802
 42
-0.2135351777441864
 10
219.0976687736083
 20
8.991474148594534
 42
0.0277003729638193
 10
221.8823694662906
 20
7.437039103971074
 42
0.0666138996187925
 10
225.5894862758341
 20
6.205645711431771
 42
0.1383936215819727
 10
231.5653848895408
 20
6.729081522864362
 42
0.071769835774096
 10
235.2223579450556
 20
8.754056798192778
 42
-0.0511818591444494
 10
238.3013124250056
 20
10.62792028270633
 42
-0.1776902975007202
 10
241.5546881623677
 20
10.93049883443064
 42
-0.2052507455354989
 10
243.8378261473599
 20
9.144415901918364
 10
247.0417144123421
 20
2.293215352718562
 42
0.2911769892817301
 10
249.8498349677729
 20
0.506401914597518
 10
261.1567026265111
 20
0.5448467670753416
 42
0.2667636498253825
 10
263.5460291287709
 20
2.465096660755535
 10
267.3861375849601
 20
10.05756280756714
 42
-0.1913380611813692
 10
269.9149055353237
 20
11.06203593723512
 10
279.353229131154
 20
11.03820211102266
 42
-0.1941050331233009
 10
283.4751162140983
 20
8.954638598132533
 42
0.0713673250360073
 10
285.0694761338123
 20
7.587074005034992
 42
0.1305424751270063
 10
289.9025117658671
 20
6.055598081225071
 42
0.1537998043526602
 10
294.8000385041751
 20
7.347742183331775
 42
-0.0342019839470086
 10
297.2821976325763
 20
8.687003429507058
 42
-0.1759827198152869
 10
299.609032997389
 20
8.86889660181123
 42
-0.0245861296963565
 10
301.8102541421395
 20
8.140541378602848
 42
-0.1390652413202865
 10
303.0185787390719
 20
7.231336964232469
 42
0.1892836867809608
 10
304.4670411471247
 20
6.348679678694225
 42
-0.0012892425160863
 10
306.240592503932
 20
6.033779596651584
 42
0.22312029341888
 10
308.7863599962434
 20
6.713049575530476
 42
-0.0259294320993023
 10
309.90007038779
 20
7.556101087043771
 42
-0.0668917843344885
 10
313.8636002301564
 20
9.532276123581596
 42
-0.2028112030561561
 10
317.6937928740622
 20
9.258872889142367
 42
0.0033231228805357
 10
319.5754927409284
 20
8.31529122162192
 42
0.0339765351938608
 10
324.3389263245299
 20
6.355948850759432
 42
0.174403570499621
 10
329.9220580049969
 20
6.484526417232246
 42
-0.0142766282042484
 10
332.4259145242595
 20
7.369692131039301
 42
0.1273253406553399
 10
335.278345056076
 20
9.176132187994881
 42
-0.2836931045728486
 10
339.8049350942242
 20
10.40443517272979
 42
-0.0046855754428039
 10
343.7463822015347
 20
9.197030756550248
 42
-0.195884940313394
 10
345.7104704139006
 20
7.564403306076656
 42
0.2728160678700086
 10
347.6450242904602
 20
6.384423292642623
 42
-0.0576703196817088
 10
350.0823247332728
 20
6.065165383007297
 42
0.2597477929231045
 10
352.3466979607565
 20
6.674340685362495
 42
-0.0797956924462406
 10
353.9226653300943
 20
7.780073461120082
 42
0.1930007918767561
 10
355.5701900673371
 20
9.595599550231327
 42
-0.3447979284179001
 10
357.2784954296867
 20
10.64560463221051
 42
0.1498657568152403
 10
359.1987351896905
 20
11.00410606923788
 10
374.6972637832068
 20
10.99034944575214
 42
-0.3059463717492144
 10
377.8929074820962
 20
8.552612251653045
 10
380.8102808585181
 20
2.296285237615848
  0
ENDBLK
  5
2385
330
2382
100
AcDbEntity
  8
DEFPOINTS
100
AcDbBlockEnd
  0
BLOCK
  5
24C5
330
24C2
100
AcDbEntity
  8
DEFPOINTS
100
AcDbBlockBegin
  2
G$C56DAE06E
 70
     0
 10
0.0
 20
0.0
 30
0.0
  3
G$C56DAE06E
  1

  0
LWPOLYLINE
  5
24C6
330
24C2
100
AcDbEntity
  8
0
 62
     1
 48
0.5
370
    25
100
AcDbPolyline
 90
        2
 70
     0
 43
0.0
 10
8.676479720583757
 20
0.0
 10
0.0
 20
44.15561911759687
  0
LWPOLYLINE
  5
24C7
330
24C2
100
AcDbEntity
  8
0
 62
     1
 48
0.5
370
    25
100
AcDbPolyline
 90
        2
 70
     0
 43
0.0
 10
0.0
 20
44.15561911759687
 10
88.16312269611262
 20
75.54173310664282
  0
LWPOLYLINE
  5
24C8
330
24C2
100
AcDbEntity
  8
0
 62
     1
 48
0.5
370
    25
100
AcDbPolyline
 90
        2
 70
     0
 43
0.0
 10
167.6497656716415
 20
0.0
 10
176.3262453922252
 20
44.15561911759687
  0
LWPOLYLINE
  5
24C9
330
24C2
100
AcDbEntity
  8
0
 62
     1
 48
0.5
370
    25
100
AcDbPolyline
 90
        2
 70
     0
 43
0.0
 10
176.3262453922252
 20
44.15561911759687
 10
88.16312269611262
 20
75.54173310664282
  0
ENDBLK
  5
24CA
330
24C2
100
AcDbEntity
  8
DEFPOINTS
100
AcDbBlockEnd
  0
BLOCK
  5
24FF
330
24FE
100
AcDbEntity
  8
GE FLASHING
100
AcDbBlockBegin
  2
G$C83A38C16
 70
     0
 10
0.0
 20
0.0
 30
0.0
  3
G$C83A38C16
  1

  0
LWPOLYLINE
  5
2500
330
24FE
100
AcDbEntity
  8
GE FLASHING
  6
PHANTOM
 62
   253
 48
2.0
370
    25
284
     3
100
AcDbPolyline
 90
        2
 70
     0
 43
0.0
 10
82.77500000000009
 20
68.14953201398657
 10
5.327276129679831
 20
26.9919478836855
  0
LWPOLYLINE
  5
2501
330
24FE
100
AcDbEntity
  8
GE FLASHING
  6
PHANTOM
 62
   253
 48
2.0
370
    25
284
     3
100
AcDbPolyline
 90
        2
 70
     0
 43
0.0
 10
82.77500000000009
 20
68.14953201398657
 10
160.1611211205259
 20
26.9919478836855
  0
LWPOLYLINE
  5
2502
330
24FE
100
AcDbEntity
  8
GE FLASHING
  6
PHANTOM
 62
   253
 48
2.0
370
    25
284
     3
100
AcDbPolyline
 90
        2
 70
     0
 43
0.0
 10
82.77500000000009
 20
79.7944160293373
 10
0.2750000000000909
 20
35.67940084239672
  0
LWPOLYLINE
  5
2503
330
24FE
100
AcDbEntity
  8
GE FLASHING
 62
     1
 48
0.5
370
    25
100
AcDbPolyline
 90
        2
 70
     0
 43
0.0
 10
0.2750000000000909
 20
42.9497541153778
 10
82.77500000000009
 20
87.12638090900327
  0
LWPOLYLINE
  5
2504
330
24FE
100
AcDbEntity
  8
GE FLASHING
  6
PHANTOM
 62
   253
 48
2.0
370
    25
284
     3
100
AcDbPolyline
 90
        2
 70
     0
 43
0.0
 10
82.77500000000009
 20
79.7944160293373
 10
165.2750000000001
 20
35.67940084239672
  0
LWPOLYLINE
  5
2505
330
24FE
100
AcDbEntity
  8
GE FLASHING
 62
     1
 48
0.5
370
    -3
100
AcDbPolyline
 90
        2
 70
     0
 43
0.55
 10
82.77500000000009
 20
87.12638090900327
 10
165.2750000000001
 20
42.9497541153778
  0
LWPOLYLINE
  5
2506
330
24FE
100
AcDbEntity
  8
GE FLASHING
 62
     1
 48
0.5
370
    -3
100
AcDbPolyline
 90
        7
 70
     0
 43
0.55
 10
12.80558552290086
 20
0.0913316534270052
 10
0.2750000000000909
 20
35.67940084239672
 10
0.2750000000000909
 20
42.9497541153778
 10
82.77500000000009
 20
87.12638090900327
 10
165.2750000000001
 20
42.9497541153778
 10
165.1430072284843
 20
35.67940084239672
 10
152.6124217055835
 20
0.0913316534270052
  0
ENDBLK
  5
2507
330
24FE
100
AcDbEntity
  8
GE FLASHING
100
AcDbBlockEnd
  0
BLOCK
  5
26E3
330
26E0
100
AcDbEntity
  8
_lines
100
AcDbBlockBegin
  2
G$C2E32D176
 70
     0
 10
0.0
 20
0.0
 30
0.0
  3
G$C2E32D176
  1

  0
LINE
  5
26E4
330
26E0
100
AcDbEntity
  8
_lines
100
AcDbLine
 10
0.0
 20
34.59574063353011
 30
0.0
 11
22.81445918237296
 21
0.0
 31
0.0
  0
LINE
  5
26E5
330
26E0
100
AcDbEntity
  8
_lines
100
AcDbLine
 10
44.6333521152701
 20
49.31266490453982
 30
0.0
 11
0.0
 21
34.59574063353011
 31
0.0
  0
LINE
  5
26E6
330
26E0
100
AcDbEntity
  8
_lines
100
AcDbLine
 10
67.44781129764306
 20
14.7169242710097
 30
0.0
 11
44.6333521152701
 21
49.31266490453982
 31
0.0
  0
LINE
  5
26E7
330
26E0
100
AcDbEntity
  8
_lines
100
AcDbLine
 10
22.81445918237296
 20
0.0
 30
0.0
 11
67.44781129764306
 21
14.7169242710097
 31
0.0
  0
LINE
  5
26E8
330
26E0
100
AcDbEntity
  8
_lines
 62
     1
 48
0.5
370
    -3
100
AcDbLine
 10
0.0
 20
34.59574063353011
 30
0.0
 11
67.44781129764306
 21
14.7169242710097
 31
0.0
  0
LINE
  5
26E9
330
26E0
100
AcDbEntity
  8
_lines
 62
     1
 48
0.5
370
    -3
100
AcDbLine
 10
22.81445918237296
 20
0.0
 30
0.0
 11
44.6333521152701
 21
49.31266490453982
 31
0.0
  0
ENDBLK
  5
26EA
330
26E0
100
AcDbEntity
  8
_lines
100
AcDbBlockEnd
  0
BLOCK
  5
3026
330
3025
100
AcDbEntity
  8
0
100
AcDbBlockBegin
  2
*D290
 70
     1
 10
0.0
 20
0.0
 30
0.0
  3
*D290
  1

  0
LINE
  5
3028
330
3025
100
AcDbEntity
  8
0
  6
XAR-1873-FP03-17_off$0$HIDDEN
 62
     8
370
    -2
100
AcDbLine
 10
907.6249292906855
 20
805.5215851593163
 30
0.0
 11
907.6249292906855
 21
837.5215851593163
 31
0.0
  0
LINE
  5
3029
330
3025
100
AcDbEntity
  8
0
  6
XAR-1873-FP03-17_off$0$HIDDEN
 62
     8
370
    -2
100
AcDbLine
 10
972.7094843614345
 20
805.5215851593163
 30
0.0
 11
972.7094843614345
 21
837.5215851593163
 31
0.0
  0
LINE
  5
302A
330
3025
100
AcDbEntity
  8
0
 62
    24
370
    -2
100
AcDbLine
 10
900.6249292906855
 20
830.5215851593163
 30
0.0
 11
979.7094843614345
 21
830.5215851593163
 31
0.0
  0
INSERT
  5
302B
330
3025
100
AcDbEntity
  8
0
  6
ByBlock
 62
    24
370
    -2
100
AcDbBlockReference
  2
_OBLIQUE
 10
907.6249292906855
 20
830.5215851593163
 30
0.0
 41
5.0
 42
5.0
 43
5.0
 50
180.0
  0
INSERT
  5
302C
330
3025
100
AcDbEntity
  8
0
  6
ByBlock
 62
    24
370
    -2
100
AcDbBlockReference
  2
_OBLIQUE
 10
972.7094843614345
 20
830.5215851593163
 30
0.0
 41
5.0
 42
5.0
 43
5.0
  0
MTEXT
  5
302D
330
3025
100
AcDbEntity
  8
0
 62
     4
100
AcDbMText
 10
940.16720682606
 20
836.5215851593163
 30
0.0
 40
10.0
 41
0.0
 46
0.0
 71
     5
 72
     1
  1
\A1;65
  7
RS
 73
     1
 44
1.0
  0
POINT
  5
302E
330
3025
100
AcDbEntity
  8
DEFPOINTS
 62
     0
100
AcDbPoint
 10
907.6249292906855
 20
805.5215851593163
 30
0.0
  0
POINT
  5
302F
330
3025
100
AcDbEntity
  8
DEFPOINTS
 62
     0
100
AcDbPoint
 10
972.7094843614345
 20
805.5215851593163
 30
0.0
  0
POINT
  5
3030
330
3025
100
AcDbEntity
  8
DEFPOINTS
 62
     0
100
AcDbPoint
 10
972.7094843614345
 20
830.5215851593163
 30
0.0
  0
ENDBLK
  5
3027
330
3025
100
AcDbEntity
  8
0
100
AcDbBlockEnd
  0
BLOCK
  5
304A
330
3049
100
AcDbEntity
  8
0
100
AcDbBlockBegin
  2
*D293
 70
     1
 10
0.0
 20
0.0
 30
0.0
  3
*D293
  1

  0
LINE
  5
304C
330
3049
100
AcDbEntity
  8
0
  6
XAR-1873-FP03-17_off$0$HIDDEN
 62
     8
370
    -2
100
AcDbLine
 10
229.4525036286436
 20
471.7082303245821
 30
0.0
 11
251.5737845957695
 21
404.583945958344
 31
0.0
  0
LINE
  5
304D
330
3049
100
AcDbEntity
  8
0
  6
XAR-1873-FP03-17_off$0$HIDDEN
 62
     8
370
    -2
100
AcDbLine
 10
579.4837760350824
 20
587.0635029698129
 30
0.0
 11
601.6050570022084
 21
519.9392186035749
 31
0.0
  0
LINE
  5
304E
330
3049
100
AcDbEntity
  8
0
 62
    24
370
    -2
100
AcDbLine
 10
242.7345218762071
 20
409.0412360066306
 30
0.0
 11
606.0623470504949
 21
528.7784813231373
 31
0.0
  0
INSERT
  5
304F
330
3049
100
AcDbEntity
  8
0
  6
ByBlock
 62
    24
370
    -2
100
AcDbBlockReference
  2
_OBLIQUE
 10
249.3827982601316
 20
411.2322223422685
 30
0.0
 41
5.0
 42
5.0
 43
5.0
 50
198.2399999999997
  0
INSERT
  5
3050
330
3049
100
AcDbEntity
  8
0
  6
ByBlock
 62
    24
370
    -2
100
AcDbBlockReference
  2
_OBLIQUE
 10
599.4140706665704
 20
526.5874949874993
 30
0.0
 41
5.0
 42
5.0
 43
5.0
 50
18.23999999999966
  0
MTEXT
  5
3051
330
3049
100
AcDbEntity
  8
0
 62
     4
100
AcDbMText
 10
419.3904656961786
 20
484.105918970997
 30
0.0
 40
10.0
 41
0.0
 46
0.0
 71
     5
 72
     1
  1
\A1;\A1;Profile specified \Pbatten spacing
  7
RS
 11
0.9497537691320688
 21
0.3129980479482725
 31
0.0
 73
     1
 44
1.0
  0
POINT
  5
3052
330
3049
100
AcDbEntity
  8
DEFPOINTS
 62
     0
100
AcDbPoint
 10
229.4525036286436
 20
471.7082303245821
 30
0.0
  0
POINT
  5
3053
330
3049
100
AcDbEntity
  8
DEFPOINTS
 62
     0
100
AcDbPoint
 10
579.4837760350824
 20
587.0635029698129
 30
0.0
  0
POINT
  5
3054
330
3049
100
AcDbEntity
  8
DEFPOINTS
 62
     0
100
AcDbPoint
 10
599.4140706665704
 20
526.5874949874993
 30
0.0
  0
ENDBLK
  5
304B
330
3049
100
AcDbEntity
  8
0
100
AcDbBlockEnd
  0
BLOCK
  5
3056
330
3055
100
AcDbEntity
  8
0
100
AcDbBlockBegin
  2
*D294
 70
     1
 10
0.0
 20
0.0
 30
0.0
  3
*D294
  1

  0
LINE
  5
3058
330
3055
100
AcDbEntity
  8
0
  6
XAR-1873-FP03-17_off$0$HIDDEN
 62
     8
370
    -2
100
AcDbLine
 10
579.4837760350824
 20
587.0635029698129
 30
0.0
 11
601.6036839946539
 21
519.9416858983309
 31
0.0
  0
LINE
  5
3059
330
3055
100
AcDbEntity
  8
0
  6
XAR-1873-FP03-17_off$0$HIDDEN
 62
     8
370
    -2
100
AcDbLine
 10
905.3140439949989
 20
694.4404461482187
 30
0.0
 11
927.4339519545704
 21
627.3186290767367
 31
0.0
  0
LINE
  5
305A
330
3055
100
AcDbEntity
  8
0
 62
    24
370
    -2
100
AcDbLine
 10
592.7644548132132
 20
524.3990424555257
 30
0.0
 11
931.8913085117651
 21
636.1578582581774
 31
0.0
  0
INSERT
  5
305B
330
3055
100
AcDbEntity
  8
0
  6
ByBlock
 62
    24
370
    -2
100
AcDbBlockReference
  2
_OBLIQUE
 10
599.412747682531
 20
526.5899787676486
 30
0.0
 41
5.0
 42
5.0
 43
5.0
 50
198.2395688908573
  0
INSERT
  5
305C
330
3055
100
AcDbEntity
  8
0
  6
ByBlock
 62
    24
370
    -2
100
AcDbBlockReference
  2
_OBLIQUE
 10
925.2430156424474
 20
633.9669219460544
 30
0.0
 41
5.0
 42
5.0
 43
5.0
 50
18.23956889085729
  0
MTEXT
  5
305D
330
3055
100
AcDbEntity
  8
0
 62
     4
100
AcDbMText
 10
757.3200272347796
 20
595.4745483438635
 30
0.0
 40
10.0
 41
0.0
 46
0.0
 71
     5
 72
     1
  1
\A1;\A1;Profile specified \Pbatten spacing
  7
RS
 11
0.9497561241882484
 21
0.3129909017318497
 31
0.0
 73
     1
 44
1.0
  0
POINT
  5
305E
330
3055
100
AcDbEntity
  8
DEFPOINTS
 62
     0
100
AcDbPoint
 10
579.4837760350824
 20
587.0635029698129
 30
0.0
  0
POINT
  5
305F
330
3055
100
AcDbEntity
  8
DEFPOINTS
 62
     0
100
AcDbPoint
 10
905.3140439949989
 20
694.4404461482187
 30
0.0
  0
POINT
  5
3060
330
3055
100
AcDbEntity
  8
DEFPOINTS
 62
     0
100
AcDbPoint
 10
925.2430156424474
 20
633.9669219460544
 30
0.0
  0
ENDBLK
  5
3057
330
3055
100
AcDbEntity
  8
0
100
AcDbBlockEnd
  0
ENDSEC
  0
SECTION
  2
ENTITIES
  0
LWPOLYLINE
  5
999
330
1F
100
AcDbEntity
  8
DEFPOINTS
370
    -3
100
AcDbPolyline
 90
        4
 70
     1
 43
0.0
 10
2.121518365837346
 20
939.834999082144
 10
1272.136314479726
 20
939.834999082144
 10
1272.136314479726
 20
1.490733711909002
 10
2.121518365837346
 20
1.490733711909002
  0
MTEXT
  5
99A
330
1F
100
AcDbEntity
  8
DEFPOINTS
100
AcDbMText
 10
32.48274051299677
 20
58.96253598197438
 30
0.0
 40
25.0
 41
1072.461752324541
 46
74.31942797098108
 71
     1
 72
     1
  1
MONO RIDGE DETAIL BARREL TRIM
  7
Arial
 73
     2
 44
0.9385317878468564
1001
REVIT
1002
{
1070
     1
1000
266659
1002
}
1002
{
1070
     5
1000
190735
1002
}
1002
{
1070
     2
1000
-2005028
1002
}
1001
AcadAnnotative
1000
AnnotativeData
1002
{
1070
     1
1070
     0
1002
}
  0
HATCH
  5
2F6A
330
1F
100
AcDbEntity
  8
A-DETL-GENF-OTLN
 62
     8
100
AcDbHatch
 10
0.0
 20
0.0
 30
0.0
210
0.0
220
0.0
230
1.0
  2
ANSI31
 70
     0
 71
     0
 91
        1
 92
        0
 93
       10
 72
     1
 10
972.7094843614345
 20
544.3547210382909
 11
972.7094843614345
 21
742.3547210382909
 72
     1
 10
972.7094843614345
 20
742.3547210382918
 11
954.7094843614345
 21
742.3547210382918
 72
     1
 10
954.7094843614345
 20
742.3547210382918
 11
954.7094843614345
 21
562.3547210382818
 72
     1
 10
954.7094843614345
 20
562.3547210382827
 11
959.7094843614582
 21
562.3547210382827
 72
     1
 10
959.7094843614564
 20
562.3547210382827
 11
959.7094843614564
 21
554.3547210382827
 72
     1
 10
959.7094843614564
 20
554.3547210382827
 11
957.8886555662325
 21
554.3547210382827
 72
     1
 10
957.8886555662343
 20
554.3547210382827
 11
954.7094843614345
 21
553.3070027627288
 72
     1
 10
954.7094843614345
 20
553.3070027627288
 11
954.7094843614345
 21
544.3547210382918
 72
     1
 10
954.7094843614345
 20
544.3547210382909
 11
958.0365728960783
 21
544.3547210382909
 72
     1
 10
958.0365728960774
 20
544.3547210382909
 11
972.7094843614336
 21
544.3547210382909
 97
        0
 75
     0
 76
     1
 52
359.9999999999997
 41
1.0
 77
     0
 78
     1
 53
44.99999999999964
 43
3080.780158369736
 44
4271.326612287157
 45
-2.245064030267276
 46
2.2450640302673
 79
     0
 98
        1
 10
952.7094843614345
 20
542.3547210382918
1001
HATCHBACKGROUNDCOLOR
1071
-939524096
1000

1000

  0
HATCH
  5
2F6B
330
1F
100
AcDbEntity
  8
_hatch
100
AcDbHatch
 10
0.0
 20
0.0
 30
0.0
210
0.0
220
0.0
230
1.0
  2
SOLID
 70
     1
 71
     0
 91
        2
 92
        0
 93
        4
 72
     1
 10
904.3589104132247
 20
692.5463184226024
 11
951.8465988698285
 21
708.1962208200163
 72
     1
 10
951.8465988698285
 20
708.1962208200154
 11
939.3266769518978
 21
746.1863715852984
 72
     1
 10
939.3266769518946
 20
746.1863715852984
 11
891.8389884952908
 21
730.5364691878846
 72
     1
 10
891.8389884952908
 20
730.5364691878846
 11
904.3589104132216
 21
692.5463184226015
 97
        0
 92
        0
 93
        4
 72
     1
 10
905.3140439949989
 20
694.4404461482187
 11
893.7331162209116
 21
729.5813356061086
 72
     1
 10
893.7331162209143
 20
729.5813356061086
 11
938.3715433701213
 21
744.2922438596776
 72
     1
 10
938.3715433701204
 20
744.2922438596776
 11
949.9524711442077
 21
709.1513544017877
 72
     1
 10
949.952471144205
 20
709.1513544017877
 11
905.3140439949984
 21
694.4404461482187
 97
        0
 75
     0
 76
     1
 98
        1
 10
921.8427936825597
 20
719.36634500395
  0
HATCH
  5
2F6C
330
1F
100
AcDbEntity
  8
_hatch
100
AcDbHatch
 10
0.0
 20
0.0
 30
0.0
210
0.0
220
0.0
230
1.0
  2
FP_2
 70
     0
 71
     0
 91
        1
 92
        0
 93
       19
 72
     1
 10
797.5925625246659
 20
349.2647135457488
 11
813.3825558510316
 21
351.8485306355166
 72
     1
 10
813.3825558510312
 20
351.8485306355166
 11
813.88239454635
 21
351.9993771414407
 72
     1
 10
813.8823945463505
 20
351.9993771414398
 11
814.3261597025175
 21
352.2744514511447
 72
     1
 10
814.326159702518
 20
352.2744514511447
 11
814.6836094574969
 21
352.6550077050066
 72
     1
 10
814.683609457496
 20
352.6550077050066
 11
814.9303842011982
 21
353.1151116232228
 72
     1
 10
814.9303842012
 20
353.1151116232228
 11
815.0496666426575
 21
353.623407884125
 72
     1
 10
815.0496666426575
 20
353.6234078841259
 11
815.0333278806079
 21
354.145256937533
 72
     1
 10
815.0333278806052
 20
354.145256937533
 11
795.97767684356
 21
470.5964577194669
 72
     1
 10
795.9776768435609
 20
470.5964577194669
 11
791.9494342279136
 21
470.443940738474
 72
     1
 10
791.9494342279127
 20
470.443940738474
 11
790.8190142511389
 21
477.3520628187586
 72
     1
 10
790.8190142511398
 20
477.3520628187586
 11
794.6857682986761
 21
478.4914543826495
 72
     1
 10
794.6857682986761
 20
478.4914543826495
 11
792.4249283451286
 21
492.3076985432195
 72
     1
 10
792.4249283451304
 20
492.3076985432186
 11
782.8522448910221
 21
490.7412594325466
 72
     1
 10
782.8522448910212
 20
490.7412594325466
 11
782.8522448910212
 21
439.344432418026
 72
     1
 10
782.8522448910212
 20
439.3444324180269
 11
794.6857682986779
 21
367.0284560379074
 72
     1
 10
794.6857682986761
 20
367.0284560379074
 11
800.6877600801186
 21
367.5039501551215
 72
     1
 10
800.6877600801186
 20
367.5039501551215
 11
801.8181800568923
 21
360.5958280748379
 72
     1
 10
801.818180056895
 20
360.5958280748379
 11
795.9776768435636
 21
359.1334593747257
 72
     1
 10
795.9776768435609
 20
359.1334593747257
 11
797.592562524665
 21
349.2647135457488
 97
        0
 75
     0
 76
     2
 52
0.0
 41
1.0
 77
     0
 78
     1
 53
60.0
 43
970.2141400605856
 44
704.8247118904907
 45
-151.5544456622767
 46
87.50000000000001
 79
     0
 98
        1
 10
781.7891400605863
 20
460.7277118904909
  0
HATCH
  5
2F6D
330
1F
100
AcDbEntity
  8
A-DETL-GENF-OTLN
 62
     8
100
AcDbHatch
 10
0.0
 20
0.0
 30
0.0
210
0.0
220
0.0
230
1.0
  2
ANSI31
 70
     0
 71
     0
 91
        1
 92
        0
 93
        4
 72
     1
 10
760.6142445956052
 20
489.3415486237305
 11
958.0365728960764
 21
554.4034682367707
 72
     1
 10
958.0365728960774
 20
554.4034682367707
 11
956.1585846083876
 21
560.1019908515624
 72
     1
 10
956.1585846083858
 20
560.1019908515624
 11
758.7362563079141
 21
495.0400712385223
 72
     1
 10
758.7362563079173
 20
495.0400712385232
 11
760.614244595607
 21
489.3415486237305
 97
        0
 75
     0
 76
     1
 52
359.9999999999997
 41
1.0
 77
     0
 78
     1
 53
44.99999999999964
 43
3080.780158369736
 44
4271.326612287157
 45
-2.245064030267276
 46
2.2450640302673
 79
     0
 98
        1
 10
758.7362563079173
 20
495.0400712385232
1001
REVIT
1002
{
1070
     3
1000
156456
1002
}
1001
HATCHBACKGROUNDCOLOR
1071
-939524096
1000

1000

  0
HATCH
  5
2F6E
330
1F
100
AcDbEntity
  8
_hatch
100
AcDbHatch
 10
0.0
 20
0.0
 30
0.0
210
0.0
220
0.0
230
1.0
  2
SOLID
 70
     1
 71
     0
 91
        2
 92
        0
 93
        4
 72
     1
 10
918.2507234829959
 20
739.6357478033302
 11
965.7384119395997
 21
755.285650200744
 72
     1
 10
965.7384119395997
 20
755.285650200744
 11
953.2184900216685
 21
793.2758009660271
 72
     1
 10
953.2184900216694
 20
793.2758009660271
 11
905.7308015650656
 21
777.6258985686133
 72
     1
 10
905.7308015650656
 20
777.6258985686133
 11
918.2507234829964
 21
739.6357478033302
 97
        0
 92
        0
 93
        4
 72
     1
 10
919.2058570647737
 20
741.5298755289474
 11
907.6249292906864
 21
776.6707649868373
 72
     1
 10
907.6249292906855
 20
776.6707649868373
 11
952.2633564398925
 21
791.3816732404063
 72
     1
 10
952.2633564398916
 20
791.3816732404063
 11
963.8442842139789
 21
756.2407837825164
 72
     1
 10
963.8442842139798
 20
756.2407837825164
 11
919.2058570647732
 21
741.5298755289474
 97
        0
 75
     0
 76
     1
 98
        1
 10
935.7346067523345
 20
766.4557743846786
  0
HATCH
  5
2F6F
330
1F
100
AcDbEntity
  8
_hatch
100
AcDbHatch
 10
0.0
 20
0.0
 30
0.0
210
0.0
220
0.0
230
1.0
  2
SOLID
 70
     1
 71
     0
 91
        2
 92
        0
 93
        5
 72
     1
 10
578.5286424533028
 20
585.1693752441957
 11
626.0163309099066
 21
600.8192776416096
 72
     1
 10
626.0163309099066
 20
600.8192776416096
 11
613.4964089919754
 21
638.8094284068926
 72
     1
 10
613.4964089919763
 20
638.8094284068926
 11
566.0087205353725
 21
623.1595260094788
 72
     1
 10
566.0087205353725
 20
623.1595260094788
 11
577.9044193125783
 21
587.0635029698138
 72
     1
 10
577.9044193125796
 20
587.0635029698138
 11
578.5286424533047
 21
585.1693752441957
 97
        0
 92
        0
 93
        5
 72
     1
 10
579.4837760350806
 20
587.0635029698129
 11
567.9028482609933
 21
622.2043924277028
 72
     1
 10
567.9028482609924
 20
622.2043924277028
 11
612.541275410199
 21
636.9153006812718
 72
     1
 10
612.5412754102022
 20
636.9153006812718
 11
624.1222031842894
 21
601.7744112233819
 72
     1
 10
624.1222031842867
 20
601.7744112233819
 11
619.497702141467
 21
600.2503743138365
 72
     1
 10
619.4977021414693
 20
600.2503743138356
 11
579.4837760350824
 21
587.0635029698129
 97
        0
 75
     0
 76
     1
 98
        1
 10
227.1197478744384
 20
469.3600975033347
  0
HATCH
  5
2F70
330
1F
100
AcDbEntity
  8
_hatch
100
AcDbHatch
 10
0.0
 20
0.0
 30
0.0
210
0.0
220
0.0
230
1.0
  2
SOLID
 70
     1
 71
     0
 91
        2
 92
        0
 93
        5
 72
     1
 10
227.1197478744384
 20
469.3600975033356
 11
274.6074363310422
 21
485.0099999007494
 72
     1
 10
274.6074363310422
 20
485.0099999007494
 11
262.087514413111
 21
523.0001506660325
 72
     1
 10
262.0875144131119
 20
523.0001506660325
 11
214.5998259565081
 21
507.3502482686187
 72
     1
 10
214.5998259565081
 20
507.3502482686187
 11
226.4955247337139
 21
471.2542252289537
 72
     1
 10
226.4955247337152
 20
471.2542252289537
 11
227.1197478744402
 21
469.3600975033356
 97
        0
 92
        0
 93
        5
 72
     1
 10
228.0748814562162
 20
471.2542252289528
 11
216.4939536821289
 21
506.3951146868427
 72
     1
 10
216.493953682128
 20
506.3951146868427
 11
261.1323808313346
 21
521.1060229404117
 72
     1
 10
261.1323808313341
 20
521.1060229404117
 11
272.7133086054214
 21
485.9651334825218
 72
     1
 10
272.7133086054223
 20
485.9651334825218
 11
268.0888075626026
 21
484.4410965729763
 72
     1
 10
268.0888075626012
 20
484.4410965729754
 11
228.0748814562144
 21
471.2542252289528
 97
        0
 75
     0
 76
     1
 98
        1
 10
-124.289146704426
 20
353.5508197624746
  0
LINE
  5
2F71
330
1F
100
AcDbEntity
  8
_lines
  6
Dash
100
AcDbLine
 10
142.5227777832247
 20
439.3720429581432
 30
0.0
 11
952.6180947701819
 21
706.3446637677131
 31
0.0
1001
REVIT
1002
{
1070
     3
1000
191813
1002
}
  0
LINE
  5
2F72
330
1F
100
AcDbEntity
  8
_lines
100
AcDbLine
 10
954.7094843614345
 20
544.3547210382918
 30
0.0
 11
972.7094843614345
 21
544.3547210382918
 31
0.0
1001
REVIT
1002
{
1070
     3
1000
156458
1002
}
  0
LINE
  5
2F73
330
1F
100
AcDbEntity
  8
_lines
100
AcDbLine
 10
972.7094843614345
 20
544.3547210382918
 30
0.0
 11
972.7094843614345
 21
742.3547210382918
 31
0.0
1001
REVIT
1002
{
1070
     3
1000
156458
1002
}
  0
LINE
  5
2F74
330
1F
100
AcDbEntity
  8
_lines
100
AcDbLine
 10
972.7094843614345
 20
742.3547210382918
 30
0.0
 11
954.7094843614345
 21
742.3547210382918
 31
0.0
1001
REVIT
1002
{
1070
     3
1000
156458
1002
}
  0
LINE
  5
2F75
330
1F
100
AcDbEntity
  8
_lines
100
AcDbLine
 10
954.7094843614345
 20
742.3547210382918
 30
0.0
 11
954.7094843614345
 21
562.3547210382827
 31
0.0
1001
REVIT
1002
{
1070
     3
1000
156458
1002
}
  0
LINE
  5
2F76
330
1F
100
AcDbEntity
  8
_lines
100
AcDbLine
 10
954.7094843614345
 20
562.3547210382827
 30
0.0
 11
959.7094843614564
 21
562.3547210382827
 31
0.0
1001
REVIT
1002
{
1070
     3
1000
156458
1002
}
  0
LINE
  5
2F77
330
1F
100
AcDbEntity
  8
_lines
100
AcDbLine
 10
959.7094843614564
 20
562.3547210382827
 30
0.0
 11
959.7094843614564
 21
554.3547210382827
 31
0.0
1001
REVIT
1002
{
1070
     3
1000
156458
1002
}
  0
LINE
  5
2F78
330
1F
100
AcDbEntity
  8
_lines
100
AcDbLine
 10
959.7094843614564
 20
554.3547210382827
 30
0.0
 11
958.0365728960774
 21
554.3547210382827
 31
0.0
1001
REVIT
1002
{
1070
     3
1000
156458
1002
}
  0
LINE
  5
2F79
330
1F
100
AcDbEntity
  8
_lines
100
AcDbLine
 10
954.7094843614345
 20
553.3070027627288
 30
0.0
 11
954.7094843614345
 21
544.3547210382918
 31
0.0
1001
REVIT
1002
{
1070
     3
1000
156458
1002
}
  0
LINE
  5
2F7A
330
1F
100
AcDbEntity
  8
_lines
100
AcDbLine
 10
952.7094843614345
 20
704.2689728882411
 30
0.0
 11
952.7094843614345
 21
565.0711245211957
 31
0.0
1001
REVIT
1002
{
1070
     3
1000
156458
1002
}
  0
LINE
  5
2F7B
330
1F
100
AcDbEntity
  8
_lines
100
AcDbLine
 10
143.1486310166024
 20
437.4724883385267
 30
0.0
 11
952.7094843614345
 21
704.2689728882402
 31
0.0
  0
LINE
  5
2F7C
330
1F
100
AcDbEntity
  8
_lines
100
AcDbLine
 10
952.7094843614345
 20
565.0711245211957
 30
0.0
 11
184.5186816699375
 21
311.9084317171561
 31
0.0
  0
LINE
  5
2F7D
330
1F
100
AcDbEntity
  8
_lines
100
AcDbLine
 10
893.7331162209143
 20
729.5813356061086
 30
0.0
 11
949.952471144205
 21
709.1513544017877
 31
0.0
1001
REVIT
1002
{
1070
     3
1000
156446
1002
}
  0
LINE
  5
2F7E
330
1F
100
AcDbEntity
  8
_lines
100
AcDbLine
 10
938.3715433701204
 20
744.2922438596776
 30
0.0
 11
905.3140439949989
 21
694.4404461482187
 31
0.0
1001
REVIT
1002
{
1070
     3
1000
156446
1002
}
  0
LINE
  5
2F7F
330
1F
100
AcDbEntity
  8
_lines
  6
Dash
100
AcDbLine
 10
757.3503818600134
 20
122.800353004032
 30
0.0
 11
757.3503818600097
 21
496.5436120057853
 31
0.0
1001
REVIT
1002
{
1070
     3
1000
191813
1002
}
  0
LINE
  5
2F80
330
1F
100
AcDbEntity
  8
_lines
  6
Dash
100
AcDbLine
 10
758.1102602120177
 20
496.9395787767886
 30
0.0
 11
953.8985686645124
 21
561.4629956332752
 31
0.0
1001
REVIT
1002
{
1070
     3
1000
191813
1002
}
  0
LINE
  5
2F81
330
1F
100
AcDbEntity
  8
_lines
100
AcDbLine
 10
762.7891400605863
 20
481.62004013423
 30
0.0
 11
762.7891400605863
 21
122.800353004032
 31
0.0
1001
REVIT
1002
{
1070
     3
1000
3443
1002
}
  0
LINE
  5
2F82
330
1F
100
AcDbEntity
  8
_lines
100
AcDbLine
 10
781.7891400605863
 20
481.62004013423
 30
0.0
 11
762.7891400605863
 21
481.62004013423
 31
0.0
1001
REVIT
1002
{
1070
     3
1000
3443
1002
}
  0
LINE
  5
2F83
330
1F
100
AcDbEntity
  8
_lines
100
AcDbLine
 10
797.5925625246659
 20
237.6186882564149
 30
0.0
 11
795.9776768435609
 21
247.4874340853927
 31
0.0
  0
LINE
  5
2F84
330
1F
100
AcDbEntity
  8
_lines
100
AcDbLine
 10
787.1012621651194
 20
301.7321904536581
 30
0.0
 11
781.7891400605863
 21
300.8629341092798
 31
0.0
  0
LINE
  5
2F85
330
1F
100
AcDbEntity
  8
_lines
100
AcDbLine
 10
781.7891400605863
 20
257.1726626556562
 30
0.0
 11
782.8522448910212
 21
257.1726626556562
 31
0.0
  0
LINE
  5
2F86
330
1F
100
AcDbEntity
  8
_lines
100
AcDbLine
 10
782.8522448910212
 20
368.8186879449901
 30
0.0
 11
782.8522448910212
 21
327.698407128693
 31
0.0
  0
LINE
  5
2F87
330
1F
100
AcDbEntity
  8
_lines
100
AcDbLine
 10
782.8522448910212
 20
327.698407128693
 30
0.0
 11
794.6857682986761
 21
255.3824307485744
 31
0.0
  0
LINE
  5
2F88
330
1F
100
AcDbEntity
  8
_lines
100
AcDbLine
 10
794.6857682986761
 20
255.3824307485744
 30
0.0
 11
800.6877600801186
 21
255.8579248657885
 31
0.0
  0
LINE
  5
2F89
330
1F
100
AcDbEntity
  8
_lines
100
AcDbLine
 10
800.6877600801186
 20
255.8579248657885
 30
0.0
 11
801.818180056895
 21
248.9498027855049
 31
0.0
  0
LINE
  5
2F8A
330
1F
100
AcDbEntity
  8
_lines
100
AcDbLine
 10
801.818180056895
 20
248.9498027855049
 30
0.0
 11
795.9776768435609
 21
247.4874340853927
 31
0.0
  0
LINE
  5
2F8B
330
1F
100
AcDbEntity
  8
_lines
100
AcDbLine
 10
797.5925625246659
 20
237.6186882564149
 30
0.0
 11
813.3825558510312
 21
240.2025053461826
 31
0.0
  0
ARC
  5
2F8C
330
1F
100
AcDbEntity
  8
_lines
100
AcDbCircle
 10
813.0595787148109
 20
242.1762545119778
 30
0.0
 40
2.000000000000125
100
AcDbArc
 50
279.2933085993734
 51
9.293308599399687
  0
LINE
  5
2F8D
330
1F
100
AcDbEntity
  8
_lines
100
AcDbLine
 10
815.0333278806052
 20
242.499231648199
 30
0.0
 11
795.9776768435609
 21
358.9504324301339
 31
0.0
  0
LINE
  5
2F8E
330
1F
100
AcDbEntity
  8
_lines
100
AcDbLine
 10
795.9776768435609
 20
358.9504324301339
 30
0.0
 11
791.9494342279127
 21
358.7979154491401
 31
0.0
  0
LINE
  5
2F8F
330
1F
100
AcDbEntity
  8
_lines
100
AcDbLine
 10
791.9494342279127
 20
358.7979154491401
 30
0.0
 11
790.8190142511398
 21
365.7060375294246
 31
0.0
  0
LINE
  5
2F90
330
1F
100
AcDbEntity
  8
_lines
100
AcDbLine
 10
790.8190142511398
 20
365.7060375294246
 30
0.0
 11
794.6857682986761
 21
366.8454290933156
 31
0.0
  0
LINE
  5
2F91
330
1F
100
AcDbEntity
  8
_lines
100
AcDbLine
 10
794.6857682986761
 20
366.8454290933156
 30
0.0
 11
794.3628713956773
 21
368.8186879449892
 31
0.0
  0
LINE
  5
2F92
330
1F
100
AcDbEntity
  8
_lines
100
AcDbLine
 10
781.7891400605863
 20
368.8186879449901
 30
0.0
 11
794.3928212593369
 21
368.8186879449901
 31
0.0
  0
LINE
  5
2F93
330
1F
100
AcDbEntity
  8
_lines
100
AcDbLine
 10
787.1012621651194
 20
413.378215742992
 30
0.0
 11
781.7891400605863
 21
412.5089593986137
 31
0.0
  0
LINE
  5
2F94
330
1F
100
AcDbEntity
  8
_lines
100
AcDbLine
 10
782.8522448910212
 20
490.7412594325466
 30
0.0
 11
782.8522448910212
 21
439.3444324180269
 31
0.0
  0
LINE
  5
2F95
330
1F
100
AcDbEntity
  8
_lines
100
AcDbLine
 10
782.8522448910212
 20
439.3444324180269
 30
0.0
 11
794.6857682986761
 21
367.0284560379074
 31
0.0
  0
LINE
  5
2F96
330
1F
100
AcDbEntity
  8
_lines
100
AcDbLine
 10
794.6857682986761
 20
367.0284560379074
 30
0.0
 11
800.6877600801186
 21
367.5039501551224
 31
0.0
  0
LINE
  5
2F97
330
1F
100
AcDbEntity
  8
_lines
100
AcDbLine
 10
800.6877600801186
 20
367.5039501551224
 30
0.0
 11
801.818180056895
 21
360.5958280748379
 31
0.0
  0
LINE
  5
2F98
330
1F
100
AcDbEntity
  8
_lines
100
AcDbLine
 10
801.818180056895
 20
360.5958280748379
 30
0.0
 11
795.9776768435609
 21
359.1334593747257
 31
0.0
  0
LINE
  5
2F99
330
1F
100
AcDbEntity
  8
_lines
100
AcDbLine
 10
795.9776768435609
 20
359.1334593747257
 30
0.0
 11
797.5925625246659
 21
349.2647135457488
 31
0.0
  0
LINE
  5
2F9A
330
1F
100
AcDbEntity
  8
_lines
100
AcDbLine
 10
797.5925625246659
 20
349.2647135457488
 30
0.0
 11
813.3825558510312
 21
351.8485306355166
 31
0.0
  0
ARC
  5
2F9B
330
1F
100
AcDbEntity
  8
_lines
100
AcDbCircle
 10
813.0595787148109
 20
353.8222798013118
 30
0.0
 40
2.000000000000125
100
AcDbArc
 50
279.2933085993734
 51
9.293308599399687
  0
LINE
  5
2F9C
330
1F
100
AcDbEntity
  8
_lines
100
AcDbLine
 10
815.0333278806052
 20
354.145256937533
 30
0.0
 11
795.9776768435609
 21
470.5964577194669
 31
0.0
  0
LINE
  5
2F9D
330
1F
100
AcDbEntity
  8
_lines
100
AcDbLine
 10
795.9776768435609
 20
470.5964577194669
 30
0.0
 11
791.9494342279127
 21
470.443940738474
 31
0.0
  0
LINE
  5
2F9E
330
1F
100
AcDbEntity
  8
_lines
100
AcDbLine
 10
791.9494342279127
 20
470.443940738474
 30
0.0
 11
790.8190142511398
 21
477.3520628187586
 31
0.0
  0
LINE
  5
2F9F
330
1F
100
AcDbEntity
  8
_lines
100
AcDbLine
 10
790.8190142511398
 20
477.3520628187586
 30
0.0
 11
794.6857682986761
 21
478.4914543826495
 31
0.0
  0
LINE
  5
2FA0
330
1F
100
AcDbEntity
  8
_lines
100
AcDbLine
 10
794.6857682986761
 20
478.4914543826495
 30
0.0
 11
792.4249283451304
 21
492.3076985432186
 31
0.0
  0
LINE
  5
2FA1
330
1F
100
AcDbEntity
  8
_lines
100
AcDbLine
 10
792.4249283451304
 20
492.3076985432186
 30
0.0
 11
782.8522448910212
 21
490.7412594325466
 31
0.0
  0
LINE
  5
2FA2
330
1F
100
AcDbEntity
  8
_lines
100
AcDbLine
 10
787.1012621651194
 20
190.0861651643251
 30
0.0
 11
781.7891400605863
 21
189.2169088199468
 31
0.0
  0
LINE
  5
2FA3
330
1F
100
AcDbEntity
  8
_lines
100
AcDbLine
 10
781.7891400605863
 20
145.5266373663231
 30
0.0
 11
787.8522448910212
 21
145.5266373663231
 31
0.0
  0
LINE
  5
2FA4
330
1F
100
AcDbEntity
  8
_lines
100
AcDbLine
 10
782.8522448910212
 20
267.4492088538806
 30
0.0
 11
782.8522448910212
 21
216.05238183936
 31
0.0
  0
LINE
  5
2FA5
330
1F
100
AcDbEntity
  8
_lines
100
AcDbLine
 10
782.8522448910212
 20
216.05238183936
 30
0.0
 11
792.5844899476965
 21
156.5775509374577
 31
0.0
  0
LINE
  5
2FA6
330
1F
100
AcDbEntity
  8
_lines
100
AcDbLine
 10
799.5922126742576
 20
144.1251073305499
 30
0.0
 11
800.6877600801186
 21
144.2118995764555
 31
0.0
  0
LINE
  5
2FA7
330
1F
100
AcDbEntity
  8
_lines
100
AcDbLine
 10
800.6877600801186
 20
144.2118995764555
 30
0.0
 11
801.818180056895
 21
137.3037774961718
 31
0.0
  0
LINE
  5
2FA8
330
1F
100
AcDbEntity
  8
_lines
100
AcDbLine
 10
801.818180056895
 20
137.3037774961718
 30
0.0
 11
796.8584404539602
 21
136.0619379335318
 31
0.0
  0
LINE
  5
2FA9
330
1F
100
AcDbEntity
  8
_lines
100
AcDbLine
 10
802.4330009220998
 20
126.7647347048438
 30
0.0
 11
813.3825558510312
 21
128.5564800568496
 31
0.0
  0
ARC
  5
2FAA
330
1F
100
AcDbEntity
  8
_lines
100
AcDbCircle
 10
813.0595787148109
 20
130.5302292226457
 30
0.0
 40
2.000000000000125
100
AcDbArc
 50
279.2933085993734
 51
9.293308599399687
  0
LINE
  5
2FAB
330
1F
100
AcDbEntity
  8
_lines
100
AcDbLine
 10
815.0333278806052
 20
130.8532063588669
 30
0.0
 11
795.9776768435609
 21
247.3044071408009
 31
0.0
  0
LINE
  5
2FAC
330
1F
100
AcDbEntity
  8
_lines
100
AcDbLine
 10
795.9776768435609
 20
247.3044071408009
 30
0.0
 11
791.9494342279127
 21
247.1518901598071
 31
0.0
  0
LINE
  5
2FAD
330
1F
100
AcDbEntity
  8
_lines
100
AcDbLine
 10
791.9494342279127
 20
247.1518901598071
 30
0.0
 11
790.8190142511398
 21
254.0600122400916
 31
0.0
  0
LINE
  5
2FAE
330
1F
100
AcDbEntity
  8
_lines
100
AcDbLine
 10
790.8190142511398
 20
254.0600122400916
 30
0.0
 11
794.6857682986761
 21
255.1994038039826
 31
0.0
  0
LINE
  5
2FAF
330
1F
100
AcDbEntity
  8
_lines
100
AcDbLine
 10
794.6857682986761
 20
255.1994038039826
 30
0.0
 11
792.4249283451304
 21
269.0156479645526
 31
0.0
  0
LINE
  5
2FB0
330
1F
100
AcDbEntity
  8
_lines
100
AcDbLine
 10
792.4249283451304
 20
269.0156479645526
 30
0.0
 11
782.8522448910212
 21
267.4492088538806
 31
0.0
  0
LINE
  5
2FB1
330
1F
100
AcDbEntity
  8
_lines
100
AcDbLine
 10
787.8522448910212
 20
155.8031835645476
 30
0.0
 11
787.8522448910212
 21
122.800353004032
 31
0.0
  0
LINE
  5
2FB2
330
1F
100
AcDbEntity
  8
_lines
100
AcDbLine
 10
803.0817179276878
 20
122.800353004032
 30
0.0
 11
800.9776768435609
 21
135.6583818514679
 31
0.0
  0
LINE
  5
2FB3
330
1F
100
AcDbEntity
  8
_lines
100
AcDbLine
 10
800.9776768435609
 20
135.6583818514679
 30
0.0
 11
796.9494342279127
 21
135.5058648704741
 31
0.0
  0
LINE
  5
2FB4
330
1F
100
AcDbEntity
  8
_lines
100
AcDbLine
 10
796.9494342279127
 20
135.5058648704741
 30
0.0
 11
795.8190142511398
 21
142.4139869507586
 31
0.0
  0
LINE
  5
2FB5
330
1F
100
AcDbEntity
  8
_lines
100
AcDbLine
 10
795.8190142511398
 20
142.4139869507586
 30
0.0
 11
799.6857682986761
 21
143.5533785146496
 31
0.0
  0
LINE
  5
2FB6
330
1F
100
AcDbEntity
  8
_lines
100
AcDbLine
 10
799.6857682986761
 20
143.5533785146496
 30
0.0
 11
797.4249283451304
 21
157.3696226752196
 31
0.0
  0
LINE
  5
2FB7
330
1F
100
AcDbEntity
  8
_lines
100
AcDbLine
 10
797.4249283451304
 20
157.3696226752196
 30
0.0
 11
787.8522448910212
 21
155.8031835645476
 31
0.0
  0
LINE
  5
2FB8
330
1F
100
AcDbEntity
  8
_lines
100
AcDbLine
 10
956.1585846083858
 20
560.1019908515633
 30
0.0
 11
758.7362563079173
 21
495.0400712385232
 31
0.0
1001
REVIT
1002
{
1070
     3
1000
156456
1002
}
  0
LINE
  5
2FB9
330
1F
100
AcDbEntity
  8
_lines
100
AcDbLine
 10
758.7362563079173
 20
495.0400712385232
 30
0.0
 11
760.6142445956052
 21
489.3415486237315
 31
0.0
1001
REVIT
1002
{
1070
     3
1000
156456
1002
}
  0
LINE
  5
2FBA
330
1F
100
AcDbEntity
  8
_lines
100
AcDbLine
 10
760.6142445956052
 20
489.3415486237315
 30
0.0
 11
958.0365728960774
 21
554.4034682367707
 31
0.0
1001
REVIT
1002
{
1070
     3
1000
156456
1002
}
  0
LINE
  5
2FBB
330
1F
100
AcDbEntity
  8
_lines
100
AcDbLine
 10
958.0365728960774
 20
554.4034682367707
 30
0.0
 11
956.1585846083858
 21
560.1019908515633
 31
0.0
1001
REVIT
1002
{
1070
     3
1000
156456
1002
}
  0
LINE
  5
2FBC
330
1F
100
AcDbEntity
  8
_lines
  6
Dash
100
AcDbLine
 10
952.7094843614345
 20
706.6696759641424
 30
0.0
 11
952.7094843614345
 21
745.0144177970066
 31
0.0
1001
REVIT
1002
{
1070
     3
1000
191813
1002
}
  0
LINE
  5
2FBD
330
1F
100
AcDbEntity
  8
_lines
  6
Dash
100
AcDbLine
 10
953.3804484408961
 20
747.2365758606462
 30
0.0
 11
967.7110609122487
 21
751.959330194684
 31
0.0
1001
REVIT
1002
{
1070
     3
1000
191813
1002
}
  0
LINE
  5
2FBE
330
1F
100
AcDbEntity
  8
_lines
100
AcDbLine
 10
907.6249292906855
 20
776.6707649868373
 30
0.0
 11
963.8442842139798
 21
756.2407837825164
 31
0.0
1001
REVIT
1002
{
1070
     3
1000
156446
1002
}
  0
LINE
  5
2FBF
330
1F
100
AcDbEntity
  8
_lines
100
AcDbLine
 10
952.2633564398916
 20
791.3816732404063
 30
0.0
 11
919.2058570647737
 21
741.5298755289474
 31
0.0
1001
REVIT
1002
{
1070
     3
1000
156446
1002
}
  0
LINE
  5
2FC0
330
1F
100
AcDbEntity
  8
_lines
100
AcDbLine
 10
567.902848260996
 20
622.2043924277001
 30
0.0
 11
624.1222031842867
 21
601.7744112233846
 31
0.0
1001
REVIT
1002
{
1070
     3
1000
156446
1002
}
  0
LINE
  5
2FC1
330
1F
100
AcDbEntity
  8
_lines
100
AcDbLine
 10
579.4837760350806
 20
587.0635029698129
 30
0.0
 11
612.5412754102022
 21
636.9153006812718
 31
0.0
1001
REVIT
1002
{
1070
     3
1000
156446
1002
}
  0
LINE
  5
2FC2
330
1F
100
AcDbEntity
  8
_lines
100
AcDbLine
 10
216.493953682128
 20
506.39511468684
 30
0.0
 11
272.7133086054223
 21
485.9651334825245
 31
0.0
1001
REVIT
1002
{
1070
     3
1000
156446
1002
}
  0
LINE
  5
2FC3
330
1F
100
AcDbEntity
  8
_lines
100
AcDbLine
 10
228.0748814562162
 20
471.2542252289528
 30
0.0
 11
261.1323808313341
 21
521.1060229404108
 31
0.0
1001
REVIT
1002
{
1070
     3
1000
156446
1002
}
  0
LINE
  5
2FC4
330
1F
100
AcDbEntity
  8
_lines
100
AcDbLine
 10
184.5186816699365
 20
311.9084317171561
 30
0.0
 11
164.4524027537905
 21
372.81247563821
 31
0.0
  0
LINE
  5
2FC5
330
1F
100
AcDbEntity
  8
_lines
100
AcDbLine
 10
164.4524027537905
 20
372.81247563821
 30
0.0
 11
173.6735978426318
 21
377.7642350690545
 31
0.0
  0
LINE
  5
2FC6
330
1F
100
AcDbEntity
  8
_lines
100
AcDbLine
 10
173.6735978426318
 20
377.7642350690545
 30
0.0
 11
153.0069295721792
 21
374.6117202784777
 31
0.0
  0
LINE
  5
2FC7
330
1F
100
AcDbEntity
  8
_lines
100
AcDbLine
 10
153.0069295721792
 20
374.6117202784777
 30
0.0
 11
162.2281246610169
 21
379.5634797093222
 31
0.0
  0
LINE
  5
2FC8
330
1F
100
AcDbEntity
  8
_lines
100
AcDbLine
 10
162.2281246610169
 20
379.5634797093222
 30
0.0
 11
134.9096932370453
 21
462.4788500304854
 31
0.0
  0
LINE
  5
2FC9
330
1F
100
AcDbEntity
  8
_lines
100
AcDbLine
 10
803.0817179276878
 20
122.800353004032
 30
0.0
 11
652.6470553526256
 21
122.800353004032
 31
0.0
  0
LINE
  5
2FCA
330
1F
100
AcDbEntity
  8
_lines
100
AcDbLine
 10
652.6470553526256
 20
122.800353004032
 30
0.0
 11
650.8295439876915
 21
133.1079721649127
 31
0.0
  0
LINE
  5
2FCB
330
1F
100
AcDbEntity
  8
_lines
100
AcDbLine
 10
650.8295439876915
 20
133.1079721649127
 30
0.0
 11
647.3565804343548
 21
112.4927338431513
 31
0.0
  0
LINE
  5
2FCC
330
1F
100
AcDbEntity
  8
_lines
100
AcDbLine
 10
647.3565804343548
 20
112.4927338431513
 30
0.0
 11
645.5390690694244
 21
122.800353004032
 31
0.0
  0
LINE
  5
2FCD
330
1F
100
AcDbEntity
  8
_lines
100
AcDbLine
 10
645.5390690694244
 20
122.800353004032
 30
0.0
 11
539.8357425620329
 21
122.800353004032
 31
0.0
  0
DIMENSION
  5
2FCE
330
1F
100
AcDbEntity
  8
0
 62
     1
100
AcDbDimension
280
     0
  2
*D290
 10
972.7094843614345
 20
830.5215851593163
 30
0.0
 11
940.16720682606
 21
836.5215851593163
 31
0.0
 70
    32
 71
     5
 42
65.08455507074905
 73
     0
 74
     0
 75
     0
  3
DIM150
100
AcDbAlignedDimension
 13
907.6249292906855
 23
805.5215851593163
 33
0.0
 14
972.7094843614345
 24
805.5215851593163
 34
0.0
100
AcDbRotatedDimension
1001
REVIT
1002
{
1070
     1
1000
714754
1002
}
1002
{
1070
     5
1000
91566
1002
}
1002
{
1070
     2
1000
-2000260
1002
}
1001
ACAD
1000
DSTYLE
1002
{
1070
   347
1005
51D
1070
   346
1005
51D
1070
   345
1005
0
1070
   340
1005
521
1070
   341
1005
522
1070
   140
1040
10.0
1002
}
  0
LINE
  5
2FCF
330
1F
100
AcDbEntity
  8
_lines
100
AcDbLine
 10
539.8357425620329
 20
122.800353004032
 30
0.0
 11
539.8357425620329
 21
429.0056732091049
 31
0.0
  0
LINE
  5
2FD0
330
1F
100
AcDbEntity
  8
_lines
100
AcDbLine
 10
781.7891400605863
 20
122.800353004032
 30
0.0
 11
781.7891400605863
 21
481.62004013423
 31
0.0
1001
REVIT
1002
{
1070
     3
1000
3443
1002
}
  0
LINE
  5
2FD1
330
1F
100
AcDbEntity
  8
_lines
100
AcDbLine
 10
752.7094843614309
 20
122.800353004032
 30
0.0
 11
752.7094843614309
 21
499.1597150335944
 31
0.0
1001
REVIT
1002
{
1070
     3
1000
156458
1002
}
  0
MULTILEADER
  5
2FD2
330
1F
100
AcDbEntity
  8
0
370
    -3
160
              1101
310
4D040000160000000C00000013000000993A00000C0000000E000000F1000000100100002600000014338E2B29A753402DE904E8AAE18840000000000000000000000000000000000000000000000000000000000000F03F000000000000F03F00000000000000000000000000000000520069006400670065002000740069
310
006C0065002000630075007400200061006E0064002000620065006E007400200074006F00200066006F0072006D002000750070007300740061006E00640000002700000001000000FFFFFFFFFFFF2840000000000000F03F0000000000000000000000000000F03F00000000000000000000000000000000000000000000
310
000000000000000000002200000041007200690061006C00000061007200690061006C002E007400740066000000000000000C000000130000009A3A00000C0000000E000000030000005400000020000000020000009822D3C5EAE47740D893AF9255C088400000000000000000A0EE21D904FF5340D893AF9255C0884000
310
0000000000000000000000000000000000000000000000000000000000F03F0C00000013000000112700000C0000001300000001000000880000001D00000062B8D8A79EC60740125797855C151040000000000000000094C78EFF9F758C40125797855C1510C062B8D8A79EC607400000000000000000ED1919A8BEBE8740
310
0000000000000000000000000000000000000000000014400000000000000000000000000000000000000000000000000000000000000000000000000000F03F0C00000012000000FE7F00000C000000140000000100000035000000210000002600000005008000000000000E03F40902000000000000D0BF000000000000
310
0000C00000000000340FC50000000C0000001400000002000000540000002000000002000000000000000000E0BF00000000000000000000000000000000000000000000F0BF0000000000000000000000000000000000000000000000000000000000000000000000000000F03F080000001F000000880000001D00000000
310
0000000000F03F0000000000000000000000000000000000000000000000000000000000000000000000000000F03F0000000000000000000000000000000000000000000000000000000000000000000000000000F03F0000000000000000000000000000000000000000000000000000000000000000000000000000F03F
310
080000001F0000000C00000013000000891300000C00000012000000FF7F0000540000002000000002000000DCEEE660D95D8C409B482461E9DE87400000000000000000D8CFB3E53AB78B40D893AF9255C08840000000000000000000000000000000000000000000000000000000000000F03F0C00000013000000112700
310
00540000002000000002000000D8CFB3E53AB78B40D893AF9255C0884000000000000000009822D3C5EAE47740D893AF9255C08840000000000000000000000000000000000000000000000000000000000000F03F
100
AcDbMLeader
270
     2
300
CONTEXT_DATA{
 40
1.0
 10
74.98467090905842
 20
792.0417836873048
 30
0.0
 41
12.5
140
5.0
145
5.0
174
     5
175
     5
176
     0
177
     0
290
     1
304
{\C241;Ridge tile cut and bent to form upstand}
 11
0.0
 21
0.0
 31
1.0
340
537
 12
79.98467090905842
 22
808.7084503539714
 32
0.0
 13
1.0
 23
0.0
 33
0.0
 42
0.0
 43
0.0
 44
0.0
 45
0.9600000000000001
170
     2
 90
-1023409921
171
     1
172
     5
 91
-939524096
141
1.5
 92
        0
291
     0
292
     0
173
     0
293
     0
142
0.0
143
0.0
294
     0
295
     0
296
     0
110
926.4565344832504
120
775.0068236908397
130
0.0
111
1.0
121
0.0
131
0.0
112
0.0
122
1.0
132
0.0
297
     0
302
LEADER{
290
     1
291
     1
 10
886.9037584350399
 20
792.0417836873048
 30
0.0
 11
-1.0
 21
0.0
 31
0.0
 90
        0
 40
504.5964408684099
304
LEADER_LINE{
 10
910.7031241564423
 20
759.8430940590894
 30
0.0
 91
        0
 92
-1056964608
305
}
271
     0
303
}
272
     9
273
     9
301
}
340
D8
 90
856161279
170
     1
 91
-1023410173
341
14
171
    -2
290
     1
291
     1
 41
504.5964408684099
342
639
 42
5.0
172
     2
343
537
173
     5
 95
        5
174
     1
175
     0
 92
-1023409921
292
     0
 93
-1056964608
 10
1.0
 20
1.0
 30
1.0
 43
0.0
176
     0
293
     0
294
     0
178
     0
179
     1
 45
1.0
271
     0
272
     9
273
     9
295
     1
  0
MULTILEADER
  5
2FD3
330
1F
100
AcDbEntity
  8
0
370
    -3
160
              1081
310
39040000160000000C00000013000000993A00000C0000000E000000F1000000FC000000260000004C4262DB55A353405D8AF06892CA8740000000000000000000000000000000000000000000000000000000000000F03F000000000000F03F000000000000000000000000000000004D0069006E0069006D0075006D0020
310
00750070007300740061006E0064002000610074002000720069006400670065002000340030006D006D0000001D00000001000000FFFFFFFFFFFF2840000000000000F03F0000000000000000000000000000F03F000000000000000000000000000000000000000000000000000000000000000022000000410072006900
310
61006C00000061007200690061006C002E007400740066000000000000000C000000130000009A3A00000C0000000E00000003000000540000002000000002000000A28A9DB34F0B754008359B133DA987400000000000000000A0A8793C48F6534008359B133DA98740000000000000000000000000000000000000000000
310
000000000000000000F03F0C00000013000000112700000C0000001300000001000000880000001D0000004AB9D8A79EC60740BB5697855C151040000000000000000054ED11BA38298B40BB5697855C1510C04AB9D8A79EC607400000000000000000AD9B5951C03687400000000000000000000000000000000000000000
310
000014400000000000000000000000000000000000000000000000000000000000000000000000000000F03F0C00000012000000FE7F00000C000000140000000100000035000000210000002600000005008000000000000E03F40902000000000000D0BF0000000000000000C00000000000340FC50000000C0000001400
310
000002000000540000002000000002000000000000000000E0BF00000000000000000000000000000000000000000000F0BF0000000000000000000000000000000000000000000000000000000000000000000000000000F03F080000001F000000880000001D000000000000000000F03F00000000000000000000000000
310
00000000000000000000000000000000000000000000000000F03F0000000000000000000000000000000000000000000000000000000000000000000000000000F03F0000000000000000000000000000000000000000000000000000000000000000000000000000F03F080000001F0000000C0000001300000089130000
310
0C00000012000000FF7F00005400000020000000020000009B146A1B72118B405ACA640AEB5687400000000000000000F5994B6D99D48A4008359B133DA98740000000000000000000000000000000000000000000000000000000000000F03F0C0000001300000011270000540000002000000002000000F5994B6D99D48A
310
4008359B133DA987400000000000000000A28A9DB34F0B754008359B133DA98740000000000000000000000000000000000000000000000000000000000000F03F
100
AcDbMLeader
270
     2
300
CONTEXT_DATA{
 40
1.0
 10
74.84815894966823
 20
757.1548225522574
 30
0.0
 41
12.5
140
5.0
145
5.0
174
     5
175
     5
176
     0
177
     0
290
     1
304
{\C241;Minimum upstand at ridge 40mm}
 11
0.0
 21
0.0
 31
1.0
340
537
 12
79.84815894966823
 22
773.8214892189241
 32
0.0
 13
1.0
 23
0.0
 33
0.0
 42
0.0
 43
0.0
 44
0.0
 45
0.9600000000000001
170
     2
 90
-1023409921
171
     1
172
     5
 91
-939524096
141
1.5
 92
        0
291
     0
292
     0
173
     0
293
     0
142
0.0
143
0.0
294
     0
295
     0
296
     0
110
898.1276915437361
120
740.1198625557923
130
0.0
111
1.0
121
0.0
131
0.0
112
0.0
122
1.0
132
0.0
297
     0
302
LEADER{
290
     1
291
     1
 10
858.5749154955253
 20
757.1548225522574
 30
0.0
 11
-1.0
 21
0.0
 31
0.0
 90
        0
 40
521.8679570915597
304
LEADER_LINE{
 10
869.1526986504127
 20
742.8439051628717
 30
0.0
 91
        0
 92
-1056964608
305
}
271
     0
303
}
272
     9
273
     9
301
}
340
D8
 90
856161279
170
     1
 91
-1023410173
341
14
171
    -2
290
     1
291
     1
 41
521.8679570915597
342
639
 42
5.0
172
     2
343
537
173
     5
 95
        5
174
     1
175
     0
 92
-1023409921
292
     0
 93
-1056964608
 10
1.0
 20
1.0
 30
1.0
 43
0.0
176
     0
293
     0
294
     0
178
     0
179
     1
 45
1.0
271
     0
272
     9
273
     9
295
     1
  0
MULTILEADER
  5
2FD4
330
1F
100
AcDbEntity
  8
0
370
    -3
160
              1061
310
25040000160000000C00000013000000993A00000C0000000E000000F1000000E80000002600000078545E0B79B653403514A8D2C9828540000000000000000000000000000000000000000000000000000000000000F03F000000000000F03F00000000000000000000000000000000540069006C00650020006200610074
310
00740065006E002000350030007800340030006D006D0000001300000001000000FFFFFFFFFFFF2840000000000000F03F0000000000000000000000000000F03F00000000000000000000000000000000000000000000000000000000000000002200000041007200690061006C00000061007200690061006C002E007400
310
740066000000000000000C000000130000009A3A00000C0000000E00000003000000540000002000000002000000709C3C6D3AB96E40E0BE527D746185400000000000000000A0C54AA3AAD05340E0BE527D74618540000000000000000000000000000000000000000000000000000000000000F03F0C0000001300000011
310
2700000C0000001300000001000000880000001D00000006F4AD3FF7BF08401E65E695726C0F400000000000000000B43B388C1F7982401E65E695726C0FC006F4AD3FF7BF08400000000000000000C54CFF746170834000000000000000000000000000000000000000000000144000000000000000000000000000000000
310
00000000000000000000000000000000000000000000F03F0C00000012000000FE7F00000C000000140000000100000035000000210000002600000005008000000000000E03F40902000000000000D0BF0000000000000000C00000000000340FC50000000C00000014000000020000005400000020000000020000000000
310
00000000E0BF00000000000000000000000000000000000000000000F0BF0000000000000000000000000000000000000000000000000000000000000000000000000000F03F080000001F000000880000001D000000000000000000F03F000000000000000000000000000000000000000000000000000000000000000000
310
0000000000F03F0000000000000000000000000000000000000000000000000000000000000000000000000000F03F0000000000000000000000000000000000000000000000000000000000000000000000000000F03F080000001F0000000C00000013000000891300000C00000012000000FF7F00005400000020000000
310
02000000C08DF8945F6082402A3395E7CD8F83400000000000000000C4E1051F9EF18040E0BE527D74618540000000000000000000000000000000000000000000000000000000000000F03F0C0000001300000011270000540000002000000002000000C4E1051F9EF18040E0BE527D746185400000000000000000709C3C
310
6D3AB96E40E0BE527D74618540000000000000000000000000000000000000000000000000000000000000F03F
100
AcDbMLeader
270
     2
300
CONTEXT_DATA{
 40
1.0
 10
74.26041490842772
 20
684.1818796600819
 30
0.0
 41
12.5
140
5.0
145
5.0
174
     5
175
     5
176
     0
177
     0
290
     1
304
{\C241;Tile batten 50x40mm}
 11
0.0
 21
0.0
 31
1.0
340
537
 12
79.26041490842772
 22
700.8485463267485
 32
0.0
 13
1.0
 23
0.0
 33
0.0
 42
0.0
 43
0.0
 44
0.0
 45
0.9600000000000001
170
     2
 90
-1023409921
171
     1
172
     5
 91
-939524096
141
1.5
 92
        0
291
     0
292
     0
173
     0
293
     0
142
0.0
143
0.0
294
     0
295
     0
296
     0
110
581.7549836573403
120
667.1469196636168
130
0.0
111
1.0
121
0.0
131
0.0
112
0.0
122
1.0
132
0.0
297
     0
302
LEADER{
290
     1
291
     1
 10
542.2022076091312
 20
684.1818796600819
 30
0.0
 11
-1.0
 21
0.0
 31
0.0
 90
        0
 40
296.413825442859
304
LEADER_LINE{
 10
591.1404041665287
 20
622.0475864358237
 30
0.0
 91
        0
 92
-1056964608
305
}
271
     0
303
}
272
     9
273
     9
301
}
340
D8
 90
856161279
170
     1
 91
-1023410173
341
14
171
    -2
290
     1
291
     1
 41
296.413825442859
342
639
 42
5.0
172
     2
343
537
173
     5
 95
        5
174
     1
175
     0
 92
-1023409921
292
     0
 93
-1056964608
 10
1.0
 20
1.0
 30
1.0
 43
0.0
176
     0
293
     0
294
     0
178
     0
179
     1
 45
1.0
271
     0
272
     9
273
     9
295
     1
  0
MULTILEADER
  5
2FD5
330
1F
100
AcDbEntity
  8
0
370
    -3
160
              1089
310
41040000160000000C00000013000000993A00000C0000000E000000F100000004010000260000001468E3076E9E5340EDA0BFD30D118440000000000000000000000000000000000000000000000000000000000000F03F000000000000F03F0000000000000000000000000000000052006F006F00660069006E00670020
310
0055006E006400650072006C00610079002000280055006E006400650072002000420061007400740065006E0073002900000000002000000001000000FFFFFFFFFFFF2840000000000000F03F0000000000000000000000000000F03F00000000000000000000000000000000000000000000000000000000000000002200
310
000041007200690061006C00000061007200690061006C002E007400740066000000000000000C000000130000009A3A00000C0000000E0000000300000054000000200000000200000088A344551B9E7540984B6A7EB8EF83400000000000000000A02377B549F65340984B6A7EB8EF834000000000000000000000000000
310
0000000000000000000000000000000000F03F0C00000013000000112700000C0000001300000001000000880000001D0000008C2398AFA52C08406E8F70DE52DE0F400000000000000000684260380ABC7B406E8F70DE52DE0FC08C2398AFA52C08400000000000000000C5B543C527D58040000000000000000000000000
310
0000000000000000000014400000000000000000000000000000000000000000000000000000000000000000000000000000F03F0C00000012000000FE7F00000C000000140000000100000035000000210000002600000005008000000000000E03F40902000000000000D0BF0000000000000000C00000000000340FC500
310
00000C0000001400000002000000540000002000000002000000000000000000E0BF00000000000000000000000000000000000000000000F0BF0000000000000000000000000000000000000000000000000000000000000000000000000000F03F080000001F000000880000001D000000000000000000F03F0000000000
310
000000000000000000000000000000000000000000000000000000000000000000F03F0000000000000000000000000000000000000000000000000000000000000000000000000000F03F0000000000000000000000000000000000000000000000000000000000000000000000000000F03F080000001F0000000C000000
310
13000000891300000C00000012000000FF7F0000540000002000000002000000211201EDB08B7B405426221806F580400000000000000000F83A0E5493067740984B6A7EB8EF8340000000000000000000000000000000000000000000000000000000000000F03F0C00000013000000112700005400000020000000020000
310
00F83A0E5493067740984B6A7EB8EF8340000000000000000088A344551B9E7540984B6A7EB8EF8340000000000000000000000000000000000000000000000000000000000000F03F
100
AcDbMLeader
270
     2
300
CONTEXT_DATA{
 40
1.0
 10
74.84824883112606
 20
637.9650848678893
 30
0.0
 41
12.5
140
5.0
145
5.0
174
     5
175
     5
176
     0
177
     0
290
     1
304
{\C241;Roofing Underlay (Under Battens)}
 11
0.0
 21
0.0
 31
1.0
340
537
 12
79.84824883112606
 22
654.631751534556
 32
0.0
 13
1.0
 23
0.0
 33
0.0
 42
0.0
 43
0.0
 44
0.0
 45
0.9600000000000001
170
     2
 90
-1023409921
171
     1
172
     5
 91
-939524096
141
1.5
 92
        0
291
     0
292
     0
173
     0
293
     0
142
0.0
143
0.0
294
     0
295
     0
296
     0
110
407.9637448817398
120
620.9301248714243
130
0.0
111
1.0
121
0.0
131
0.0
112
0.0
122
1.0
132
0.0
297
     0
302
LEADER{
290
     1
291
     1
 10
368.4109688335298
 20
637.9650848678893
 30
0.0
 11
-1.0
 21
0.0
 31
0.0
 90
        0
 40
22.52929571863842
304
LEADER_LINE{
 10
443.7524951706059
 20
538.6444192209098
 30
0.0
 91
        0
 92
-1056964608
305
}
271
     0
303
}
272
     9
273
     9
301
}
340
D8
 90
856161279
170
     1
 91
-1023410173
341
14
171
    -2
290
     1
291
     1
 41
22.52929571863842
342
639
 42
5.0
172
     2
343
537
173
     5
 95
        5
174
     1
175
     0
 92
-1023409921
292
     0
 93
-1056964608
 10
1.0
 20
1.0
 30
1.0
 43
0.0
176
     0
293
     0
294
     0
178
     0
179
     1
 45
1.0
271
     0
272
     9
273
     9
295
     1
  0
MULTILEADER
  5
2FD6
330
1F
100
AcDbEntity
  8
0
370
    -3
160
              1325
310
2D050000170000000C00000013000000993A00000C0000000E000000F1000000E000000026000000EB664646EDBA53407D8FA42DD9518B40000000000000000000000000000000000000000000000000000000000000F03F000000000000F03F00000000000000000000000000000000310033003100200042006100720072
310
0065006C0020005400720069006D0000000F00000001000000FFFFFFFFFFFF2840000000000000F03F0000000000000000000000000000F03F00000000000000000000000000000000000000000000000000000000000000002200000041007200690061006C00000061007200690061006C002E0074007400660000000000
310
000010010000260000004E109E8FF3F053407D8FA42DD9B18A40000000000000000000000000000000000000000000000000000000000000F03F000000000000F03F0000000000000000000000000000000028004D0069006E002E00200063006F0076006500720020006F0066002000740069006C0065002000330035006D
310
006D00200061007400200061006E007900200070006F0069006E0074002900000000002600000001000000FFFFFFFFFFFF2840000000000000F03F0000000000000000000000000000F03F00000000000000000000000000000000000000000000000000000000000000002200000041007200690061006C00000061007200
310
690061006C002E007400740066000000000000000C000000130000009A3A00000C0000000E000000030000005400000020000000020000008C78FC7775367740283A4FD883908A400000000000000000A03416589E345440283A4FD883908A40000000000000000000000000000000000000000000000000000000000000F0
310
3F0C00000013000000112700000C0000001300000001000000880000001D0000001E44F91956D9054056593C2BB6C01040000000000000000094FF303F36EF8C4056593C2BB6C010C01E44F91956D9054000000000000000000D81ECE355E78840000000000000000000000000000000000000000000001440000000000000
310
0000000000000000000000000000000000000000000000000000000000000000F03F0C00000012000000FE7F00000C000000140000000100000035000000210000002600000005008000000000000E03F40902000000000000D0BF0000000000000000C00000000000340FC50000000C000000140000000200000054000000
310
2000000002000000000000000000E0BF00000000000000000000000000000000000000000000F0BF0000000000000000000000000000000000000000000000000000000000000000000000000000F03F080000001F000000880000001D000000000000000000F03F0000000000000000000000000000000000000000000000
310
000000000000000000000000000000F03F0000000000000000000000000000000000000000000000000000000000000000000000000000F03F0000000000000000000000000000000000000000000000000000000000000000000000000000F03F080000001F0000000C00000013000000891300000C00000012000000FF7F
310
0000540000002000000002000000500617E95CD98C40C0F94250D708894000000000000000001E8E14D1F3D98B40283A4FD883908A40000000000000000000000000000000000000000000000000000000000000F03F0C00000013000000112700005400000020000000020000001E8E14D1F3D98B40283A4FD883908A4000
310
000000000000008C78FC7775367740283A4FD883908A40000000000000000000000000000000000000000000000000000000000000F03F
100
AcDbMLeader
270
     2
300
CONTEXT_DATA{
 40
1.0
 10
75.822164556203
 20
850.0643774213431
 30
0.0
 41
12.5
140
5.0
145
5.0
174
     5
175
     5
176
     0
177
     0
290
     1
304
{\C241;131 Barrel Trim \P(Min. cover of tile 35mm at any point)}
 11
0.0
 21
0.0
 31
1.0
340
537
 12
80.822164556203
 22
886.7310440880098
 32
0.0
 13
1.0
 23
0.0
 33
0.0
 42
0.0
 43
0.0
 44
0.0
 45
0.9600000000000001
170
     2
 90
-1023409921
171
     1
172
     5
 91
-939524096
141
1.5
 92
        0
291
     0
292
     0
173
     0
293
     0
142
0.0
143
0.0
294
     0
295
     0
296
     0
110
930.7968271809718
120
833.029417424878
130
0.0
111
1.0
121
0.0
131
0.0
112
0.0
122
1.0
132
0.0
297
     0
302
LEADER{
290
     1
291
     1
 10
891.244051132762
 20
850.0643774213431
 30
0.0
 11
-1.0
 21
0.0
 31
0.0
 90
        0
 40
519.840372251866
304
LEADER_LINE{
 10
925.90148771553
 20
796.9169386364825
 30
0.0
 91
        0
 92
-1056964608
305
}
271
     0
303
}
272
     9
273
     9
301
}
340
D8
 90
856161279
170
     1
 91
-1023410173
341
14
171
    -2
290
     1
291
     1
 41
519.840372251866
342
639
 42
5.0
172
     2
343
537
173
     5
 95
        5
174
     1
175
     0
 92
-1023409921
292
     0
 93
-1056964608
 10
1.0
 20
1.0
 30
1.0
 43
0.0
176
     0
293
     0
294
     0
178
     0
179
     1
 45
1.0
271
     0
272
     9
273
     9
295
     1
  0
MULTILEADER
  5
2FD7
330
1F
100
AcDbEntity
  8
0
370
    -3
160
              1037
310
0D040000160000000C00000013000000993A00000C0000000E000000F1000000D00000002600000014402EB7574554404D5109F2DEEC8140000000000000000000000000000000000000000000000000000000000000F03F000000000000F03F00000000000000000000000000000000520061006600740065007200000000
310
000600000001000000FFFFFFFFFFFF2840000000000000F03F0000000000000000000000000000F03F00000000000000000000000000000000000000000000000000000000000000002200000041007200690061006C00000061007200690061006C002E007400740066000000000000000C000000130000009A3A00000C00
310
00000E00000003000000540000002000000002000000C08EB6B900BC6040F8FBB39C89CB81400000000000000000A0FBC164339D5440F8FBB39C89CB8140000000000000000000000000000000000000000000000000000000000000F03F0C00000013000000112700000C0000001300000001000000880000001D0000002D
310
2398AFA52C0840B78F70DE52DE0F40000000000000000020109FF2456B7840B78F70DE52DE0FC02D2398AFA52C08400000000000000000CA069883029F7F400000000000000000000000000000000000000000000014400000000000000000000000000000000000000000000000000000000000000000000000000000F03F
310
0C00000012000000FE7F00000C000000140000000100000035000000210000002600000005008000000000000E03F40902000000000000D0BF0000000000000000C00000000000340FC50000000C0000001400000002000000540000002000000002000000000000000000E0BF000000000000000000000000000000000000
310
00000000F0BF0000000000000000000000000000000000000000000000000000000000000000000000000000F03F080000001F000000880000001D000000000000000000F03F0000000000000000000000000000000000000000000000000000000000000000000000000000F03F0000000000000000000000000000000000
310
000000000000000000000000000000000000000000F03F0000000000000000000000000000000000000000000000000000000000000000000000000000F03F080000001F0000000C00000013000000891300000C00000012000000FF7F0000540000002000000002000000DADF3FA7EC3A7840E9E75429BFDE7F4000000000
310
00000000501206A584687540F8FBB39C89CB8140000000000000000000000000000000000000000000000000000000000000F03F0C0000001300000011270000540000002000000002000000501206A584687540F8FBB39C89CB81400000000000000000C08EB6B900BC6040F8FBB39C89CB81400000000000000000000000
310
00000000000000000000000000000000000000F03F
100
AcDbMLeader
270
     2
300
CONTEXT_DATA{
 40
1.0
 10
77.45626181548732
 20
569.4421934186239
 30
0.0
 41
12.5
140
5.0
145
5.0
174
     5
175
     5
176
     0
177
     0
290
     1
304
{\C241;Rafter}
 11
0.0
 21
0.0
 31
1.0
340
537
 12
82.45626181548732
 22
586.1088600852905
 32
0.0
 13
1.0
 23
0.0
 33
0.0
 42
0.0
 43
0.0
 44
0.0
 45
0.9600000000000001
170
     2
 90
-1023409921
171
     1
172
     5
 91
-939524096
141
1.5
 92
        0
291
     0
292
     0
173
     0
293
     0
142
0.0
143
0.0
294
     0
295
     0
296
     0
110
382.0851599895891
120
552.4072334221588
130
0.0
111
1.0
121
0.0
131
0.0
112
0.0
122
1.0
132
0.0
297
     0
302
LEADER{
290
     1
291
     1
 10
342.5323839413804
 20
569.4421934186239
 30
0.0
 11
-1.0
 21
0.0
 31
0.0
 90
        0
 40
208.6572953864661
304
LEADER_LINE{
 10
390.7045770848654
 20
505.9381137789284
 30
0.0
 91
        0
 92
-1056964608
305
}
271
     0
303
}
272
     9
273
     9
301
}
340
D8
 90
856161279
170
     1
 91
-1023410173
341
14
171
    -2
290
     1
291
     1
 41
208.6572953864661
342
639
 42
5.0
172
     2
343
537
173
     5
 95
        5
174
     1
175
     0
 92
-1023409921
292
     0
 93
-1056964608
 10
1.0
 20
1.0
 30
1.0
 43
0.0
176
     0
293
     0
294
     0
178
     0
179
     1
 45
1.0
271
     0
272
     9
273
     9
295
     1
  0
LINE
  5
2FD8
330
1F
100
AcDbEntity
  8
0
  6
XAR-1873-FP03-17_off$0$HIDDEN
 62
     8
100
AcDbLine
 10
901.7063344600706
 20
778.2275597193471
 30
0.0
 11
852.4971880026155
 21
762.0103387058849
 31
0.0
1001
REVIT
1002
{
1070
     3
1000
541600
1002
}
  0
LINE
  5
2FD9
330
1F
100
AcDbEntity
  8
0
 62
    24
100
AcDbLine
 10
872.7896453264534
 20
728.151076167365
 30
0.0
 11
878.2931020886485
 21
729.9647791286167
 31
0.0
1001
REVIT
1002
{
1070
     3
1000
541600
1002
}
  0
LINE
  5
2FDA
330
1F
100
AcDbEntity
  8
0
 62
    24
100
AcDbLine
 10
860.5914672406238
 20
768.8219004033014
 30
0.0
 11
875.8543799816639
 21
722.5084840776577
 31
0.0
1001
ACAD
1000
DSTYLE
1002
{
1070
   347
1005
51D
1070
   346
1005
51D
1070
   345
1005
0
1070
   340
1005
521
1070
   341
1005
522
1070
   140
1040
10.0
1002
}
  0
INSERT
  5
2FDB
330
1F
100
AcDbEntity
  8
0
 62
    24
100
AcDbBlockReference
  2
_OBLIQUE
 10
861.8233689624708
 20
765.0838473668861
 30
0.0
 41
5.0
 42
5.0
 43
5.0
 50
108.2399999999982
1001
ACAD
1000
DSTYLE
1002
{
1070
   347
1005
51D
1070
   346
1005
51D
1070
   345
1005
0
1070
   340
1005
521
1070
   341
1005
522
1070
   140
1040
10.0
1002
}
  0
INSERT
  5
2FDC
330
1F
100
AcDbEntity
  8
0
 62
    24
100
AcDbBlockReference
  2
_OBLIQUE
 10
873.7716874040948
 20
728.5623225123114
 30
0.0
 41
5.0
 42
5.0
 43
5.0
 50
288.2399999999982
1001
ACAD
1000
DSTYLE
1002
{
1070
   347
1005
51D
1070
   346
1005
51D
1070
   345
1005
0
1070
   340
1005
521
1070
   341
1005
522
1070
   140
1040
10.0
1002
}
  0
CIRCLE
  5
2FDD
330
1F
100
AcDbEntity
  8
_circles
100
AcDbCircle
 10
916.1345899311186
 20
739.673153418165
 30
0.0
 40
0.5
1001
REVIT
1002
{
1070
     3
1000
548272
1002
}
  0
ARC
  5
2FDE
330
1F
100
AcDbEntity
  8
_lines
100
AcDbCircle
 10
914.8669808027939
 20
740.8246480480799
 30
0.0
 40
1.0
100
AcDbArc
 50
287.3577096565068
 51
18.23999999998269
  0
INSERT
  5
2FDF
330
1F
100
AcDbEntity
  8
GE FLASHING
 62
     1
 48
0.5
370
    -3
100
AcDbBlockReference
  2
G$C165DBF54
 10
206.3642865099123
 20
487.3958754141155
 30
0.0
 50
353.2150042791951
  0
CIRCLE
  5
2FE0
330
1F
100
AcDbEntity
  8
GE FLASHING
 62
     1
 48
0.5
370
    -3
100
AcDbCircle
 10
214.9354242698632
 20
507.7753113095956
 30
0.0
 40
0.4999999999999999
1001
REVIT
1002
{
1070
     3
1000
548272
1002
}
  0
LWPOLYLINE
  5
2FE1
330
1F
100
AcDbEntity
  8
GE FLASHING
 62
     1
 48
0.5
370
    -3
100
AcDbPolyline
 90
        6
 70
     0
 43
0.55
 10
131.4401130612628
 20
461.6726338178911
 10
215.2778493954888
 20
481.1537637631351
 42
0.4193666086212307
 10
218.9957860189411
 20
487.2410436773649
 10
214.0272839995109
 20
507.0929225287697
 42
-0.4077765970010953
 10
217.9795779961992
 20
512.8616405088029
 10
237.5982290748821
 20
516.751577348197
  0
MULTILEADER
  5
2FE2
330
1F
100
AcDbEntity
  8
0
370
    -3
160
              1049
310
19040000160000000C00000013000000993A00000C0000000E000000F1000000DC00000026000000EDE8D5CF74948B405A676FCB39BB7540000000000000000000000000000000000000000000000000000000000000F03F000000000000F03F00000000000000000000000000000000570061006C006C00200043006C0061
310
006400640069006E00670000000D00000001000000FFFFFFFFFFFF2840000000000000F03F0000000000000000000000000000F03F00000000000000000000000000000000000000000000000000000000000000002200000041007200690061006C00000061007200690061006C002E007400740066000000000000000C00
310
0000130000009A3A00000C0000000E000000030000005400000020000000020000004BF8B95F296E8B40AFBCC4208F7875400000000000000000D45B79ECFAE88E40AFBCC4208F787540000000000000000000000000000000000000000000000000000000000000F03F0C00000013000000112700000C0000001300000001
310
000000880000001D00000092AF70604F7909C01AE82F3FF1D60E40000000000000000014166AE9802889401AE82F3FF1D60EC092AF70604F7909C000000000000000001A9577B8A57C724000000000000000000000000000000000000000000000144000000000000000000000000000000000000000000000000000000000
310
00000000000000000000F03F0C00000012000000FE7F00000C000000140000000100000035000000210000002600000005008000000000000E03F40902000000000000D0BF0000000000000000C00000000000340FC50000000C0000001400000002000000540000002000000002000000000000000000E0BF000000000000
310
00000000000000000000000000000000F0BF0000000000000000000000000000000000000000000000000000000000000000000000000000F03F080000001F000000880000001D000000000000000000F03F0000000000000000000000000000000000000000000000000000000000000000000000000000F03F0000000000
310
000000000000000000000000000000000000000000000000000000000000000000F03F0000000000000000000000000000000000000000000000000000000000000000000000000000F03F080000001F0000000C00000013000000891300000C00000012000000FF7F0000540000002000000002000000C486CA38FA418940
310
EAF4F59A53BA7240000000000000000067D4DBDB00648A40AFBCC4208F787540000000000000000000000000000000000000000000000000000000000000F03F0C000000130000001127000054000000200000000200000067D4DBDB00648A40AFBCC4208F78754000000000000000004BF8B95F296E8B40AFBCC4208F7875
310
40000000000000000000000000000000000000000000000000000000000000F03F
100
AcDbMLeader
270
     2
300
CONTEXT_DATA{
 40
1.0
 10
877.7702021149538
 20
343.5349433598557
 30
0.0
 41
12.5
140
5.0
145
5.0
174
     5
175
     5
176
     2
177
     0
290
     1
304
{\C241;Wall Cladding}
 11
0.0
 21
0.0
 31
1.0
340
537
 12
989.1225213509701
 22
360.2016100265224
 32
0.0
 13
1.0
 23
0.0
 33
0.0
 42
0.0
 43
0.0
 44
0.0
 45
0.9600000000000001
170
     2
 90
-1023409921
171
     3
172
     5
 91
-939524096
141
1.5
 92
        0
291
     0
292
     0
173
     0
293
     0
142
0.0
143
0.0
294
     0
295
     0
296
     0
110
804.9476432989964
120
326.4999833633907
130
0.0
111
1.0
121
0.0
131
0.0
112
0.0
122
1.0
132
0.0
297
     0
302
LEADER{
290
     1
291
     1
 10
844.5004193472095
 20
343.5349433598557
 30
0.0
 11
1.0
 21
0.0
 31
0.0
 90
        0
 40
33.26978276774435
304
LEADER_LINE{
 10
805.0629452026355
 20
295.7904591246785
 30
0.0
 91
        0
 92
-1056964608
305
}
271
     0
303
}
272
     9
273
     9
301
}
340
D8
 90
856161279
170
     1
 91
-1023410173
341
14
171
    -2
290
     1
291
     1
 41
33.26978276774435
342
639
 42
5.0
172
     2
343
537
173
     5
 95
        5
174
     1
175
     2
 92
-1023409921
292
     0
 93
-1056964608
 10
1.0
 20
1.0
 30
1.0
 43
0.0
176
     0
293
     0
294
     0
178
     0
179
     1
 45
1.0
271
     0
272
     9
273
     9
295
     1
  0
MULTILEADER
  5
2FE3
330
1F
100
AcDbEntity
  8
0
370
    -3
160
              1049
310
19040000160000000C00000013000000993A00000C0000000E000000F1000000DC00000026000000FAE28B42F22E8C40EA62284A55EE7C40000000000000000000000000000000000000000000000000000000000000F03F000000000000F03F0000000000000000000000000000000053006F00660066006900740020006C
310
0069006E0069006E00670000000D00000001000000FFFFFFFFFFFF2840000000000000F03F0000000000000000000000000000F03F00000000000000000000000000000000000000000000000000000000000000002200000041007200690061006C00000061007200690061006C002E007400740066000000000000000C00
310
0000130000009A3A00000C0000000E0000000300000054000000200000000200000016DEF1CE380D8C403FB87D9FAAAB7C400000000000000000B44ACF0DF5D08E403FB87D9FAAAB7C40000000000000000000000000000000000000000000000000000000000000F03F0C00000013000000112700000C0000001300000001
310
000000880000001D00000024AF70604F7909C075E82F3FF1D60EC0000000000000000014166AE98028894075E82F3FF1D60E4024AF70604F7909C00000000000000000CADFCA0794A77F4000000000000000000000000000000000000000000000144000000000000000000000000000000000000000000000000000000000
310
00000000000000000000F03F0C00000012000000FE7F00000C000000140000000100000035000000210000002600000005008000000000000E03F40902000000000000D0BF0000000000000000C00000000000340FC50000000C0000001400000002000000540000002000000002000000000000000000E0BF000000000000
310
00000000000000000000000000000000F0BF0000000000000000000000000000000000000000000000000000000000000000000000000000F03F080000001F000000880000001D000000000000000000F03F0000000000000000000000000000000000000000000000000000000000000000000000000000F03F0000000000
310
000000000000000000000000000000000000000000000000000000000000000000F03F0000000000000000000000000000000000000000000000000000000000000000000000000000F03F080000001F0000000C00000013000000891300000C00000012000000FF7F0000540000002000000002000000C386CA38FA418940
310
F97F4C25E6697F4000000000000000005AD4DBDB00648A403FB87D9FAAAB7C40000000000000000000000000000000000000000000000000000000000000F03F0C00000013000000112700005400000020000000020000005AD4DBDB00648A403FB87D9FAAAB7C40000000000000000016DEF1CE380D8C403FB87D9FAAAB7C
310
40000000000000000000000000000000000000000000000000000000000000F03F
100
AcDbMLeader
270
     2
300
CONTEXT_DATA{
 40
1.0
 10
897.6527384658718
 20
458.7291560088087
 30
0.0
 41
12.5
140
5.0
145
5.0
174
     5
175
     5
176
     2
177
     0
290
     1
304
{\C241;Soffit lining}
 11
0.0
 21
0.0
 31
1.0
340
537
 12
986.1196552462266
 22
475.3958226754754
 32
0.0
 13
1.0
 23
0.0
 33
0.0
 42
0.0
 43
0.0
 44
0.0
 45
0.9600000000000001
170
     2
 90
-1023409921
171
     3
172
     5
 91
-939524096
141
1.5
 92
        0
291
     0
292
     0
173
     0
293
     0
142
0.0
143
0.0
294
     0
295
     0
296
     0
110
804.9476432989964
120
475.7641160052732
130
0.0
111
1.0
121
0.0
131
0.0
112
0.0
122
1.0
132
0.0
297
     0
302
LEADER{
290
     1
291
     1
 10
844.500419347208
 20
458.7291560088087
 30
0.0
 11
1.0
 21
0.0
 31
0.0
 90
        0
 40
53.15231911866385
304
LEADER_LINE{
 10
805.0629452026355
 20
506.4736402439854
 30
0.0
 91
        0
 92
-1056964608
305
}
271
     0
303
}
272
     9
273
     9
301
}
340
D8
 90
856161279
170
     1
 91
-1023410173
341
14
171
    -2
290
     1
291
     1
 41
53.15231911866385
342
639
 42
5.0
172
     2
343
537
173
     5
 95
        5
174
     1
175
     2
 92
-1023409921
292
     0
 93
-1056964608
 10
1.0
 20
1.0
 30
1.0
 43
0.0
176
     0
293
     0
294
     0
178
     0
179
     1
 45
1.0
271
     0
272
     9
273
     9
295
     1
  0
LWPOLYLINE
  5
2FE4
330
1F
100
AcDbEntity
  8
GE FLASHING
 62
     1
 48
0.5
370
    -3
100
AcDbPolyline
 90
        5
 70
     0
 43
0.55
 10
975.391108557908
 20
659.2140338284131
 10
998.0941682764119
 20
683.4918190644972
 42
0.22154304650021
 10
1009.30950908923
 20
743.6814942258503
 42
0.5144661807991833
 10
899.2473361362195
 20
786.2018289551767
 10
909.3057385678608
 20
753.4693712273989
  0
MULTILEADER
  5
2FE5
330
1F
100
AcDbEntity
  8
0
370
    -3
160
              1057
310
21040000160000000C00000013000000993A00000C0000000E000000F1000000E4000000260000002ABB81F0AD1D53405560A2DA50848640000000000000000000000000000000000000000000000000000000000000F03F000000000000F03F00000000000000000000000000000000470065007200610072006400200052
310
006F006F0066002000540069006C006500000000001000000001000000FFFFFFFFFFFF2840000000000000F03F0000000000000000000000000000F03F00000000000000000000000000000000000000000000000000000000000000002200000041007200690061006C00000061007200690061006C002E00740074006600
310
0000000000000C000000130000009A3A00000C0000000E00000003000000540000002000000002000000D0CC30FE113A6A40000B4D85FB628640000000000000000020FC7F3929595340000B4D85FB628640000000000000000000000000000000000000000000000000000000000000F03F0C00000013000000112700000C
310
0000001300000001000000880000001D0000009FAE70604F790940E2E82F3FF1D60E400000000000000000B4C18BAD6B5F8540E2E82F3FF1D60EC09FAE70604F7909400000000000000000357726D106E584400000000000000000000000000000000000000000000014400000000000000000000000000000000000000000
310
000000000000000000000000000000000000F03F0C00000012000000FE7F00000C000000140000000100000035000000210000002600000005008000000000000E03F40902000000000000D0BF0000000000000000C00000000000340FC50000000C0000001400000002000000540000002000000002000000000000000000
310
E0BF00000000000000000000000000000000000000000000F0BF0000000000000000000000000000000000000000000000000000000000000000000000000000F03F080000001F000000880000001D000000000000000000F03F00000000000000000000000000000000000000000000000000000000000000000000000000
310
00F03F0000000000000000000000000000000000000000000000000000000000000000000000000000F03F0000000000000000000000000000000000000000000000000000000000000000000000000000F03F080000001F0000000C00000013000000891300000C00000012000000FF7F0000540000002000000002000000
310
05512B5EF24585401EA765C2DD038540000000000000000074031ABBEB238440000B4D85FB628640000000000000000000000000000000000000000000000000000000000000F03F0C000000130000001127000054000000200000000200000074031ABBEB238440000B4D85FB6286400000000000000000D0CC30FE113A6A
310
40000B4D85FB628640000000000000000000000000000000000000000000000000000000000000F03F
100
AcDbMLeader
270
     2
300
CONTEXT_DATA{
 40
1.0
 10
72.39314115046045
 20
716.372812845133
 30
0.0
 41
12.5
140
5.0
145
5.0
174
     5
175
     5
176
     0
177
     0
290
     1
304
{\C241;Gerard Roof Tile}
 11
0.0
 21
0.0
 31
1.0
340
537
 12
77.39314115046045
 22
733.0394795117996
 32
0.0
 13
1.0
 23
0.0
 33
0.0
 42
0.0
 43
0.0
 44
0.0
 45
0.9600000000000001
170
     2
 90
-1023409921
171
     1
172
     5
 91
-939524096
141
1.5
 92
        0
291
     0
292
     0
173
     0
293
     0
142
0.0
143
0.0
294
     0
295
     0
296
     0
110
684.0428790099709
120
699.3378528486679
130
0.0
111
1.0
121
0.0
131
0.0
112
0.0
122
1.0
132
0.0
297
     0
302
LEADER{
290
     1
291
     1
 10
644.4901029617599
 20
716.372812845133
 30
0.0
 11
-1.0
 21
0.0
 31
0.0
 90
        0
 40
434.6754065589121
304
LEADER_LINE{
 10
683.9275771063317
 20
668.6283286099557
 30
0.0
 91
        0
 92
-1056964608
305
}
271
     0
303
}
272
     9
273
     9
301
}
340
D8
 90
856161279
170
     1
 91
-1023410173
341
14
171
    -2
290
     1
291
     1
 41
434.6754065589121
342
639
 42
5.0
172
     2
343
537
173
     5
 95
        5
174
     1
175
     0
 92
-1023409921
292
     0
 93
-1056964608
 10
1.0
 20
1.0
 30
1.0
 43
0.0
176
     0
293
     0
294
     0
178
     0
179
     1
 45
1.0
271
     0
272
     9
273
     9
295
     1
  0
LWPOLYLINE
  5
2FE6
330
1F
100
AcDbEntity
  8
GE FLASHING
 62
     1
 48
0.5
370
    -3
100
AcDbPolyline
 90
        2
 70
     0
 43
0.0
 10
916.854840309998
 20
741.1764741176254
 10
904.6527737512574
 20
778.2021322050456
  0
LWPOLYLINE
  5
2FE7
330
1F
100
AcDbEntity
  8
GE FLASHING
 62
     1
 48
0.5
370
    -3
100
AcDbPolyline
 90
        2
 70
     0
 43
0.0
 10
916.2034229214682
 20
739.9090152773921
 10
562.8199377660444
 20
629.4517280029191
  0
LWPOLYLINE
  5
2FE8
330
1F
100
AcDbEntity
  8
GE FLASHING
 62
     1
 48
0.5
370
    -3
100
AcDbPolyline
 90
        2
 70
     0
 43
0.0
 10
561.4025064051698
 20
623.9191317342107
 10
566.6935386202408
 20
602.8743971828468
  0
LWPOLYLINE
  5
2FE9
330
1F
100
AcDbEntity
  8
GE FLASHING
 62
     1
 48
0.5
370
    -3
100
AcDbPolyline
 90
        2
 70
     0
 43
0.0
 10
916.2034229214682
 20
739.9090152773921
 42
0.4187310132668873
 10
916.854840309998
 20
741.1764741176254
  0
LWPOLYLINE
  5
2FEA
330
1F
100
AcDbEntity
  8
GE FLASHING
 62
     1
 48
0.5
370
    -3
100
AcDbPolyline
 90
        2
 70
     0
 43
0.0
 10
562.8199377660444
 20
629.4517280029191
 42
0.2538060191108138
 10
561.4025064051702
 20
623.9191317342107
  0
LWPOLYLINE
  5
3015
330
1F
100
AcDbEntity
  8
0
  6
Dash
 62
     8
 48
0.1
370
    18
100
AcDbPolyline
 90
        9
 70
     1
 43
0.0
 10
923.7743600963945
 20
667.5114832348296
 10
902.1943543923858
 20
734.280162032385
 10
899.8275221417057
 20
733.5147665364153
 10
899.5198271734575
 20
734.4662515896422
 10
907.084403849833
 20
736.9125140636094
 10
907.3920988180776
 20
735.9610290103825
 10
905.0488095892993
 20
735.2032469491711
 10
926.6633149632239
 20
668.3278259472478
 10
927.1781974314968
 20
661.8573822395289
  0
LWPOLYLINE
  5
3016
330
1F
100
AcDbEntity
  8
0
  6
Dash
 62
     8
 48
0.1
370
    18
100
AcDbPolyline
 90
        9
 70
     1
 43
0.0
 10
951.1195908920513
 20
676.5232967573598
 10
928.7745122313522
 20
743.0398403702344
 10
931.1326577738969
 20
743.8315946050094
 10
930.8143663867472
 20
744.7795875337102
 10
923.2775530931526
 20
742.2490805169633
 10
923.5958444803059
 20
741.3010875882652
 10
925.9305334081541
 20
742.0849661963317
 10
948.3113348507909
 20
675.4620834642761
 10
951.7442876886375
 20
669.9533104117705
  0
LWPOLYLINE
  5
3017
330
1F
100
AcDbEntity
  8
0
  6
Dash
 62
     8
 48
0.1
370
    18
100
AcDbPolyline
 90
        9
 70
     1
 43
0.0
 10
941.1256718083437
 20
715.4377277333184
 10
919.5456661043349
 20
782.2064065308738
 10
917.1788338536549
 20
781.4410110349041
 10
916.8711388854067
 20
782.392496088131
 10
924.4357155617822
 20
784.8387585620982
 10
924.7434105300267
 20
783.8872735088713
 10
922.4001213012484
 20
783.1294914476599
 10
944.0146266751731
 20
716.2540704457366
 10
944.5295091434459
 20
709.7836267380177
  0
LWPOLYLINE
  5
3018
330
1F
100
AcDbEntity
  8
0
  6
Dash
 62
     8
 48
0.1
370
    18
100
AcDbPolyline
 90
        9
 70
     1
 43
0.0
 10
952.6973536934292
 20
771.9239302025222
 10
909.7939422894924
 20
757.7967418415543
 10
910.5725292696784
 20
755.4342161840465
 10
909.6227755005466
 20
755.1212181360958
 10
907.1343520353221
 20
762.6720306117164
 10
908.0841058044548
 20
762.9850286596662
 10
908.8549481333998
 20
760.6460031861167
 10
951.8649076240954
 20
774.8082861424715
 10
958.3323783754972
 20
775.3592560242383
  0
LWPOLYLINE
  5
3019
330
1F
100
AcDbEntity
  8
0
  6
Dash
 62
     8
 48
0.1
370
    18
100
AcDbPolyline
 90
        9
 70
     1
 43
0.0
 10
947.67676142142
 20
778.8563511371955
 10
904.7733500174832
 20
764.7291627762276
 10
905.5519369976691
 20
762.3666371187197
 10
904.6021832285373
 20
762.053639070769
 10
902.1137597633128
 20
769.6044515463897
 10
903.0635135324455
 20
769.9174495943395
 10
903.8343558613906
 20
767.5784241207899
 10
946.8443153520861
 20
781.7407070771447
 10
953.311786103488
 20
782.2916769589116
  0
LWPOLYLINE
  5
301A
330
1F
100
AcDbEntity
  8
GE FLASHING
 62
     1
 48
0.5
370
    -3
100
AcDbPolyline
 90
        6
 70
     0
 43
0.39
 10
566.6935386202408
 20
602.8743971828468
 10
561.4025064051707
 20
623.9191317342107
 42
-0.2538060191106978
 10
562.8199377660453
 20
629.4517280029173
 10
916.2034229214682
 20
739.9090152773921
 42
0.4187310132675774
 10
916.854840309998
 20
741.1764741176254
 10
904.6527737512574
 20
778.2021322050456
  0
LWPOLYLINE
  5
301B
330
1F
100
AcDbEntity
  8
0
  6
Dash
 62
     8
 48
0.1
370
    18
100
AcDbPolyline
 90
        9
 70
     1
 43
0.0
 10
246.5351975576136
 20
444.3252623155619
 10
224.9551918536049
 20
511.0939411131172
 10
222.5883596029248
 20
510.3285456171476
 10
222.2806646346767
 20
511.2800306703745
 10
229.8452413110522
 20
513.7262931443416
 10
230.1529362792967
 20
512.7748080911148
 10
227.8096470505184
 20
512.0170260299034
 10
249.424152424443
 20
445.1416050279801
 10
249.9390348927159
 20
438.6711613202611
  0
LWPOLYLINE
  5
301C
330
1F
100
AcDbEntity
  8
0
  6
Dash
 62
     8
 48
0.1
370
    18
100
AcDbPolyline
 90
        9
 70
     1
 43
0.0
 10
273.8804283532704
 20
453.3370758380921
 10
251.5353496925713
 20
519.8536194509667
 10
253.893495235116
 20
520.6453736857417
 10
253.5752038479663
 20
521.5933666144425
 10
246.0383905543717
 20
519.0628595976956
 10
246.356681941525
 20
518.1148666689975
 10
248.6913708693733
 20
518.898745277064
 10
271.07217231201
 20
452.2758625450084
 10
274.5051251498567
 20
446.7670894925028
  0
LWPOLYLINE
  5
301D
330
1F
100
AcDbEntity
  8
0
  6
Dash
 62
     8
 48
0.1
370
    18
100
AcDbPolyline
 90
        9
 70
     1
 43
0.0
 10
256.6019409129863
 20
506.0967674287118
 10
212.9268796765796
 20
494.5742161887352
 10
213.5620381318327
 20
492.1691592445401
 10
212.5951864532203
 20
491.9138205840014
 10
210.5651715102417
 20
499.6005663008542
 10
211.532023188855
 20
499.855904961392
 10
212.1608636849792
 20
497.4747712624072
 10
255.9443899895809
 20
509.0259486163137
 10
262.4332854143036
 20
509.1871376291607
  0
LWPOLYLINE
  5
301E
330
1F
100
AcDbEntity
  8
0
  6
Dash
 62
     8
 48
0.1
370
    18
100
AcDbPolyline
 90
        9
 70
     1
 43
0.0
 10
597.9440921364799
 20
560.1345400564229
 10
576.3640864324711
 20
626.9032188539783
 10
573.997254181791
 20
626.1378233580086
 10
573.6895592135429
 20
627.0893084112355
 10
581.2541358899184
 20
629.5355708852027
 10
581.5618308581629
 20
628.5840858319758
 10
579.2185416293846
 20
627.8263037707644
 10
600.8330470033093
 20
560.9508827688411
 10
601.3479294715821
 20
554.4804390611222
  0
LWPOLYLINE
  5
301F
330
1F
100
AcDbEntity
  8
0
  6
Dash
 62
     8
 48
0.1
370
    18
100
AcDbPolyline
 90
        9
 70
     1
 43
0.0
 10
625.2893229321367
 20
569.1463535789532
 10
602.9442442714376
 20
635.6628971918277
 10
605.3023898139822
 20
636.4546514266027
 10
604.9840984268326
 20
637.4026443553036
 10
597.447285133238
 20
634.8721373385566
 10
597.7655765203913
 20
633.9241444098585
 10
600.1002654482395
 20
634.708023017925
 10
622.4810668908763
 20
568.0851402858694
 10
625.9140197287229
 20
562.5763672333638
  0
LWPOLYLINE
  5
3020
330
1F
100
AcDbEntity
  8
0
  6
Dash
 62
     8
 48
0.1
370
    18
100
AcDbPolyline
 90
        9
 70
     1
 43
0.0
 10
608.0108354918525
 20
621.9060451695728
 10
564.3357742554458
 20
610.3834939295963
 10
564.9709327106989
 20
607.9784369854011
 10
564.0040810320866
 20
607.7230983248625
 10
561.974066089108
 20
615.4098440417152
 10
562.9409177677212
 20
615.665182702253
 10
563.5697582638454
 20
613.2840490032683
 10
607.3532845684472
 20
624.8352263571747
 10
613.8421799931698
 20
624.9964153700217
  0
LWPOLYLINE
  5
3021
330
1F
100
AcDbEntity
  8
0
  6
Dash
 62
     8
 48
0.1
370
    18
100
AcDbPolyline
 90
        9
 70
     1
 43
0.0
 10
947.7710442405519
 20
694.1873198915451
 10
986.1788648119641
 20
670.4150780949482
 10
987.4874880721732
 20
672.5305521153365
 10
988.3379251533461
 20
672.0044753424542
 10
984.1554652474938
 20
665.2432587714362
 10
983.3050281663209
 20
665.7693355443204
 10
984.6006344727243
 20
667.8637668181533
 10
946.0974222631189
 20
691.6950387831408
 10
941.5166002337323
 20
696.2937141648068
  0
MULTILEADER
  5
3022
330
1F
100
AcDbEntity
  8
0
370
    -3
160
              1257
310
E9040000170000000C00000013000000993A00000C0000000E000000F1000000D0000000260000003A350B850C3F91408D27D58B42248140000000000000000000000000000000000000000000000000000000000000F03F000000000000F03F000000000000000000000000000000004200610072006700650020002F0000
310
000700000001000000FFFFFFFFFFFF2840000000000000F03F0000000000000000000000000000F03F00000000000000000000000000000000000000000000000000000000000000002200000041007200690061006C00000061007200690061006C002E00740074006600000000000000DC000000260000001D3AA5F8C589
310
90408D27D58B42848040000000000000000000000000000000000000000000000000000000000000F03F000000000000F03F00000000000000000000000000000000460061007300630069006100200042006F00610072006400000000000C00000001000000FFFFFFFFFFFF2840000000000000F03F000000000000000000
310
0000000000F03F00000000000000000000000000000000000000000000000000000000000000002200000041007200690061006C00000061007200690061006C002E007400740066000000000000000C000000130000009A3A00000C0000000E00000003000000540000002000000002000000DEF2E0D1807B904038D27F36
310
ED62804000000000000000001C0E3BE84020924038D27F36ED628040000000000000000000000000000000000000000000000000000000000000F03F0C00000013000000112700000C0000001300000001000000880000001D00000086051A3AC3E400C03C4210B0F52012C00000000000000000242660BD2B098E403C4210
310
B0F520124086051A3AC3E400C00000000000000000BD8558695C1D81400000000000000000000000000000000000000000000014400000000000000000000000000000000000000000000000000000000000000000000000000000F03F0C00000012000000FE7F00000C000000140000000100000035000000210000002600
310
000005008000000000000E03F40902000000000000D0BF0000000000000000C00000000000340FC50000000C0000001400000002000000540000002000000002000000000000000000E0BF00000000000000000000000000000000000000000000F0BF00000000000000000000000000000000000000000000000000000000
310
00000000000000000000F03F080000001F000000880000001D000000000000000000F03F0000000000000000000000000000000000000000000000000000000000000000000000000000F03F0000000000000000000000000000000000000000000000000000000000000000000000000000F03F0000000000000000000000
310
000000000000000000000000000000000000000000000000000000F03F080000001F0000000C00000013000000891300000C00000012000000FF7F00005400000020000000020000002A409A80101A8E403965F87D1AF9804000000000000000004470DB7709608E4038D27F36ED6280400000000000000000000000000000
310
00000000000000000000000000000000F03F0C00000013000000112700005400000020000000020000004470DB7709608E4038D27F36ED6280400000000000000000DEF2E0D1807B904038D27F36ED628040000000000000000000000000000000000000000000000000000000000000F03F
100
AcDbMLeader
270
     2
300
CONTEXT_DATA{
 40
1.0
 10
1054.875800623725
 20
524.3658266054181
 30
0.0
 41
12.5
140
5.0
145
5.0
174
     5
175
     5
176
     2
177
     0
290
     1
304
{\C241;Barge / \PFascia Board}
 11
0.0
 21
0.0
 31
1.0
340
537
 12
1160.063385889755
 22
561.0324932720847
 32
0.0
 13
1.0
 23
0.0
 33
0.0
 42
0.0
 43
0.0
 44
0.0
 45
0.9600000000000001
170
     2
 90
-1023409921
171
     3
172
     5
 91
-939524096
141
1.5
 92
        0
291
     0
292
     0
173
     0
293
     0
142
0.0
143
0.0
294
     0
295
     0
296
     0
110
947.8852306805061
120
562.46481896647
130
0.0
111
1.0
121
0.0
131
0.0
112
0.0
122
1.0
132
0.0
297
     0
302
LEADER{
290
     1
291
     1
 10
972.0046231406818
 20
524.3658266054181
 30
0.0
 11
1.0
 21
0.0
 31
0.0
 90
        0
 40
82.87117748304354
304
LEADER_LINE{
 10
961.1463572990074
 20
547.6701228061498
 30
0.0
 91
        0
 92
-1056964608
305
}
271
     0
303
}
272
     9
273
     9
301
}
340
D8
 90
856161279
170
     1
 91
-1023410173
341
14
171
    -2
290
     1
291
     1
 41
82.87117748304354
342
639
 42
5.0
172
     2
343
537
173
     5
 95
        5
174
     1
175
     2
 92
-1023409921
292
     0
 93
-1056964608
 10
1.0
 20
1.0
 30
1.0
 43
0.0
176
     0
293
     0
294
     0
178
     0
179
     1
 45
1.0
271
     0
272
     9
273
     9
295
     1
  0
DIMENSION
  5
3023
330
1F
100
AcDbEntity
  8
0
 62
     3
100
AcDbDimension
280
     0
  2
*D293
 10
599.4140706665704
 20
526.5874949874993
 30
0.0
 11
419.3904656961786
 21
484.105918970997
 31
0.0
 70
    33
  1
\A1;Profile specified \Pbatten spacing
 71
     5
 42
368.5494954406071
 73
     0
 74
     0
 75
     0
  3
DIM150
100
AcDbAlignedDimension
 13
229.4525036286436
 23
471.7082303245821
 33
0.0
 14
579.4837760350824
 24
587.0635029698129
 34
0.0
1001
ACAD
1000
DSTYLE
1002
{
1070
    41
1040
5.0
1070
   347
1005
51D
1070
   346
1005
51D
1070
   345
1005
0
1070
   340
1005
521
1070
   341
1005
522
1070
   140
1040
10.0
1002
}
  0
DIMENSION
  5
3024
330
1F
100
AcDbEntity
  8
0
 62
     3
100
AcDbDimension
280
     0
  2
*D294
 10
925.2430156424474
 20
633.9669219460544
 30
0.0
 11
757.3200272347796
 21
595.4745483438635
 31
0.0
 70
    33
  1
\A1;Profile specified \Pbatten spacing
 71
     5
 42
343.0672987114475
 73
     0
 74
     0
 75
     0
  3
DIM150
100
AcDbAlignedDimension
 13
579.4837760350824
 23
587.0635029698129
 33
0.0
 14
905.3140439949989
 24
694.4404461482187
 34
0.0
1001
ACAD
1000
DSTYLE
1002
{
1070
    41
1040
5.0
1070
   347
1005
51D
1070
   346
1005
51D
1070
   345
1005
0
1070
   340
1005
521
1070
   341
1005
522
1070
   140
1040
10.0
1002
}
  0
ENDSEC
  0
SECTION
  2
OBJECTS
  0
DICTIONARY
  5
C
330
0
100
AcDbDictionary
281
     1
  3
ACAD_CIP_PREVIOUS_PRODUCT_INFO
350
1A5
  3
ACAD_COLOR
350
73
  3
ACAD_DETAILVIEWSTYLE
350
1AB
  3
ACAD_DGNDEFINITIONS
350
50A
  3
ACAD_DWFDEFINITIONS
350
509
  3
ACAD_GROUP
350
D
  3
ACAD_LAYOUT
350
1A
  3
ACAD_MATERIAL
350
72
  3
ACAD_MLEADERSTYLE
350
D7
  3
ACAD_MLINESTYLE
350
17
  3
ACAD_PDFDEFINITIONS
350
508
  3
ACAD_PLOTSETTINGS
350
19
  3
ACAD_PLOTSTYLENAME
350
E
  3
ACAD_SCALELIST
350
B6
  3
ACAD_SECTIONVIEWSTYLE
350
1A8
  3
ACAD_TABLESTYLE
350
86
  3
ACAD_VISUALSTYLE
350
99
  3
ACDB_RECOMPOSE_DATA
350
3063
  3
AcDbVariableDictionary
350
66
  0
SUN
  5
20C
330
94
100
AcDbSun
 90
        1
290
     0
 63
     7
421
 16777215
 40
1.0
291
     1
 91
  2455826
 92
 54000000
292
     0
 70
     2
 71
   256
280
     1
  0
DICTIONARY
  5
18E
330
2
100
AcDbDictionary
280
     1
281
     1
  3
ACAD_LAYERSTATES
360
18F
  0
DICTIONARY
  5
50C
330
50B
100
AcDbDictionary
280
     1
281
     1
  3
ADSK_XREC_LAYER_RECONCILED
360
50D
  0
DICTIONARY
  5
511
330
510
100
AcDbDictionary
280
     1
281
     1
  3
ADSK_XREC_LAYER_RECONCILED
360
512
  0
DICTIONARY
  5
514
330
513
100
AcDbDictionary
280
     1
281
     1
  3
ADSK_XREC_LAYER_RECONCILED
360
515
  0
DICTIONARY
  5
517
330
516
100
AcDbDictionary
280
     1
281
     1
  3
ADSK_XREC_LAYER_RECONCILED
360
518
  0
DICTIONARY
  5
51A
330
519
100
AcDbDictionary
280
     1
281
     1
  3
ADSK_XREC_LAYER_RECONCILED
360
51B
  0
DICTIONARY
  5
80B
330
80A
100
AcDbDictionary
280
     1
281
     1
  3
ADSK_XREC_LAYER_RECONCILED
360
80C
  0
DICTIONARY
  5
811
330
810
100
AcDbDictionary
280
     1
281
     1
  3
ADSK_XREC_LAYER_RECONCILED
360
812
  0
DICTIONARY
  5
1767
330
1766
100
AcDbDictionary
280
     1
281
     1
  3
ADSK_XREC_LAYER_RECONCILED
360
1768
  0
DICTIONARY
  5
607
330
606
100
AcDbDictionary
280
     1
281
     1
  3
ACAD_SORTENTS
360
608
  0
DICTIONARY
  5
615
330
614
100
AcDbDictionary
280
     1
281
     1
  3
ACAD_SORTENTS
360
616
  0
DICTIONARY
  5
64B
330
64A
100
AcDbDictionary
280
     1
281
     1
  3
ACAD_SORTENTS
360
64C
  0
DICTIONARY
  5
187C
330
187B
100
AcDbDictionary
280
     1
281
     1
  3
ACAD_SORTENTS
360
187D
  0
DICTIONARY
  5
1883
330
1882
100
AcDbDictionary
280
     1
281
     1
  3
ACAD_SORTENTS
360
1884
  0
DICTIONARY
  5
1890
330
188F
100
AcDbDictionary
280
     1
281
     1
  3
ACAD_SORTENTS
360
1891
  0
DICTIONARY
  5
1F7D
330
1F7C
100
AcDbDictionary
280
     1
281
     1
  3
ACAD_SORTENTS
360
1F7E
  0
DICTIONARY
  5
2190
330
218F
100
AcDbDictionary
280
     1
281
     1
  3
ACAD_SORTENTS
360
2191
  0
DICTIONARY
  5
237B
330
237A
100
AcDbDictionary
280
     1
281
     1
  3
ACAD_SORTENTS
360
237C
  0
DICTIONARY
  5
24C3
330
24C2
100
AcDbDictionary
280
     1
281
     1
  3
ACAD_SORTENTS
360
24C4
  0
DICTIONARY
  5
26E1
330
26E0
100
AcDbDictionary
280
     1
281
     1
  3
ACAD_SORTENTS
360
26E2
  0
XRECORD
  5
1A5
102
{ACAD_REACTORS
330
C
102
}
330
C
100
AcDbXrecord
280
     1
300
ACD
300
2019
300

  0
DICTIONARY
  5
73
102
{ACAD_REACTORS
330
C
102
}
330
C
100
AcDbDictionary
281
     1
  0
DICTIONARY
  5
1AB
102
{ACAD_REACTORS
330
C
102
}
330
C
100
AcDbDictionary
281
     1
  3
Imperial24
350
1AC
  0
DICTIONARY
  5
50A
102
{ACAD_REACTORS
330
C
102
}
330
C
100
AcDbDictionary
281
     1
  0
DICTIONARY
  5
509
102
{ACAD_REACTORS
330
C
102
}
330
C
100
AcDbDictionary
281
     1
  0
DICTIONARY
  5
D
102
{ACAD_REACTORS
330
C
102
}
330
C
100
AcDbDictionary
281
     1
  0
DICTIONARY
  5
1A
102
{ACAD_REACTORS
330
C
102
}
330
C
100
AcDbDictionary
281
     1
  3
Layout1
350
59
  3
Layout2
350
5E
  3
Model
350
22
  0
DICTIONARY
  5
72
102
{ACAD_REACTORS
330
C
102
}
330
C
100
AcDbDictionary
281
     1
  3
ByBlock
350
97
  3
ByLayer
350
96
  3
Global
350
98
  0
DICTIONARY
  5
D7
102
{ACAD_REACTORS
330
C
102
}
330
C
100
AcDbDictionary
281
     1
  3
Annotative
350
E5
  3
Standard
350
D8
  0
DICTIONARY
  5
17
102
{ACAD_REACTORS
330
C
102
}
330
C
100
AcDbDictionary
281
     1
  3
Standard
350
18
  0
DICTIONARY
  5
508
102
{ACAD_REACTORS
330
C
102
}
330
C
100
AcDbDictionary
281
     1
  0
DICTIONARY
  5
19
102
{ACAD_REACTORS
330
C
102
}
330
C
100
AcDbDictionary
281
     1
  0
ACDBDICTIONARYWDFLT
  5
E
102
{ACAD_REACTORS
330
C
102
}
330
C
100
AcDbDictionary
281
     1
  3
Normal
350
F
100
AcDbDictionaryWithDefault
340
F
  0
DICTIONARY
  5
B6
102
{ACAD_REACTORS
330
C
102
}
330
C
100
AcDbDictionary
281
     1
  3
A0
350
B7
  3
A1
350
124
  3
A2
350
125
  3
A3
350
126
  3
A4
350
127
  3
A5
350
128
  3
A6
350
129
  3
A7
350
12A
  3
A8
350
12B
  3
A9
350
12C
  3
B0
350
12D
  3
B1
350
12E
  3
B2
350
12F
  3
B3
350
130
  3
B4
350
131
  3
B5
350
132
  3
B6
350
133
  3
B7
350
134
  3
B8
350
135
  3
B9
350
136
  3
C0
350
137
  3
C1
350
138
  3
C2
350
139
  3
C3
350
13A
  3
C4
350
13B
  3
C5
350
13C
  3
C6
350
13D
  3
C7
350
13E
  3
C8
350
13F
  3
C9
350
140
  3
D0
350
141
  3
D1
350
142
  3
D2
350
143
  0
DICTIONARY
  5
1A8
102
{ACAD_REACTORS
330
C
102
}
330
C
100
AcDbDictionary
281
     1
  3
Imperial24
350
1AA
  0
DICTIONARY
  5
86
102
{ACAD_REACTORS
330
C
102
}
330
C
100
AcDbDictionary
281
     1
  3
Standard
350
87
  0
DICTIONARY
  5
99
102
{ACAD_REACTORS
330
C
102
}
330
C
100
AcDbDictionary
281
     1
  3
2dWireframe
350
9F
  3
Basic
350
9E
  3
Brighten
350
A5
  3
ColorChange
350
A9
  3
Conceptual
350
A2
  3
Dim
350
A4
  3
EdgeColorOff
350
175
  3
Facepattern
350
A8
  3
Flat
350
9A
  3
FlatWithEdges
350
9B
  3
Gouraud
350
9C
  3
GouraudWithEdges
350
9D
  3
Hidden
350
A1
  3
JitterOff
350
173
  3
Linepattern
350
A7
  3
OverhangOff
350
174
  3
Realistic
350
A3
  3
Shaded
350
182
  3
Shaded with edges
350
181
  3
Shades of Gray
350
17E
  3
Sketchy
350
17F
  3
Thicken
350
A6
  3
Wireframe
350
A0
  3
X-Ray
350
180
  0
XRECORD
  5
3063
102
{ACAD_REACTORS
330
C
102
}
330
C
100
AcDbXrecord
280
     1
 90
        1
330
87
  0
DICTIONARY
  5
66
102
{ACAD_REACTORS
330
C
102
}
330
C
100
AcDbDictionary
281
     1
  3
CANNOSCALE
350
F0
  3
CMLEADERSTYLE
350
EF
  3
CTABLESTYLE
350
89
  3
CVIEWDETAILSTYLE
350
1B7
  3
CVIEWSECTIONSTYLE
350
1B8
  3
DIMASSOC
350
67
  3
HIDETEXT
350
6B
  3
LAYEREVAL
350
14D
  3
LAYERNOTIFY
350
14E
  0
DICTIONARY
  5
18F
102
{ACAD_REACTORS
330
18E
102
}
330
18E
100
AcDbDictionary
281
     1
  0
XRECORD
  5
50D
102
{ACAD_REACTORS
330
50C
102
}
330
50C
100
AcDbXrecord
280
     1
290
     0
  0
XRECORD
  5
512
102
{ACAD_REACTORS
330
511
102
}
330
511
100
AcDbXrecord
280
     1
290
     1
  0
XRECORD
  5
515
102
{ACAD_REACTORS
330
514
102
}
330
514
100
AcDbXrecord
280
     1
290
     0
  0
XRECORD
  5
518
102
{ACAD_REACTORS
330
517
102
}
330
517
100
AcDbXrecord
280
     1
290
     0
  0
XRECORD
  5
51B
102
{ACAD_REACTORS
330
51A
102
}
330
51A
100
AcDbXrecord
280
     1
290
     0
  0
XRECORD
  5
80C
102
{ACAD_REACTORS
330
80B
102
}
330
80B
100
AcDbXrecord
280
     1
290
     0
  0
XRECORD
  5
812
102
{ACAD_REACTORS
330
811
102
}
330
811
100
AcDbXrecord
280
     1
290
     0
  0
XRECORD
  5
1768
102
{ACAD_REACTORS
330
1767
102
}
330
1767
100
AcDbXrecord
280
     1
290
     0
  0
SORTENTSTABLE
  5
608
102
{ACAD_REACTORS
330
607
102
}
330
607
100
AcDbSortentsTable
330
606
  0
SORTENTSTABLE
  5
616
102
{ACAD_REACTORS
330
615
102
}
330
615
100
AcDbSortentsTable
330
614
  0
SORTENTSTABLE
  5
64C
102
{ACAD_REACTORS
330
64B
102
}
330
64B
100
AcDbSortentsTable
330
64A
  0
SORTENTSTABLE
  5
187D
102
{ACAD_REACTORS
330
187C
102
}
330
187C
100
AcDbSortentsTable
330
187B
  0
SORTENTSTABLE
  5
1884
102
{ACAD_REACTORS
330
1883
102
}
330
1883
100
AcDbSortentsTable
330
1882
  0
SORTENTSTABLE
  5
1891
102
{ACAD_REACTORS
330
1890
102
}
330
1890
100
AcDbSortentsTable
330
188F
  0
SORTENTSTABLE
  5
1F7E
102
{ACAD_REACTORS
330
1F7D
102
}
330
1F7D
100
AcDbSortentsTable
330
1F7C
  0
SORTENTSTABLE
  5
2191
102
{ACAD_REACTORS
330
2190
102
}
330
2190
100
AcDbSortentsTable
330
218F
  0
SORTENTSTABLE
  5
237C
102
{ACAD_REACTORS
330
237B
102
}
330
237B
100
AcDbSortentsTable
330
237A
  0
SORTENTSTABLE
  5
24C4
102
{ACAD_REACTORS
330
24C3
102
}
330
24C3
100
AcDbSortentsTable
330
24C2
  0
SORTENTSTABLE
  5
26E2
102
{ACAD_REACTORS
330
26E1
102
}
330
26E1
100
AcDbSortentsTable
330
26E0
  0
ACDBDETAILVIEWSTYLE
  5
1AC
102
{ACAD_REACTORS
330
1AB
102
}
330
1AB
100
AcDbModelDocViewStyle
 70
     0
  3
Imperial24
290
     0
300
Imperial24
 90
        0
100
AcDbDetailViewStyle
 70
     0
 71
     0
 90
        3
 71
     1
340
11
 62
   256
 40
0.24
340
0
 62
   256
 40
0.24
300

 40
0.36
280
     3
 71
     2
340
16
 90
       25
 62
   256
 71
     3
340
11
 62
   256
 40
0.24
 90
        1
 40
0.75
 90
        1
300
%<\AcVar ViewType \f "%tc1">% %<\AcVar ViewDetailId>%\PSCALE %<\AcVar ViewScale \f "%sn">%
 71
     4
340
16
 90
       25
 62
   256
340
16
 90
       25
 62
   256
280
     0
  0
LAYOUT
  5
59
102
{ACAD_REACTORS
330
1A
102
}
330
1A
100
AcDbPlotSettings
  1

  2
None
  4

  6

 40
0.0
 41
0.0
 42
0.0
 43
0.0
 44
0.0
 45
0.0
 46
0.0
 47
0.0
 48
0.0
 49
0.0
140
0.0
141
0.0
142
1.0
143
1.0
 70
   688
 72
     0
 73
     0
 74
     5
  7

 75
    16
 76
     0
 77
     2
 78
   300
147
1.0
148
0.0
149
0.0
100
AcDbLayout
  1
Layout1
 70
     1
 71
     1
 10
0.0
 20
0.0
 11
12.0
 21
9.0
 12
0.0
 22
0.0
 32
0.0
 14
2.121518365837346
 24
1.490733711909002
 34
0.0
 15
1272.136314479726
 25
939.834999082144
 35
0.0
146
0.0
 13
0.0
 23
0.0
 33
0.0
 16
1.0
 26
0.0
 36
0.0
 17
0.0
 27
1.0
 37
0.0
 76
     0
330
58
  0
LAYOUT
  5
5E
102
{ACAD_REACTORS
330
1A
102
}
330
1A
100
AcDbPlotSettings
  1

  2
None
  4

  6

 40
0.0
 41
0.0
 42
0.0
 43
0.0
 44
0.0
 45
0.0
 46
0.0
 47
0.0
 48
0.0
 49
0.0
140
0.0
141
0.0
142
1.0
143
1.0
 70
   688
 72
     0
 73
     0
 74
     5
  7

 75
    16
 76
     0
 77
     2
 78
   300
147
1.0
148
0.0
149
0.0
100
AcDbLayout
  1
Layout2
 70
     1
 71
     2
 10
0.0
 20
0.0
 11
12.0
 21
9.0
 12
0.0
 22
0.0
 32
0.0
 14
0.0
 24
0.0
 34
0.0
 15
0.0
 25
0.0
 35
0.0
146
0.0
 13
0.0
 23
0.0
 33
0.0
 16
1.0
 26
0.0
 36
0.0
 17
0.0
 27
1.0
 37
0.0
 76
     0
330
5D
  0
LAYOUT
  5
22
102
{ACAD_REACTORS
330
1A
102
}
330
1A
100
AcDbPlotSettings
  1

  2
none_device
  4
ANSI_A_(8.50_x_11.00_Inches)
  6

 40
6.349999904632568
 41
19.04999923706055
 42
6.350006103515625
 43
19.04998779296875
 44
215.8999938964844
 45
279.3999938964844
 46
0.0
 47
0.0
 48
0.0
 49
0.0
140
0.0
141
0.0
142
1.0
143
2.584895464708374
 70
 11952
 72
     0
 73
     1
 74
     0
  7

 75
     0
 76
     0
 77
     2
 78
   300
147
0.3868628397755418
148
0.0
149
0.0
100
AcDbLayout
  1
Model
 70
     1
 71
     0
 10
0.0
 20
0.0
 11
12.0
 21
9.0
 12
0.0
 22
0.0
 32
0.0
 14
0.0
 24
0.0
 34
0.0
 15
0.0
 25
0.0
 35
0.0
146
0.0
 13
0.0
 23
0.0
 33
0.0
 16
1.0
 26
0.0
 36
0.0
 17
0.0
 27
1.0
 37
0.0
 76
     0
330
1F
331
94
  0
MATERIAL
  5
97
102
{ACAD_REACTORS
330
72
102
}
102
{ACAD_XDICTIONARY
360
188
102
}
330
72
100
AcDbMaterial
  1
ByBlock
 72
     1
 73
     2
 78
     2
172
     2
176
     2
270
     2
274
     2
 94
       63
  0
MATERIAL
  5
96
102
{ACAD_REACTORS
330
72
102
}
102
{ACAD_XDICTIONARY
360
186
102
}
330
72
100
AcDbMaterial
  1
ByLayer
 72
     1
 73
     2
 78
     2
172
     2
176
     2
270
     2
274
     2
 94
       63
  0
MATERIAL
  5
98
102
{ACAD_REACTORS
330
72
102
}
102
{ACAD_XDICTIONARY
360
110
102
}
330
72
100
AcDbMaterial
  1
Global
 72
     1
 73
     2
 43
0.0208000000566244
 43
0.0
 43
0.0
 43
0.0
 43
0.0
 43
0.0208000000566244
 43
0.0
 43
0.0
 43
0.0
 43
0.0
 43
1.0
 43
0.0
 43
0.0
 43
0.0
 43
0.0
 43
1.0
 78
     2
172
     2
 49
0.0208000000566244
 49
0.0
 49
0.0
 49
0.0
 49
0.0
 49
0.0208000000566244
 49
0.0
 49
0.0
 49
0.0
 49
0.0
 49
1.0
 49
0.0
 49
0.0
 49
0.0
 49
0.0
 49
1.0
176
     2
142
0.0208000000566244
142
0.0
142
0.0
142
0.0
142
0.0
142
0.0208000000566244
142
0.0
142
0.0
142
0.0
142
0.0
142
1.0
142
0.0
142
0.0
142
0.0
142
0.0
142
1.0
270
     2
144
0.0208000000566244
144
0.0
144
0.0
144
0.0
144
0.0
144
0.0208000000566244
144
0.0
144
0.0
144
0.0
144
0.0
144
1.0
144
0.0
144
0.0
144
0.0
144
0.0
144
1.0
274
     2
 94
       63
1001
ACAD
1070
    -1
1070
     3
1070
     0
1000

1071
        0
1070
     0
  0
MLEADERSTYLE
  5
E5
102
{ACAD_REACTORS
330
D7
102
}
330
D7
100
AcDbMLeaderStyle
179
     2
170
     2
171
     1
172
     0
 90
        2
 40
0.0
 41
0.0
173
     1
 91
-1056964608
340
14
 92
       -2
290
     1
 42
0.09
291
     1
 43
0.36
  3
Standard
341
0
 44
0.18
300

342
11
174
     1
178
     1
175
     1
176
     0
 93
-1056964608
 45
0.18
292
     0
297
     0
 46
0.18
343
0
 94
-1056964608
 47
1.0
 49
1.0
140
1.0
293
     1
141
0.0
294
     1
177
     0
142
1.0
295
     0
296
     1
143
0.125
271
     0
272
     9
273
     9
298
     0
  0
MLEADERSTYLE
  5
D8
102
{ACAD_REACTORS
330
2FE5
330
2FD7
330
2FD6
330
2FD2
330
2FD3
330
2FD4
330
2FE2
330
2FD5
330
2FE3
330
3022
330
D7
102
}
330
D7
100
AcDbMLeaderStyle
179
     2
170
     2
171
     1
172
     0
 90
        2
 40
0.0
 41
0.0
173
     1
 91
-1056964608
340
14
 92
       -2
290
     1
 42
0.09
291
     1
 43
0.36
  3
Standard
341
0
 44
0.18
300

342
11
174
     1
178
     1
175
     1
176
     0
 93
-1056964608
 45
0.18
292
     0
297
     0
 46
0.18
343
0
 94
-1056964608
 47
1.0
 49
1.0
140
1.0
293
     1
141
0.0
294
     1
177
     0
142
1.0
295
     0
296
     0
143
0.125
271
     0
272
     9
273
     9
298
     0
  0
MLINESTYLE
  5
18
102
{ACAD_REACTORS
330
17
102
}
330
17
100
AcDbMlineStyle
  2
STANDARD
 70
     0
  3

 62
   256
 51
90.0
 52
90.0
 71
     2
 49
0.5
 62
   256
  6
BYLAYER
 49
-0.5
 62
   256
  6
BYLAYER
  0
ACDBPLACEHOLDER
  5
F
102
{ACAD_REACTORS
330
E
102
}
330
E
  0
SCALE
  5
B7
102
{ACAD_REACTORS
330
B6
102
}
330
B6
100
AcDbScale
 70
     0
300
1:1
140
1.0
141
1.0
290
     1
  0
SCALE
  5
124
102
{ACAD_REACTORS
330
B6
102
}
330
B6
100
AcDbScale
 70
     0
300
1:2
140
1.0
141
2.0
290
     0
  0
SCALE
  5
125
102
{ACAD_REACTORS
330
B6
102
}
330
B6
100
AcDbScale
 70
     0
300
1:4
140
1.0
141
4.0
290
     0
  0
SCALE
  5
126
102
{ACAD_REACTORS
330
B6
102
}
330
B6
100
AcDbScale
 70
     0
300
1:5
140
1.0
141
5.0
290
     0
  0
SCALE
  5
127
102
{ACAD_REACTORS
330
B6
102
}
330
B6
100
AcDbScale
 70
     0
300
1:8
140
1.0
141
8.0
290
     0
  0
SCALE
  5
128
102
{ACAD_REACTORS
330
B6
102
}
330
B6
100
AcDbScale
 70
     0
300
1:10
140
1.0
141
10.0
290
     0
  0
SCALE
  5
129
102
{ACAD_REACTORS
330
B6
102
}
330
B6
100
AcDbScale
 70
     0
300
1:16
140
1.0
141
16.0
290
     0
  0
SCALE
  5
12A
102
{ACAD_REACTORS
330
B6
102
}
330
B6
100
AcDbScale
 70
     0
300
1:20
140
1.0
141
20.0
290
     0
  0
SCALE
  5
12B
102
{ACAD_REACTORS
330
B6
102
}
330
B6
100
AcDbScale
 70
     0
300
1:30
140
1.0
141
30.0
290
     0
  0
SCALE
  5
12C
102
{ACAD_REACTORS
330
B6
102
}
330
B6
100
AcDbScale
 70
     0
300
1:40
140
1.0
141
40.0
290
     0
  0
SCALE
  5
12D
102
{ACAD_REACTORS
330
B6
102
}
330
B6
100
AcDbScale
 70
     0
300
1:50
140
1.0
141
50.0
290
     0
  0
SCALE
  5
12E
102
{ACAD_REACTORS
330
B6
102
}
330
B6
100
AcDbScale
 70
     0
300
1:100
140
1.0
141
100.0
290
     0
  0
SCALE
  5
12F
102
{ACAD_REACTORS
330
B6
102
}
330
B6
100
AcDbScale
 70
     0
300
2:1
140
2.0
141
1.0
290
     0
  0
SCALE
  5
130
102
{ACAD_REACTORS
330
B6
102
}
330
B6
100
AcDbScale
 70
     0
300
4:1
140
4.0
141
1.0
290
     0
  0
SCALE
  5
131
102
{ACAD_REACTORS
330
B6
102
}
330
B6
100
AcDbScale
 70
     0
300
8:1
140
8.0
141
1.0
290
     0
  0
SCALE
  5
132
102
{ACAD_REACTORS
330
B6
102
}
330
B6
100
AcDbScale
 70
     0
300
10:1
140
10.0
141
1.0
290
     0
  0
SCALE
  5
133
102
{ACAD_REACTORS
330
B6
102
}
330
B6
100
AcDbScale
 70
     0
300
100:1
140
100.0
141
1.0
290
     0
  0
SCALE
  5
134
102
{ACAD_REACTORS
330
B6
102
}
330
B6
100
AcDbScale
 70
     0
300
1/128" = 1'-0"
140
0.0078125
141
12.0
290
     0
  0
SCALE
  5
135
102
{ACAD_REACTORS
330
B6
102
}
330
B6
100
AcDbScale
 70
     0
300
1/64" = 1'-0"
140
0.015625
141
12.0
290
     0
  0
SCALE
  5
136
102
{ACAD_REACTORS
330
B6
102
}
330
B6
100
AcDbScale
 70
     0
300
1/32" = 1'-0"
140
0.03125
141
12.0
290
     0
  0
SCALE
  5
137
102
{ACAD_REACTORS
330
B6
102
}
330
B6
100
AcDbScale
 70
     0
300
1/16" = 1'-0"
140
0.0625
141
12.0
290
     0
  0
SCALE
  5
138
102
{ACAD_REACTORS
330
B6
102
}
330
B6
100
AcDbScale
 70
     0
300
3/32" = 1'-0"
140
0.09375
141
12.0
290
     0
  0
SCALE
  5
139
102
{ACAD_REACTORS
330
B6
102
}
330
B6
100
AcDbScale
 70
     0
300
1/8" = 1'-0"
140
0.125
141
12.0
290
     0
  0
SCALE
  5
13A
102
{ACAD_REACTORS
330
B6
102
}
330
B6
100
AcDbScale
 70
     0
300
3/16" = 1'-0"
140
0.1875
141
12.0
290
     0
  0
SCALE
  5
13B
102
{ACAD_REACTORS
330
B6
102
}
330
B6
100
AcDbScale
 70
     0
300
1/4" = 1'-0"
140
0.25
141
12.0
290
     0
  0
SCALE
  5
13C
102
{ACAD_REACTORS
330
B6
102
}
330
B6
100
AcDbScale
 70
     0
300
3/8" = 1'-0"
140
0.375
141
12.0
290
     0
  0
SCALE
  5
13D
102
{ACAD_REACTORS
330
B6
102
}
330
B6
100
AcDbScale
 70
     0
300
1/2" = 1'-0"
140
0.5
141
12.0
290
     0
  0
SCALE
  5
13E
102
{ACAD_REACTORS
330
B6
102
}
330
B6
100
AcDbScale
 70
     0
300
3/4" = 1'-0"
140
0.75
141
12.0
290
     0
  0
SCALE
  5
13F
102
{ACAD_REACTORS
330
B6
102
}
330
B6
100
AcDbScale
 70
     0
300
1" = 1'-0"
140
1.0
141
12.0
290
     0
  0
SCALE
  5
140
102
{ACAD_REACTORS
330
B6
102
}
330
B6
100
AcDbScale
 70
     0
300
1-1/2" = 1'-0"
140
1.5
141
12.0
290
     0
  0
SCALE
  5
141
102
{ACAD_REACTORS
330
B6
102
}
330
B6
100
AcDbScale
 70
     0
300
3" = 1'-0"
140
3.0
141
12.0
290
     0
  0
SCALE
  5
142
102
{ACAD_REACTORS
330
B6
102
}
330
B6
100
AcDbScale
 70
     0
300
6" = 1'-0"
140
6.0
141
12.0
290
     0
  0
SCALE
  5
143
102
{ACAD_REACTORS
330
B6
102
}
330
B6
100
AcDbScale
 70
     0
300
1'-0" = 1'-0"
140
12.0
141
12.0
290
     0
  0
ACDBSECTIONVIEWSTYLE
  5
1AA
102
{ACAD_REACTORS
330
1A8
102
}
330
1A8
100
AcDbModelDocViewStyle
 70
     0
  3
Imperial24
290
     0
300
Imperial24
 90
        0
100
AcDbSectionViewStyle
 70
     0
 71
     0
 90
       78
 71
     1
340
11
 62
   256
 40
0.24
340
0
340
0
 62
   256
 40
0.24
300
I, O, Q, S, X, Z
 40
0.48
 90
        3
 40
0.18
 90
        1
 71
     2
340
16
 90
       25
 62
   256
340
16
 90
       50
 62
   256
 40
0.24
 40
0.0
 40
0.24
 71
     3
340
11
 62
   256
 40
0.24
 90
        1
 40
0.75
 90
        1
300
%<\AcVar ViewType \f "%tc1">% %<\AcVar ViewSectionStartId>%-%<\AcVar ViewSectionEndId>%\PSCALE %<\AcVar ViewScale \f "%sn">%
 71
     4
 62
   256
 62
   257
300
ANSI31
 40
1.0
 90
        0
290
     0
290
     0
 90
        6
 40
0.0
 40
1.570796326794897
 40
0.2617993877991494
 40
1.308996938995747
 40
-0.2617993877991494
 40
1.832595714594046
  0
TABLESTYLE
  5
87
102
{ACAD_REACTORS
330
86
102
}
102
{ACAD_XDICTIONARY
360
3061
102
}
330
86
100
AcDbTableStyle
  3
Standard
 70
     0
 71
     0
 40
0.06
 41
0.06
280
     0
281
     0
  7
Standard
140
0.18
170
     2
 62
     0
 63
   257
283
     0
 90
      512
 91
        0
  1

274
    -2
284
     1
 64
     0
275
    -2
285
     1
 65
     0
276
    -2
286
     1
 66
     0
277
    -2
287
     1
 67
     0
278
    -2
288
     1
 68
     0
279
    -2
289
     1
 69
     0
  7
Standard
140
0.25
170
     5
 62
     0
 63
   257
283
     0
 90
      512
 91
        0
  1

274
    -2
284
     1
 64
     0
275
    -2
285
     1
 65
     0
276
    -2
286
     1
 66
     0
277
    -2
287
     1
 67
     0
278
    -2
288
     1
 68
     0
279
    -2
289
     1
 69
     0
  7
Standard
140
0.18
170
     5
 62
     0
 63
   257
283
     0
 90
      512
 91
        0
  1

274
    -2
284
     1
 64
     0
275
    -2
285
     1
 65
     0
276
    -2
286
     1
 66
     0
277
    -2
287
     1
 67
     0
278
    -2
288
     1
 68
     0
279
    -2
289
     1
 69
     0
  0
VISUALSTYLE
  5
9F
102
{ACAD_REACTORS
330
99
102
}
330
99
100
AcDbVisualStyle
  2
2dWireframe
 70
     4
177
     3
291
     0
 70
    58
 90
        0
176
     1
 90
        2
176
     1
 90
        1
176
     1
 90
        0
176
     1
 40
0.6
176
     1
 40
30.0
176
     1
 62
     7
420
 16777215
176
     1
 90
        1
176
     1
 90
        4
176
     1
 62
     7
176
     1
 62
   257
176
     1
 90
        1
176
     1
 90
        1
176
     1
 40
1.0
176
     1
 90
        0
176
     1
 62
   257
176
     1
 40
1.0
176
     1
 90
        1
176
     1
 90
        6
176
     1
 90
        2
176
     1
 62
     7
176
     1
 90
        5
176
     1
 90
        0
176
     1
 90
        0
176
     1
290
     0
176
     1
 90
        1
176
     1
 40
0.0
176
     1
 90
        0
176
     1
290
     1
176
     1
290
     1
176
     1
290
     0
176
     1
290
     0
176
     1
290
     0
176
     1
290
     0
176
     1
290
     0
176
     1
290
     0
176
     1
290
     0
176
     1
 90
       50
176
     1
 40
0.0
176
     1
 40
1.0
176
     1
 90
        0
176
     1
 62
    18
420
        0
176
     1
 90
       50
176
     1
 90
        3
176
     1
 62
     5
420
      255
176
     1
290
     0
176
     1
 90
       50
176
     1
 90
       50
176
     1
 90
       50
176
     1
290
     0
176
     1
 90
       50
176
     1
 62
   256
176
     0
 40
1.0
176
     0
 90
        2
176
     1
  1
strokes_ogs.tif
176
     1
290
     0
176
     1
 40
1.0
176
     1
 40
1.0
176
     1
  0
VISUALSTYLE
  5
9E
102
{ACAD_REACTORS
330
99
102
}
330
99
100
AcDbVisualStyle
  2
Basic
 70
     7
177
     3
291
     1
 70
    58
 90
        1
176
     1
 90
        0
176
     1
 90
        1
176
     1
 90
        0
176
     1
 40
0.6
176
     1
 40
30.0
176
     1
 62
     7
420
 16777215
176
     1
 90
        0
176
     1
 90
        4
176
     1
 62
     7
176
     1
 62
   257
176
     1
 90
        1
176
     1
 90
        1
176
     1
 40
1.0
176
     1
 90
        8
176
     1
 62
     7
176
     1
 40
1.0
176
     1
 90
        1
176
     1
 90
        6
176
     1
 90
        2
176
     1
 62
     7
176
     1
 90
        5
176
     1
 90
        0
176
     1
 90
        0
176
     1
290
     0
176
     1
 90
        1
176
     1
 40
0.0
176
     1
 90
        0
176
     1
290
     0
176
     1
290
     1
176
     1
290
     1
176
     1
290
     0
176
     1
290
     0
176
     1
290
     0
176
     1
290
     0
176
     1
290
     0
176
     1
290
     0
176
     1
 90
       50
176
     1
 40
0.0
176
     1
 40
1.0
176
     1
 90
        0
176
     1
 62
    18
420
        0
176
     1
 90
       50
176
     1
 90
        3
176
     1
 62
     5
420
      255
176
     1
290
     0
176
     1
 90
       50
176
     1
 90
       50
176
     1
 90
       50
176
     1
290
     0
176
     1
 90
       50
176
     1
 62
   256
176
     0
 40
1.0
176
     0
 90
        2
176
     1
  1
strokes_ogs.tif
176
     1
290
     0
176
     1
 40
1.0
176
     1
 40
1.0
176
     1
  0
VISUALSTYLE
  5
A5
102
{ACAD_REACTORS
330
99
102
}
330
99
100
AcDbVisualStyle
  2
Brighten
 70
    12
177
     3
291
     1
 70
    58
 90
        2
176
     1
 90
        2
176
     1
 90
        1
176
     1
 90
        0
176
     1
 40
0.6
176
     1
 40
30.0
176
     1
 62
     7
420
 16777215
176
     1
 90
        1
176
     1
 90
        4
176
     1
 62
     7
176
     1
 62
   257
176
     1
 90
        1
176
     1
 90
        1
176
     1
 40
1.0
176
     1
 90
        8
176
     1
 62
     7
176
     1
 40
1.0
176
     1
 90
        1
176
     1
 90
        6
176
     1
 90
        2
176
     1
 62
     7
176
     1
 90
        5
176
     1
 90
        0
176
     1
 90
        0
176
     1
290
     0
176
     1
 90
        1
176
     1
 40
50.0
176
     1
 90
        0
176
     1
290
     0
176
     1
290
     1
176
     1
290
     1
176
     1
290
     0
176
     1
290
     0
176
     1
290
     0
176
     1
290
     0
176
     1
290
     0
176
     1
290
     0
176
     1
 90
       50
176
     1
 40
0.0
176
     1
 40
1.0
176
     1
 90
        0
176
     1
 62
    18
420
        0
176
     1
 90
       50
176
     1
 90
        3
176
     1
 62
     5
420
      255
176
     1
290
     0
176
     1
 90
       50
176
     1
 90
       50
176
     1
 90
       50
176
     1
290
     0
176
     1
 90
       50
176
     1
 62
   256
176
     0
 40
1.0
176
     0
 90
        2
176
     1
  1
strokes_ogs.tif
176
     1
290
     0
176
     1
 40
1.0
176
     1
 40
1.0
176
     1
  0
VISUALSTYLE
  5
A9
102
{ACAD_REACTORS
330
99
102
}
330
99
100
AcDbVisualStyle
  2
ColorChange
 70
    16
177
     3
291
     1
 70
    58
 90
        2
176
     1
 90
        2
176
     1
 90
        3
176
     1
 90
        0
176
     1
 40
0.6
176
     1
 40
30.0
176
     1
 62
     8
420
  8421504
176
     1
 90
        1
176
     1
 90
        4
176
     1
 62
     7
176
     1
 62
   257
176
     1
 90
        1
176
     1
 90
        1
176
     1
 40
1.0
176
     1
 90
        8
176
     1
 62
     8
420
  8421504
176
     1
 40
1.0
176
     1
 90
        1
176
     1
 90
        6
176
     1
 90
        2
176
     1
 62
     7
176
     1
 90
        5
176
     1
 90
        0
176
     1
 90
        0
176
     1
290
     0
176
     1
 90
        1
176
     1
 40
0.0
176
     1
 90
        0
176
     1
290
     0
176
     1
290
     1
176
     1
290
     1
176
     1
290
     0
176
     1
290
     0
176
     1
290
     0
176
     1
290
     0
176
     1
290
     0
176
     1
290
     0
176
     1
 90
       50
176
     1
 40
0.0
176
     1
 40
1.0
176
     1
 90
        0
176
     1
 62
    18
420
        0
176
     1
 90
       50
176
     1
 90
        3
176
     1
 62
     5
420
      255
176
     1
290
     0
176
     1
 90
       50
176
     1
 90
       50
176
     1
 90
       50
176
     1
290
     0
176
     1
 90
       50
176
     1
 62
   256
176
     0
 40
1.0
176
     0
 90
        2
176
     1
  1
strokes_ogs.tif
176
     1
290
     0
176
     1
 40
1.0
176
     1
 40
1.0
176
     1
  0
VISUALSTYLE
  5
A2
102
{ACAD_REACTORS
330
99
102
}
330
99
100
AcDbVisualStyle
  2
Conceptual
 70
     9
177
     3
291
     0
 70
    58
 90
        3
176
     1
 90
        2
176
     1
 90
        1
176
     1
 90
        0
176
     1
 40
0.6
176
     1
 40
30.0
176
     1
 62
     7
420
 16777215
176
     1
 90
        2
176
     1
 90
        2
176
     1
 62
     7
176
     1
 62
   257
176
     1
 90
        1
176
     1
 90
        1
176
     1
 40
40.0
176
     1
 90
        8
176
     1
 62
     7
176
     1
 40
1.0
176
     1
 90
        1
176
     1
 90
        6
176
     1
 90
        2
176
     1
 62
     7
176
     1
 90
        3
176
     1
 90
        0
176
     1
 90
        0
176
     1
290
     0
176
     1
 90
        1
176
     1
 40
0.0
176
     1
 90
        0
176
     1
290
     0
176
     1
290
     1
176
     1
290
     1
176
     1
290
     0
176
     1
290
     0
176
     1
290
     0
176
     1
290
     0
176
     1
290
     0
176
     1
290
     0
176
     1
 90
       50
176
     1
 40
0.0
176
     1
 40
1.0
176
     1
 90
        0
176
     1
 62
    18
420
        0
176
     1
 90
       50
176
     1
 90
        3
176
     1
 62
     5
420
      255
176
     1
290
     0
176
     1
 90
       50
176
     1
 90
       50
176
     1
 90
       50
176
     1
290
     0
176
     1
 90
       50
176
     1
 62
   256
176
     0
 40
1.0
176
     0
 90
        2
176
     1
  1
strokes_ogs.tif
176
     1
290
     0
176
     1
 40
1.0
176
     1
 40
1.0
176
     1
  0
VISUALSTYLE
  5
A4
102
{ACAD_REACTORS
330
99
102
}
330
99
100
AcDbVisualStyle
  2
Dim
 70
    11
177
     3
291
     1
 70
    58
 90
        2
176
     1
 90
        2
176
     1
 90
        1
176
     1
 90
        0
176
     1
 40
0.6
176
     1
 40
30.0
176
     1
 62
     7
420
 16777215
176
     1
 90
        1
176
     1
 90
        4
176
     1
 62
     7
176
     1
 62
   257
176
     1
 90
        1
176
     1
 90
        1
176
     1
 40
1.0
176
     1
 90
        8
176
     1
 62
     7
176
     1
 40
1.0
176
     1
 90
        1
176
     1
 90
        6
176
     1
 90
        2
176
     1
 62
     7
176
     1
 90
        5
176
     1
 90
        0
176
     1
 90
        0
176
     1
290
     0
176
     1
 90
        1
176
     1
 40
-50.0
176
     1
 90
        0
176
     1
290
     0
176
     1
290
     1
176
     1
290
     1
176
     1
290
     0
176
     1
290
     0
176
     1
290
     0
176
     1
290
     0
176
     1
290
     0
176
     1
290
     0
176
     1
 90
       50
176
     1
 40
0.0
176
     1
 40
1.0
176
     1
 90
        0
176
     1
 62
    18
420
        0
176
     1
 90
       50
176
     1
 90
        3
176
     1
 62
     5
420
      255
176
     1
290
     0
176
     1
 90
       50
176
     1
 90
       50
176
     1
 90
       50
176
     1
290
     0
176
     1
 90
       50
176
     1
 62
   256
176
     0
 40
1.0
176
     0
 90
        2
176
     1
  1
strokes_ogs.tif
176
     1
290
     0
176
     1
 40
1.0
176
     1
 40
1.0
176
     1
  0
VISUALSTYLE
  5
175
102
{ACAD_REACTORS
330
99
102
}
330
99
100
AcDbVisualStyle
  2
EdgeColorOff
 70
    22
177
     3
291
     1
 70
    58
 90
        2
176
     0
 90
        2
176
     0
 90
        0
176
     0
 90
        0
176
     0
 40
0.6
176
     0
 40
30.0
176
     0
 62
     7
420
 16777215
176
     0
 90
        1
176
     0
 90
        4
176
     0
 62
     7
176
     0
 62
   257
176
     0
 90
        1
176
     0
 90
        1
176
     0
 40
1.0
176
     0
 90
        8
176
     2
 62
     7
176
     0
 40
1.0
176
     0
 90
        1
176
     0
 90
        6
176
     0
 90
        2
176
     0
 62
     7
176
     0
 90
        5
176
     0
 90
        0
176
     0
 90
        0
176
     0
290
     0
176
     0
 90
        1
176
     0
 40
0.0
176
     0
 90
        0
176
     0
290
     0
176
     1
290
     1
176
     1
290
     1
176
     1
290
     0
176
     1
290
     0
176
     1
290
     0
176
     1
290
     0
176
     1
290
     0
176
     1
290
     0
176
     1
 90
       50
176
     1
 40
0.0
176
     1
 40
1.0
176
     1
 90
        0
176
     1
 62
    18
420
        0
176
     1
 90
       50
176
     1
 90
        3
176
     1
 62
     5
420
      255
176
     1
290
     0
176
     1
 90
       50
176
     1
 90
       50
176
     1
 90
       50
176
     1
290
     0
176
     1
 90
       50
176
     1
 62
   256
176
     0
 40
1.0
176
     0
 90
        2
176
     1
  1
strokes_ogs.tif
176
     1
290
     0
176
     1
 40
1.0
176
     1
 40
1.0
176
     1
  0
VISUALSTYLE
  5
A8
102
{ACAD_REACTORS
330
99
102
}
330
99
100
AcDbVisualStyle
  2
Facepattern
 70
    15
177
     3
291
     1
 70
    58
 90
        2
176
     1
 90
        2
176
     1
 90
        1
176
     1
 90
        0
176
     1
 40
0.6
176
     1
 40
30.0
176
     1
 62
     7
420
 16777215
176
     1
 90
        1
176
     1
 90
        4
176
     1
 62
     7
176
     1
 62
   257
176
     1
 90
        1
176
     1
 90
        1
176
     1
 40
1.0
176
     1
 90
        8
176
     1
 62
     7
176
     1
 40
1.0
176
     1
 90
        1
176
     1
 90
        6
176
     1
 90
        2
176
     1
 62
     7
176
     1
 90
        5
176
     1
 90
        0
176
     1
 90
        0
176
     1
290
     0
176
     1
 90
        1
176
     1
 40
0.0
176
     1
 90
        0
176
     1
290
     0
176
     1
290
     1
176
     1
290
     1
176
     1
290
     0
176
     1
290
     0
176
     1
290
     0
176
     1
290
     0
176
     1
290
     0
176
     1
290
     0
176
     1
 90
       50
176
     1
 40
0.0
176
     1
 40
1.0
176
     1
 90
        0
176
     1
 62
    18
420
        0
176
     1
 90
       50
176
     1
 90
        3
176
     1
 62
     5
420
      255
176
     1
290
     0
176
     1
 90
       50
176
     1
 90
       50
176
     1
 90
       50
176
     1
290
     0
176
     1
 90
       50
176
     1
 62
   256
176
     0
 40
1.0
176
     0
 90
        2
176
     1
  1
strokes_ogs.tif
176
     1
290
     0
176
     1
 40
1.0
176
     1
 40
1.0
176
     1
  0
VISUALSTYLE
  5
9A
102
{ACAD_REACTORS
330
99
102
}
330
99
100
AcDbVisualStyle
  2
Flat
 70
     0
177
     3
291
     1
 70
    58
 90
        2
176
     1
 90
        1
176
     1
 90
        1
176
     1
 90
        2
176
     1
 40
0.6
176
     1
 40
30.0
176
     1
 62
     7
420
 16777215
176
     1
 90
        0
176
     1
 90
        0
176
     1
 62
     7
176
     1
 62
   257
176
     1
 90
        1
176
     1
 90
        1
176
     1
 40
1.0
176
     1
 90
        8
176
     1
 62
     7
176
     1
 40
1.0
176
     1
 90
        1
176
     1
 90
        6
176
     1
 90
        2
176
     1
 62
     7
176
     1
 90
        5
176
     1
 90
        0
176
     1
 90
        0
176
     1
290
     0
176
     1
 90
       13
176
     1
 40
0.0
176
     1
 90
        0
176
     1
290
     0
176
     1
290
     1
176
     1
290
     1
176
     1
290
     0
176
     1
290
     0
176
     1
290
     0
176
     1
290
     0
176
     1
290
     0
176
     1
290
     0
176
     1
 90
       50
176
     1
 40
0.0
176
     1
 40
1.0
176
     1
 90
        0
176
     1
 62
    18
420
        0
176
     1
 90
       50
176
     1
 90
        3
176
     1
 62
     5
420
      255
176
     1
290
     0
176
     1
 90
       50
176
     1
 90
       50
176
     1
 90
       50
176
     1
290
     0
176
     1
 90
       50
176
     1
 62
   256
176
     0
 40
1.0
176
     0
 90
        2
176
     1
  1
strokes_ogs.tif
176
     1
290
     0
176
     1
 40
1.0
176
     1
 40
1.0
176
     1
  0
VISUALSTYLE
  5
9B
102
{ACAD_REACTORS
330
99
102
}
330
99
100
AcDbVisualStyle
  2
FlatWithEdges
 70
     1
177
     3
291
     1
 70
    58
 90
        2
176
     1
 90
        1
176
     1
 90
        1
176
     1
 90
        2
176
     1
 40
0.6
176
     1
 40
30.0
176
     1
 62
     7
420
 16777215
176
     1
 90
        1
176
     1
 90
        0
176
     1
 62
     7
176
     1
 62
   257
176
     1
 90
        1
176
     1
 90
        1
176
     1
 40
1.0
176
     1
 90
        0
176
     1
 62
   257
176
     1
 40
1.0
176
     1
 90
        1
176
     1
 90
        6
176
     1
 90
        2
176
     1
 62
     7
176
     1
 90
        5
176
     1
 90
        0
176
     1
 90
        0
176
     1
290
     0
176
     1
 90
       13
176
     1
 40
0.0
176
     1
 90
        0
176
     1
290
     0
176
     1
290
     1
176
     1
290
     1
176
     1
290
     0
176
     1
290
     0
176
     1
290
     0
176
     1
290
     0
176
     1
290
     0
176
     1
290
     0
176
     1
 90
       50
176
     1
 40
0.0
176
     1
 40
1.0
176
     1
 90
        0
176
     1
 62
    18
420
        0
176
     1
 90
       50
176
     1
 90
        3
176
     1
 62
     5
420
      255
176
     1
290
     0
176
     1
 90
       50
176
     1
 90
       50
176
     1
 90
       50
176
     1
290
     0
176
     1
 90
       50
176
     1
 62
   256
176
     0
 40
1.0
176
     0
 90
        2
176
     1
  1
strokes_ogs.tif
176
     1
290
     0
176
     1
 40
1.0
176
     1
 40
1.0
176
     1
  0
VISUALSTYLE
  5
9C
102
{ACAD_REACTORS
330
99
102
}
330
99
100
AcDbVisualStyle
  2
Gouraud
 70
     2
177
     3
291
     1
 70
    58
 90
        2
176
     1
 90
        2
176
     1
 90
        1
176
     1
 90
        2
176
     1
 40
0.6
176
     1
 40
30.0
176
     1
 62
     7
420
 16777215
176
     1
 90
        0
176
     1
 90
        0
176
     1
 62
     7
176
     1
 62
   257
176
     1
 90
        1
176
     1
 90
        1
176
     1
 40
1.0
176
     1
 90
        0
176
     1
 62
     7
176
     1
 40
1.0
176
     1
 90
        1
176
     1
 90
        6
176
     1
 90
        2
176
     1
 62
     7
176
     1
 90
        5
176
     1
 90
        0
176
     1
 90
        0
176
     1
290
     0
176
     1
 90
       13
176
     1
 40
0.0
176
     1
 90
        0
176
     1
290
     0
176
     1
290
     1
176
     1
290
     1
176
     1
290
     0
176
     1
290
     0
176
     1
290
     0
176
     1
290
     0
176
     1
290
     0
176
     1
290
     0
176
     1
 90
       50
176
     1
 40
0.0
176
     1
 40
1.0
176
     1
 90
        0
176
     1
 62
    18
420
        0
176
     1
 90
       50
176
     1
 90
        3
176
     1
 62
     5
420
      255
176
     1
290
     0
176
     1
 90
       50
176
     1
 90
       50
176
     1
 90
       50
176
     1
290
     0
176
     1
 90
       50
176
     1
 62
   256
176
     0
 40
1.0
176
     0
 90
        2
176
     1
  1
strokes_ogs.tif
176
     1
290
     0
176
     1
 40
1.0
176
     1
 40
1.0
176
     1
  0
VISUALSTYLE
  5
9D
102
{ACAD_REACTORS
330
99
102
}
330
99
100
AcDbVisualStyle
  2
GouraudWithEdges
 70
     3
177
     3
291
     1
 70
    58
 90
        2
176
     1
 90
        2
176
     1
 90
        1
176
     1
 90
        2
176
     1
 40
0.6
176
     1
 40
30.0
176
     1
 62
     7
420
 16777215
176
     1
 90
        1
176
     1
 90
        0
176
     1
 62
     7
176
     1
 62
   257
176
     1
 90
        1
176
     1
 90
        1
176
     1
 40
1.0
176
     1
 90
        0
176
     1
 62
   257
176
     1
 40
1.0
176
     1
 90
        1
176
     1
 90
        6
176
     1
 90
        2
176
     1
 62
     7
176
     1
 90
        5
176
     1
 90
        0
176
     1
 90
        0
176
     1
290
     0
176
     1
 90
       13
176
     1
 40
0.0
176
     1
 90
        0
176
     1
290
     0
176
     1
290
     1
176
     1
290
     1
176
     1
290
     0
176
     1
290
     0
176
     1
290
     0
176
     1
290
     0
176
     1
290
     0
176
     1
290
     0
176
     1
 90
       50
176
     1
 40
0.0
176
     1
 40
1.0
176
     1
 90
        0
176
     1
 62
    18
420
        0
176
     1
 90
       50
176
     1
 90
        3
176
     1
 62
     5
420
      255
176
     1
290
     0
176
     1
 90
       50
176
     1
 90
       50
176
     1
 90
       50
176
     1
290
     0
176
     1
 90
       50
176
     1
 62
   256
176
     0
 40
1.0
176
     0
 90
        2
176
     1
  1
strokes_ogs.tif
176
     1
290
     0
176
     1
 40
1.0
176
     1
 40
1.0
176
     1
  0
VISUALSTYLE
  5
A1
102
{ACAD_REACTORS
330
99
102
}
330
99
100
AcDbVisualStyle
  2
Hidden
 70
     6
177
     3
291
     0
 70
    58
 90
        1
176
     1
 90
        2
176
     1
 90
        2
176
     1
 90
        0
176
     1
 40
0.6
176
     1
 40
30.0
176
     1
 62
     7
420
 16777215
176
     1
 90
        2
176
     1
 90
        2
176
     1
 62
     7
176
     1
 62
   257
176
     1
 90
        2
176
     1
 90
        1
176
     1
 40
40.0
176
     1
 90
        0
176
     1
 62
   257
176
     1
 40
1.0
176
     1
 90
        1
176
     1
 90
        6
176
     1
 90
        2
176
     1
 62
     7
176
     1
 90
        3
176
     1
 90
        0
176
     1
 90
        0
176
     1
290
     0
176
     1
 90
        1
176
     1
 40
0.0
176
     1
 90
        0
176
     1
290
     0
176
     1
290
     1
176
     1
290
     1
176
     1
290
     0
176
     1
290
     0
176
     1
290
     0
176
     1
290
     0
176
     1
290
     0
176
     1
290
     0
176
     1
 90
       50
176
     1
 40
0.0
176
     1
 40
1.0
176
     1
 90
        0
176
     1
 62
    18
420
        0
176
     1
 90
       50
176
     1
 90
        3
176
     1
 62
     5
420
      255
176
     1
290
     0
176
     1
 90
       50
176
     1
 90
       50
176
     1
 90
       50
176
     1
290
     0
176
     1
 90
       50
176
     1
 62
   256
176
     0
 40
1.0
176
     0
 90
        2
176
     1
  1
strokes_ogs.tif
176
     1
290
     0
176
     1
 40
1.0
176
     1
 40
1.0
176
     1
  0
VISUALSTYLE
  5
173
102
{ACAD_REACTORS
330
99
102
}
330
99
100
AcDbVisualStyle
  2
JitterOff
 70
    20
177
     3
291
     1
 70
    58
 90
        2
176
     0
 90
        2
176
     0
 90
        0
176
     0
 90
        0
176
     0
 40
0.6
176
     0
 40
30.0
176
     0
 62
     7
420
 16777215
176
     0
 90
        1
176
     0
 90
        4
176
     0
 62
     7
176
     0
 62
   257
176
     0
 90
        1
176
     0
 90
        1
176
     0
 40
1.0
176
     0
 90
       10
176
     2
 62
     7
176
     0
 40
1.0
176
     0
 90
        1
176
     0
 90
        6
176
     0
 90
        2
176
     0
 62
     7
176
     0
 90
        5
176
     0
 90
        0
176
     0
 90
        0
176
     0
290
     0
176
     0
 90
        1
176
     0
 40
0.0
176
     0
 90
        0
176
     0
290
     0
176
     1
290
     1
176
     1
290
     1
176
     1
290
     0
176
     1
290
     0
176
     1
290
     0
176
     1
290
     0
176
     1
290
     0
176
     1
290
     0
176
     1
 90
       50
176
     1
 40
0.0
176
     1
 40
1.0
176
     1
 90
        0
176
     1
 62
    18
420
        0
176
     1
 90
       50
176
     1
 90
        3
176
     1
 62
     5
420
      255
176
     1
290
     0
176
     1
 90
       50
176
     1
 90
       50
176
     1
 90
       50
176
     1
290
     0
176
     1
 90
       50
176
     1
 62
   256
176
     0
 40
1.0
176
     0
 90
        2
176
     1
  1
strokes_ogs.tif
176
     1
290
     0
176
     1
 40
1.0
176
     1
 40
1.0
176
     1
  0
VISUALSTYLE
  5
A7
102
{ACAD_REACTORS
330
99
102
}
330
99
100
AcDbVisualStyle
  2
Linepattern
 70
    14
177
     3
291
     1
 70
    58
 90
        2
176
     1
 90
        2
176
     1
 90
        1
176
     1
 90
        0
176
     1
 40
0.6
176
     1
 40
30.0
176
     1
 62
     7
420
 16777215
176
     1
 90
        1
176
     1
 90
        4
176
     1
 62
     7
176
     1
 62
   257
176
     1
 90
        7
176
     1
 90
        7
176
     1
 40
1.0
176
     1
 90
        8
176
     1
 62
     7
176
     1
 40
1.0
176
     1
 90
        1
176
     1
 90
        6
176
     1
 90
        2
176
     1
 62
     7
176
     1
 90
        5
176
     1
 90
        0
176
     1
 90
        0
176
     1
290
     0
176
     1
 90
        1
176
     1
 40
0.0
176
     1
 90
        0
176
     1
290
     0
176
     1
290
     1
176
     1
290
     1
176
     1
290
     0
176
     1
290
     0
176
     1
290
     0
176
     1
290
     0
176
     1
290
     0
176
     1
290
     0
176
     1
 90
       50
176
     1
 40
0.0
176
     1
 40
1.0
176
     1
 90
        0
176
     1
 62
    18
420
        0
176
     1
 90
       50
176
     1
 90
        3
176
     1
 62
     5
420
      255
176
     1
290
     0
176
     1
 90
       50
176
     1
 90
       50
176
     1
 90
       50
176
     1
290
     0
176
     1
 90
       50
176
     1
 62
   256
176
     0
 40
1.0
176
     0
 90
        2
176
     1
  1
strokes_ogs.tif
176
     1
290
     0
176
     1
 40
1.0
176
     1
 40
1.0
176
     1
  0
VISUALSTYLE
  5
174
102
{ACAD_REACTORS
330
99
102
}
330
99
100
AcDbVisualStyle
  2
OverhangOff
 70
    21
177
     3
291
     1
 70
    58
 90
        2
176
     0
 90
        2
176
     0
 90
        0
176
     0
 90
        0
176
     0
 40
0.6
176
     0
 40
30.0
176
     0
 62
     7
420
 16777215
176
     0
 90
        1
176
     0
 90
        4
176
     0
 62
     7
176
     0
 62
   257
176
     0
 90
        1
176
     0
 90
        1
176
     0
 40
1.0
176
     0
 90
        9
176
     2
 62
     7
176
     0
 40
1.0
176
     0
 90
        1
176
     0
 90
        6
176
     0
 90
        2
176
     0
 62
     7
176
     0
 90
        5
176
     0
 90
        0
176
     0
 90
        0
176
     0
290
     0
176
     0
 90
        1
176
     0
 40
0.0
176
     0
 90
        0
176
     0
290
     0
176
     1
290
     1
176
     1
290
     1
176
     1
290
     0
176
     1
290
     0
176
     1
290
     0
176
     1
290
     0
176
     1
290
     0
176
     1
290
     0
176
     1
 90
       50
176
     1
 40
0.0
176
     1
 40
1.0
176
     1
 90
        0
176
     1
 62
    18
420
        0
176
     1
 90
       50
176
     1
 90
        3
176
     1
 62
     5
420
      255
176
     1
290
     0
176
     1
 90
       50
176
     1
 90
       50
176
     1
 90
       50
176
     1
290
     0
176
     1
 90
       50
176
     1
 62
   256
176
     0
 40
1.0
176
     0
 90
        2
176
     1
  1
strokes_ogs.tif
176
     1
290
     0
176
     1
 40
1.0
176
     1
 40
1.0
176
     1
  0
VISUALSTYLE
  5
A3
102
{ACAD_REACTORS
330
99
102
}
330
99
100
AcDbVisualStyle
  2
Realistic
 70
     8
177
     3
291
     0
 70
    58
 90
        2
176
     1
 90
        3
176
     1
 90
        0
176
     1
 90
        2
176
     1
 40
0.6
176
     1
 40
30.0
176
     1
 62
     7
420
 16777215
176
     1
 90
        0
176
     1
 90
        0
176
     1
 62
     7
176
     1
 62
   257
176
     1
 90
        1
176
     1
 90
        1
176
     1
 40
1.0
176
     1
 90
        8
176
     1
 62
   257
176
     1
 40
1.0
176
     1
 90
        1
176
     1
 90
        6
176
     1
 90
        2
176
     1
 62
     7
176
     1
 90
        3
176
     1
 90
        0
176
     1
 90
        0
176
     1
290
     0
176
     1
 90
       13
176
     1
 40
0.0
176
     1
 90
        0
176
     1
290
     0
176
     1
290
     1
176
     1
290
     1
176
     1
290
     0
176
     1
290
     0
176
     1
290
     0
176
     1
290
     0
176
     1
290
     0
176
     1
290
     0
176
     1
 90
       50
176
     1
 40
0.0
176
     1
 40
1.0
176
     1
 90
        0
176
     1
 62
    18
420
        0
176
     1
 90
       50
176
     1
 90
        3
176
     1
 62
     5
420
      255
176
     1
290
     0
176
     1
 90
       50
176
     1
 90
       50
176
     1
 90
       50
176
     1
290
     0
176
     1
 90
       50
176
     1
 62
   256
176
     0
 40
1.0
176
     0
 90
        2
176
     1
  1
strokes_ogs.tif
176
     1
290
     0
176
     1
 40
1.0
176
     1
 40
1.0
176
     1
  0
VISUALSTYLE
  5
182
102
{ACAD_REACTORS
330
99
102
}
330
99
100
AcDbVisualStyle
  2
Shaded
 70
    27
177
     3
291
     0
 70
    58
 90
        2
176
     1
 90
        2
176
     1
 90
        1
176
     1
 90
        2
176
     1
 40
0.6
176
     1
 40
30.0
176
     1
 62
     7
420
 16777215
176
     1
 90
        0
176
     1
 90
        4
176
     1
 62
     7
176
     1
 62
   257
176
     1
 90
        1
176
     1
 90
        1
176
     1
 40
1.0
176
     1
 90
        8
176
     1
 62
   257
176
     1
 40
1.0
176
     1
 90
        1
176
     1
 90
        6
176
     1
 90
        2
176
     1
 62
     8
420
  7895160
176
     1
 90
        3
176
     1
 90
        0
176
     1
 90
        0
176
     1
290
     0
176
     1
 90
        5
176
     1
 40
0.0
176
     1
 90
        0
176
     1
290
     0
176
     1
290
     1
176
     1
290
     1
176
     1
290
     0
176
     1
290
     0
176
     1
290
     0
176
     1
290
     0
176
     1
290
     0
176
     1
290
     0
176
     1
 90
       50
176
     1
 40
0.0
176
     1
 40
1.0
176
     1
 90
        0
176
     1
 62
    18
420
        0
176
     1
 90
       50
176
     1
 90
        3
176
     1
 62
     5
420
      255
176
     1
290
     0
176
     1
 90
       50
176
     1
 90
       50
176
     1
 90
       50
176
     1
290
     0
176
     1
 90
       50
176
     1
 62
   256
176
     0
 40
1.0
176
     0
 90
        2
176
     1
  1
strokes_ogs.tif
176
     1
290
     0
176
     1
 40
1.0
176
     1
 40
1.0
176
     1
  0
VISUALSTYLE
  5
181
102
{ACAD_REACTORS
330
99
102
}
330
99
100
AcDbVisualStyle
  2
Shaded with edges
 70
    26
177
     3
291
     0
 70
    58
 90
        2
176
     1
 90
        2
176
     1
 90
        1
176
     1
 90
        2
176
     1
 40
0.6
176
     1
 40
30.0
176
     1
 62
     7
420
 16777215
176
     1
 90
        1
176
     1
 90
        2
176
     1
 62
     7
176
     1
 62
   257
176
     1
 90
        2
176
     1
 90
        1
176
     1
 40
1.0
176
     1
 90
        8
176
     1
 62
   257
176
     1
 40
1.0
176
     1
 90
        1
176
     1
 90
        6
176
     1
 90
        2
176
     1
 62
     7
176
     1
 90
        3
176
     1
 90
        0
176
     1
 90
        0
176
     1
290
     0
176
     1
 90
        5
176
     1
 40
0.0
176
     1
 90
        0
176
     1
290
     0
176
     1
290
     1
176
     1
290
     1
176
     1
290
     0
176
     1
290
     0
176
     1
290
     0
176
     1
290
     0
176
     1
290
     0
176
     1
290
     0
176
     1
 90
       50
176
     1
 40
0.0
176
     1
 40
1.0
176
     1
 90
        0
176
     1
 62
    18
420
        0
176
     1
 90
       50
176
     1
 90
        3
176
     1
 62
     5
420
      255
176
     1
290
     0
176
     1
 90
       50
176
     1
 90
       50
176
     1
 90
       50
176
     1
290
     0
176
     1
 90
       50
176
     1
 62
   256
176
     0
 40
1.0
176
     0
 90
        2
176
     1
  1
strokes_ogs.tif
176
     1
290
     0
176
     1
 40
1.0
176
     1
 40
1.0
176
     1
  0
VISUALSTYLE
  5
17E
102
{ACAD_REACTORS
330
99
102
}
330
99
100
AcDbVisualStyle
  2
Shades of Gray
 70
    23
177
     3
291
     0
 70
    58
 90
        2
176
     1
 90
        2
176
     1
 90
        3
176
     1
 90
        0
176
     1
 40
0.6
176
     1
 40
30.0
176
     1
 62
     7
420
 16777215
176
     1
 90
        2
176
     1
 90
        2
176
     1
 62
     7
176
     1
 62
     7
176
     1
 90
        1
176
     1
 90
        1
176
     1
 40
40.0
176
     1
 90
        8
176
     1
 62
     7
176
     1
 40
1.0
176
     1
 90
        1
176
     1
 90
        6
176
     1
 90
        2
176
     1
 62
     7
176
     1
 90
        3
176
     1
 90
        0
176
     1
 90
        0
176
     1
290
     0
176
     1
 90
        1
176
     1
 40
0.0
176
     1
 90
        0
176
     1
290
     0
176
     1
290
     1
176
     1
290
     1
176
     1
290
     0
176
     1
290
     0
176
     1
290
     0
176
     1
290
     0
176
     1
290
     0
176
     1
290
     0
176
     1
 90
       50
176
     1
 40
0.0
176
     1
 40
1.0
176
     1
 90
        0
176
     1
 62
    18
420
        0
176
     1
 90
       50
176
     1
 90
        3
176
     1
 62
     5
420
      255
176
     1
290
     0
176
     1
 90
       50
176
     1
 90
       50
176
     1
 90
       50
176
     1
290
     0
176
     1
 90
       50
176
     1
 62
   256
176
     0
 40
1.0
176
     0
 90
        2
176
     1
  1
strokes_ogs.tif
176
     1
290
     0
176
     1
 40
1.0
176
     1
 40
1.0
176
     1
  0
VISUALSTYLE
  5
17F
102
{ACAD_REACTORS
330
99
102
}
330
99
100
AcDbVisualStyle
  2
Sketchy
 70
    24
177
     3
291
     0
 70
    58
 90
        1
176
     1
 90
        2
176
     1
 90
        2
176
     1
 90
        0
176
     1
 40
0.6
176
     1
 40
30.0
176
     1
 62
     7
420
 16777215
176
     1
 90
        2
176
     1
 90
        2
176
     1
 62
     7
176
     1
 62
     7
176
     1
 90
        1
176
     1
 90
        1
176
     1
 40
40.0
176
     1
 90
       11
176
     1
 62
     7
176
     1
 40
1.0
176
     1
 90
        1
176
     1
 90
        6
176
     1
 90
        2
176
     1
 62
     7
176
     1
 90
        6
176
     1
 90
        0
176
     1
 90
        0
176
     1
290
     0
176
     1
 90
        1
176
     1
 40
0.0
176
     1
 90
        0
176
     1
290
     0
176
     1
290
     1
176
     1
290
     1
176
     1
290
     0
176
     1
290
     0
176
     1
290
     0
176
     1
290
     0
176
     1
290
     0
176
     1
290
     0
176
     1
 90
       50
176
     1
 40
0.0
176
     1
 40
1.0
176
     1
 90
        0
176
     1
 62
    18
420
        0
176
     1
 90
       50
176
     1
 90
        3
176
     1
 62
     5
420
      255
176
     1
290
     0
176
     1
 90
       50
176
     1
 90
       50
176
     1
 90
       50
176
     1
290
     0
176
     1
 90
       50
176
     1
 62
   256
176
     0
 40
1.0
176
     0
 90
        2
176
     1
  1
strokes_ogs.tif
176
     1
290
     0
176
     1
 40
1.0
176
     1
 40
1.0
176
     1
  0
VISUALSTYLE
  5
A6
102
{ACAD_REACTORS
330
99
102
}
330
99
100
AcDbVisualStyle
  2
Thicken
 70
    13
177
     3
291
     1
 70
    58
 90
        2
176
     1
 90
        2
176
     1
 90
        1
176
     1
 90
        0
176
     1
 40
0.6
176
     1
 40
30.0
176
     1
 62
     7
420
 16777215
176
     1
 90
        1
176
     1
 90
        4
176
     1
 62
     7
176
     1
 62
   257
176
     1
 90
        1
176
     1
 90
        1
176
     1
 40
1.0
176
     1
 90
       12
176
     1
 62
     7
176
     1
 40
1.0
176
     1
 90
        1
176
     1
 90
        6
176
     1
 90
        2
176
     1
 62
     7
176
     1
 90
        5
176
     1
 90
        0
176
     1
 90
        0
176
     1
290
     0
176
     1
 90
        1
176
     1
 40
0.0
176
     1
 90
        0
176
     1
290
     0
176
     1
290
     1
176
     1
290
     1
176
     1
290
     0
176
     1
290
     0
176
     1
290
     0
176
     1
290
     0
176
     1
290
     0
176
     1
290
     0
176
     1
 90
       50
176
     1
 40
0.0
176
     1
 40
1.0
176
     1
 90
        0
176
     1
 62
    18
420
        0
176
     1
 90
       50
176
     1
 90
        3
176
     1
 62
     5
420
      255
176
     1
290
     0
176
     1
 90
       50
176
     1
 90
       50
176
     1
 90
       50
176
     1
290
     0
176
     1
 90
       50
176
     1
 62
   256
176
     0
 40
1.0
176
     0
 90
        2
176
     1
  1
strokes_ogs.tif
176
     1
290
     0
176
     1
 40
1.0
176
     1
 40
1.0
176
     1
  0
VISUALSTYLE
  5
A0
102
{ACAD_REACTORS
330
99
102
}
330
99
100
AcDbVisualStyle
  2
Wireframe
 70
     5
177
     3
291
     0
 70
    58
 90
        0
176
     1
 90
        2
176
     1
 90
        0
176
     1
 90
        0
176
     1
 40
0.6
176
     1
 40
30.0
176
     1
 62
     7
420
 16777215
176
     1
 90
        1
176
     1
 90
        4
176
     1
 62
     7
176
     1
 62
   257
176
     1
 90
        1
176
     1
 90
        1
176
     1
 40
1.0
176
     1
 90
        0
176
     1
 62
   257
176
     1
 40
1.0
176
     1
 90
        1
176
     1
 90
        6
176
     1
 90
        2
176
     1
 62
     7
176
     1
 90
        3
176
     1
 90
        0
176
     1
 90
        0
176
     1
290
     0
176
     1
 90
        1
176
     1
 40
0.0
176
     1
 90
        0
176
     1
290
     0
176
     1
290
     1
176
     1
290
     1
176
     1
290
     0
176
     1
290
     0
176
     1
290
     0
176
     1
290
     0
176
     1
290
     0
176
     1
290
     0
176
     1
 90
       50
176
     1
 40
0.0
176
     1
 40
1.0
176
     1
 90
        0
176
     1
 62
    18
420
        0
176
     1
 90
       50
176
     1
 90
        3
176
     1
 62
     5
420
      255
176
     1
290
     0
176
     1
 90
       50
176
     1
 90
       50
176
     1
 90
       50
176
     1
290
     0
176
     1
 90
       50
176
     1
 62
   256
176
     0
 40
1.0
176
     0
 90
        2
176
     1
  1
strokes_ogs.tif
176
     1
290
     0
176
     1
 40
1.0
176
     1
 40
1.0
176
     1
  0
VISUALSTYLE
  5
180
102
{ACAD_REACTORS
330
99
102
}
330
99
100
AcDbVisualStyle
  2
X-Ray
 70
    25
177
     3
291
     0
 70
    58
 90
        2
176
     1
 90
        2
176
     1
 90
        1
176
     1
 90
        1
176
     1
 40
0.5
176
     1
 40
30.0
176
     1
 62
     7
420
 16777215
176
     1
 90
        1
176
     1
 90
        0
176
     1
 62
     7
176
     1
 62
   257
176
     1
 90
        1
176
     1
 90
        1
176
     1
 40
1.0
176
     1
 90
        8
176
     1
 62
     7
176
     1
 40
1.0
176
     1
 90
        1
176
     1
 90
        6
176
     1
 90
        2
176
     1
 62
     7
176
     1
 90
        3
176
     1
 90
        0
176
     1
 90
        0
176
     1
290
     0
176
     1
 90
       13
176
     1
 40
0.0
176
     1
 90
        0
176
     1
290
     0
176
     1
290
     1
176
     1
290
     1
176
     1
290
     0
176
     1
290
     0
176
     1
290
     0
176
     1
290
     0
176
     1
290
     0
176
     1
290
     0
176
     1
 90
       50
176
     1
 40
0.0
176
     1
 40
1.0
176
     1
 90
        0
176
     1
 62
    18
420
        0
176
     1
 90
       50
176
     1
 90
        3
176
     1
 62
     5
420
      255
176
     1
290
     0
176
     1
 90
       50
176
     1
 90
       50
176
     1
 90
       50
176
     1
290
     0
176
     1
 90
       50
176
     1
 62
   256
176
     0
 40
1.0
176
     0
 90
        2
176
     1
  1
strokes_ogs.tif
176
     1
290
     0
176
     1
 40
1.0
176
     1
 40
1.0
176
     1
  0
DICTIONARYVAR
  5
F0
102
{ACAD_REACTORS
330
66
102
}
330
66
100
DictionaryVariables
280
     0
  1
1:1
  0
DICTIONARYVAR
  5
EF
102
{ACAD_REACTORS
330
66
102
}
330
66
100
DictionaryVariables
280
     0
  1
Standard
  0
DICTIONARYVAR
  5
89
102
{ACAD_REACTORS
330
66
102
}
330
66
100
DictionaryVariables
280
     0
  1
Standard
  0
DICTIONARYVAR
  5
1B7
102
{ACAD_REACTORS
330
66
102
}
330
66
100
DictionaryVariables
280
     0
  1
Imperial24
  0
DICTIONARYVAR
  5
1B8
102
{ACAD_REACTORS
330
66
102
}
330
66
100
DictionaryVariables
280
     0
  1
Imperial24
  0
DICTIONARYVAR
  5
67
102
{ACAD_REACTORS
330
66
102
}
330
66
100
DictionaryVariables
280
     0
  1
2
  0
DICTIONARYVAR
  5
6B
102
{ACAD_REACTORS
330
66
102
}
330
66
100
DictionaryVariables
280
     0
  1
1
  0
DICTIONARYVAR
  5
14D
102
{ACAD_REACTORS
330
66
102
}
330
66
100
DictionaryVariables
280
     0
  1
0
  0
DICTIONARYVAR
  5
14E
102
{ACAD_REACTORS
330
66
102
}
330
66
100
DictionaryVariables
280
     0
  1
0
  0
DICTIONARY
  5
188
330
97
100
AcDbDictionary
280
     1
281
     1
  3
FBXASSET
360
189
  0
DICTIONARY
  5
186
330
96
100
AcDbDictionary
280
     1
281
     1
  3
FBXASSET
360
187
  0
DICTIONARY
  5
110
330
98
100
AcDbDictionary
280
     1
281
     1
  3
FBXASSET
360
18A
  0
DICTIONARY
  5
3061
330
87
100
AcDbDictionary
280
     1
281
     1
  3
ACAD_ROUNDTRIP_2008_TABLESTYLE_CELLSTYLEMAP
360
3062
  0
XRECORD
  5
189
102
{ACAD_REACTORS
330
188
102
}
330
188
100
AcDbXrecord
280
     1
 70
     1
 90
429727718
  1
508B35C9-AEE7-456F-BE74-D52651303AC6
310
504B03040A0000080000B670623B3DEE336E79000000790000001B0000006175746F6465736B2D64657369676E2D7061636B6167652E786D6C3C3F786D6C2076657273696F6E3D22312E302220656E636F64696E673D227574662D3822203F3E3C666F726D6174733E3C666F726D61743E687474703A2F2F736368656D612E
310
6175746F6465736B2E636F6D2F64657369676E2D7061636B6167652F323030393C2F666F726D61743E3C2F666F726D6174733E504B0304140006080800B670623BD486FD9CA0000000F4000000130000005B436F6E74656E745F54797065735D2E786D6C7D8EC10E82300C865F65E91D8A1E8C310C0EEA1BF002731658846E
310
D98AC1B77784ABF1D8FE5FBFBF75BBCE937A534CCEB38643598122B6FEE978D0B0485F9C41B54DDD7D022595594E1A469170414C76A4D9A4D207E29CF43ECE46F218070CC6BECC4078ACAA135ACF422C856C0E68EA1BF5669944DDD7BCDE7B1F8E415D77AECB980613C2E4AC91FC167A2B244592486606FC29C8FD7F045B9A
310
EF7053A7E60B504B0304140006080800B670623B28ED286BEB0000007C01000008000000636F72652E786D6C8D90416EC3201045AF82665B6183218D6D61A254764FD00B204C5C94182C03558F5F9C3852BBEB6A467FFE9B197D71FA9E6FE8CBACC17AD7012D0820E3B41FAD9B3A48F1826B40272956EFE32F1B20A766D3C1
310
268314D3EAD3B24BDABB685CCCAAF3A3D94515828980F42D371D04FD696655A814B3235C8B45E9AB9A4C419F5D8653B2237A1CB163DE672FD6AC209BF3C08E0D1B30EB19C3FC9D72FCC6EB231EFA33EDE96BDD341517E5064B11EDFCBCAF57A3A2194156843498524CAA0FCA5B7268F9E185D42D21A2DCEC7FA0B48CFF8492
310
759155FBBB0F2C80A4F991FB408A72CB22977B50B96EB9C91F504B0304140006080800B670623B55019EA25F0000007C00000007000000636E782E786D6C4DCB3B0E80201045D1AD90E915ED2CF8AC45050C11660C8261F98AB1B07AC9C97D42D718D865D3E909258CFD00CCE24AC6E326A164D74DC0B4128928FF32603847
310
2BA13128B1252AC747C6BAB984FC68F0B87FE8960A5C09FE86CFB69FBA01504B0304140006080800B670623B7BC41AC871010000D40300000C0000006662782F636F72652E786D6CC553ED6E8320147D15C2DF4501B56B6D90A64BBB27D80B50A5CE54C120983EFEAE1F4DD7A56BBA5FF3879273EEE59E7310BE393735EA95
310
ED2AA333CC428A91D2B9292A5D66D8BB63B0C26823B835C67D2BC348CB46657880B1E0A535BE9DA1DC68A7B403549B42CDA0EC3AE530CA6B5864B8CB3F552343E91D5474A7B095F949962A6421D0502778E72C0840D390E18DC5F170E664C205F7BE2A66B62A605A75AC94C522DDEEE3651AEF837817C741F2CE92E02D592D
310
83FD6ECB76EC7595A651C2C9D02CB8AB9A8BBADC2AE954814544691A3016D0E883256BBA58278B17BA5A53CAC9507ED3E4DBE2C9265F691747B3DCA9ADC382819091F8E1162272A8933DE82182932144F88C09DF060D8140C84E1EEA8B8F1340BDCA9DB1093085F157AA97B557309586747CD0EF0B4EA64E983A6E0EAEEFCE
310
889E9EF17847386AA94B30211D2C0FDE0D3AF9A4610EAD5536E8DD1969631B593F67E381C33F5157F17725E5A636F6BF1491F980C8FC7B90E13E8A2F504B0304140006080800B670623B70102A487D0000009D0000000B0000006662782F636E782E786D6C4DCCD10A83201886E15B91FFDC95A5C30335ACCDFB886521330D
310
A76397BF1A1DECE883878F57749FD5A3B74D2F17830472A901D9F088930B8B849267CC01754AA418F3DF0D5018572BE160506249B16C274D761E8BCFBB7A179E27F65CB39A0F14D396184C9921B81F34C3ACA1B4B99ABB6E6F062A25AA5F69DF23ACBE504B0304140006080800B670623B3610CA3329010000120200003100
310
00006662782F42384135303843342D343331462D343546312D424341352D3532343432364645413344462F636F72652E786D6C8D515B6EC32010BC0AE22B55850D0E446E848992B43E412FE000495162B07854397EA176A4F62F3F2C9A9D991D58BEBB8F37F0AD7D30CE76905418026DA553C65E3A98E219B510EC04F7CEC5
310
3F3408EC30EA0E16180A7EF12E4D0B249D8DDAC68C5AA7F4020E21E80881BCE54B0783FCD2E3500D296646B856D320AFC34557A4CAEDCC133C449F0380794839A138B47B86DB2345744D7A44594FD0E1B867883594369BFE63BF7EEF793D0B054FC9A8456E548E63CE46FB674D8A58F068C6477CE9F510B582A2C1F80D1182
310
70F349E816B32D65AFB8DD62CCEB42FF274A937A52948C8DEB66893BCB021484D7734370E5D2E9F608A3EF93F3119479ABA0E50B14B8C298119A43CCC4FCFCECB8A18B6388CEE7EF5D5D4F994BD86CBBA182D76543B9FCAE2FD7B24DF103504B0304140006080800B670623B1B8617914E0100003303000030000000666278
310
2F42384135303843342D343331462D343546312D424341352D3532343432364645413344462F636E782E786D6CD593C16EC32010447F0571AD6CE3D489D20813A9877E410FBD62D82434182CC055F3F75D1292E692438FBD206B7698593D61BEFD1E2DF982108D773D6D6B460938E5B571FB9ECE6957AD29D90A1EBC4F7736
310
4A9C1CA1A759A682EF839FA72269D8C9D92654AD71C72206887E0E0A22CAF926B15E498B01E0AA19451807D01A34B919F16B070157417138917400F2F6FA41FCF0092A45DEE414C19BDC21783E4BD39D891265658C3D8DEA00A3ACE59CBC8678ACB54CB26EEB6BD7839D7E9348BE70AD9C8321B9BCA7F9A4A26C542347DEE0
310
50F09802D22BA6749A800A394DD62899107273365E3C82CFC6A55557BC06C10774B7ABE7AEC3B0F34CF06446280E154026D0542C187BA9DAB6628BF7B6DBB0E5A65B3EB1F58631DE64BBE083F7B65CC218087E22CABB042E51D1F2268F1FE12B3EA24D40D63E9CFE00120194D60B9D5BC67FE6D39CDF37E20AF817881F504B
310
0304140006080800B670623BBFEF2E3B690500003C100000340000006662782F42384135303843342D343331462D343546312D424341352D3532343432364645413344462F6F626A656374732E786D6CAD575D739B3814FD2B0CFB0C98D84E931D4227B6938EA793B6534F3BFB90198F0099B001899144EAECAFDF231018B0
310
D37A3FFC609090EEE7B94757C1FB7D915B2F54C88CB31BDB7727B64559CC938CA53776A576CE956DBD0F03C1B9EA2DB32D460A7A63EB693B0C52C1ABD24C257447AA5C8D66EF177F5832A68CDA569C13296F6C193FD182B8A4523CA1F2D94D88226EBADBBBBEDB2C1C8A4D05299F46424B222853B014F30C52ACC6287F389C
310
D85E1878FA7B18E87FB36AFAF62AAFF667A83F635211161F291B8999FAB3D5DDC5FCDA99CF6653677679E13B8BFBC5CAF1DF4D27CBCBE5F2FAF6EE1A8AA51290642C117467871F101B91C581D77CEA2C36869F3229E68CD1B8F61F1ED6361B89092D294B90C78C4A68EB793D190E7D1D9BDEE7A91E1B95FDE9F3BCEAEFE809
310
6A6D6F9F7D4B79F4275C90E7A04248AA51D5C4C738DAE06F72885AC4796EBE65D22A88A22223B995679120E2D50EB1542F098381188D4EA111AE3DB043FF20AF6F2B4AE3D7D83D65E5AECA730D4D3BAC91BD05FEA992B565D95F549CD6069B90AB2A63EACA38A45E4B6A87D781574F86817E4C2FCCC72690D62E2729520E37
310
9BAF234797BAF6D62B3BFC781FED37BA1E4F2B2F052FA9501A3E80569BB8F6A9A364D4FA67654E6F803383981F82F21591FF84F23D9882BC896C3FDBCF8C162508933B2E0AE4C69DD43F6BD2BE38DDDBF10BF86CB4FA784D37F3AF16075E67EC9030DECA1FC0A55373F5DFF3378C591FA9BDF485C10B0A8C8BA909E5262639
310
A8E72163488806A595734C81CB77D1DE0ED7604A303B76913CEC0272F412782FF88EFF4636D8AA56DF7B322474C4B767303F625997056C7B032C473C592B36CEBD15F3F9FF5233B7ABCDC74D257624A60F8658567497B14CE1EC3C80B76FD02011038F9EE9EB0F2E12387A9C844D3F09855125116D1D731DF8B43D2CF4E0A0
310
79A020C6BE946BCE0B7EA1E1219331CD73C228AF5A2DDD31A4B1DA918CE91350854D40A71723140BFA92E94E62B0626016CEFA5864A50E5977E8753CEDBEE1CBB7F52780D20E17AF0BA0F5F9B02A3AD07DCC732EB6D1EBB661421BE0C39E21BABF0FE16D22EA6929407C8DE596724C88B749B6DB5512BC7B228ADFD7CB7EA6
310
3A22397E690BA8D5D8D4E40CEC8CDA23C2C0B7D5898640101CEC9C6D331CE328CB93CAFBBAC70A642DF70DF95155945B52F08AA973C23469FD69ADEF84F7BB18F983A8F8C90E37F5D35980B2139A1C523540813E824EF83448CF7C72B598CE97D7CEEDDDDD3B6736BFBC771677EF66CE6A7E7139F7A793E9EDF2B2B3A8B624
310
0CDA13AA5F8388264EC4A0129909F3B7F5A16CEDF08128E97D680ACA4B9BE7B7B58BB638F0B00700EF36AE8B32A705658A68F83EE897FC2B41573190D1CCAF0B92D233A47CFEB019D9809933F67DD1A5467F8CF69AD9A5AE859342D45355448C64F968A371DC2D596ADC6E43D93D1B466F877A64E2893E54F23C4B40388995
310
525E5005DA3983ED45412510D3EFCA13737B3863F74BD30F2A12E5B4B5E489A025CE25500DB855B11ACE5BBFA185D35DD48D8DC3CE7DC69F2944DB42AA6F6CF09BCA622ADD08C7A36E7C6AE18000BAB08E040135C2D21C9D75B3A91B77BB746C403F38018DFE6EC939DD92F16B40BC05294B9CDA035AAD6D330AE27FE4786B
310
8E45145EA34A75BE1C263A676A35A8ACC6297337400BF16C54EF515F3F77CB77EB3583889C754FFA29081AA98E2222ADEF05DA3E63D2EDEA8B8756C05A7FB6CABC4A91CBF325398202CC952E70A008A830324BA200D5E5EF8F5F04C75DB4B0EE3340E071C98B823333B83577596BF3849B69F2085AA0FAFA212F26BEFF5877
310
FDE622B28D88A42E49E43326DA82D31E8CB006401E1DA726059ECEC168F97A6599036306A135688F9AD2E61A6EA178F4CD51974A9F2CCB9F36FE5EBD14601068D9C3BF01504B0304140006080000B670623B000000000000000000000000350000006662782F42384135303843342D343331462D343546312D424341352D35
310
32343432364645413344462F76657274696365732E62696E504B0304140006080800B670623BF270F1330600000004000000360000006662782F42384135303843342D343331462D343546312D424341352D3532343432364645413344462F747269616E676C65732E62696E636660600000504B0304140006080000B67062
310
3B000000000000000000000000370000006662782F42384135303843342D343331462D343546312D424341352D3532343432364645413344462F617474726962757465732E62696E504B0304140006080800B670623B08DA0BD19000000041010000360000006662782F42384135303843342D343331462D343546312D4243
310
41352D3532343432364645413344462F6469726563746F72792E786D6C858F410AC3201045AF22B36F53E9A60B35CBEEBAE80D244E44489C6234F4F835464A48035D0DF398FF9F8AF63D0E6CC63039F212F8F9020C7D47C6792B21C5FE7403D62A1188E2E60C98D7234A5830286103A55745067B9D86B8A3CF9C7F90C11DE6
310
07FB144396D7B6A82D282E9A152AD114D5EF2CB866EEE831B8EEA07A7BB5A8D7D61A2BAAEB7FD5F70921FF497D00504B0304140006080800B670623B3B4606F3FE000000A00100003B0000006662782F42384135303843342D343331462D343546312D424341352D3532343432364645413344462F7265736F75726365732F
310
636F72652E786D6C8D504B6E833010BD0A9A6D65B08134808CA354A427E8052C332156828DFCA97AFC9A40A576D7CDCCE87D344F8F9FBEE647F689CE6B6B7A6039850C8DB2A336530F315C4903D94970676DF82583CCC8197B5861107C72362E3BA4AC096842428D1D7107A5F71820538F74F4E0D50D6799CB1892C2DFF345
310
AABB9C306779A2934E701F5C0A906D4FD609C2A1B7D129F4BCD858C163D4E3AED163FAA9AF1A1D88F67CA98E6D35906AA82A52BFB39ABCD5CD915C86331BD86BD3B665CD8BD52C78D0F34F46E550061C419494B6843142CB0F5677F4D0D58717DA7494F26295FF31C565FCA7296A13AA728FBBD93C0896823C09C18BB5AFB4
310
9E65A6BD762BBE01504B010214000A0000080000B670623B3DEE336E79000000790000001B00000000000000000000000000000000006175746F6465736B2D64657369676E2D7061636B6167652E786D6C504B01021400140006080800B670623BD486FD9CA0000000F40000001300000000000000000000000000B2000000
310
5B436F6E74656E745F54797065735D2E786D6C504B01021400140006080800B670623B28ED286BEB0000007C010000080000000000000000000000000083010000636F72652E786D6C504B01021400140006080800B670623B55019EA25F0000007C000000070000000000000000000000000094020000636E782E786D6C50
310
4B01021400140006080800B670623B7BC41AC871010000D40300000C00000000000000000000000000180300006662782F636F72652E786D6C504B01021400140006080800B670623B70102A487D0000009D0000000B00000000000000000000000000B30400006662782F636E782E786D6C504B01021400140006080800B6
310
70623B3610CA3329010000120200003100000000000000000000000000590500006662782F42384135303843342D343331462D343546312D424341352D3532343432364645413344462F636F72652E786D6C504B01021400140006080800B670623B1B8617914E010000330300003000000000000000000000000000D10600
310
006662782F42384135303843342D343331462D343546312D424341352D3532343432364645413344462F636E782E786D6C504B01021400140006080800B670623BBFEF2E3B690500003C10000034000000000000000000000000006D0800006662782F42384135303843342D343331462D343546312D424341352D35323434
310
32364645413344462F6F626A656374732E786D6C504B01021400140006080000B670623B0000000000000000000000003500000000000000000000000000280E00006662782F42384135303843342D343331462D343546312D424341352D3532343432364645413344462F76657274696365732E62696E504B010214001400
310
06080800B670623BF270F133060000000400000036000000000000000000000000007B0E00006662782F42384135303843342D343331462D343546312D424341352D3532343432364645413344462F747269616E676C65732E62696E504B01021400140006080000B670623B00000000000000000000000037000000000000
310
00000000000000D50E00006662782F42384135303843342D343331462D343546312D424341352D3532343432364645413344462F617474726962757465732E62696E504B01021400140006080800B670623B08DA0BD1900000004101000036000000000000000000000000002A0F00006662782F42384135303843342D3433
310
31462D343546312D424341352D3532343432364645413344462F6469726563746F72792E786D6C504B01021400140006080800B670623B3B4606F3FE000000A00100003B000000000000000000000000000E1000006662782F42384135303843342D343331462D343546312D424341352D3532343432364645413344462F72
310
65736F75726365732F636F72652E786D6C504B0506000000000E000E0080040000651100000000
  0
XRECORD
  5
187
102
{ACAD_REACTORS
330
186
102
}
330
186
100
AcDbXrecord
280
     1
 70
     1
 90
429727718
  1
887D55A9-D0DD-414E-B741-A7DCD4DA2B4C
310
504B03040A0000080000B670623B3DEE336E79000000790000001B0000006175746F6465736B2D64657369676E2D7061636B6167652E786D6C3C3F786D6C2076657273696F6E3D22312E302220656E636F64696E673D227574662D3822203F3E3C666F726D6174733E3C666F726D61743E687474703A2F2F736368656D612E
310
6175746F6465736B2E636F6D2F64657369676E2D7061636B6167652F323030393C2F666F726D61743E3C2F666F726D6174733E504B0304140006080800B670623BD486FD9CA0000000F4000000130000005B436F6E74656E745F54797065735D2E786D6C7D8EC10E82300C865F65E91D8A1E8C310C0EEA1BF002731658846E
310
D98AC1B77784ABF1D8FE5FBFBF75BBCE937A534CCEB38643598122B6FEE978D0B0485F9C41B54DDD7D022595594E1A469170414C76A4D9A4D207E29CF43ECE46F218070CC6BECC4078ACAA135ACF422C856C0E68EA1BF5669944DDD7BCDE7B1F8E415D77AECB980613C2E4AC91FC167A2B244592486606FC29C8FD7F045B9A
310
EF7053A7E60B504B0304140006080800B670623BBC1638F5EC0000007C01000008000000636F72652E786D6C8D90416EC3201045AF82665B61836BE2D8C24471DB9CA01740401C94182C03558F5F9C3852BBEB6A467FFE9B197D7EF89E6EE8CB2CC17AD7032D0820E394D7D68D3DA478C67B4007C117EFE32F1B202727D3C3
310
2A83E0E3E2D3BC49CABB685CCCAAF3DA6CA20CC14440EA969B1E82BA98491632C5EC08D76296EA2A4753D06797E194AC468F2356E77DF66CCD02825543D50CACC62D39ED70FDC68EB8FD68F6F8787A6784342D1DDA1D2F5758F068A7E77DB518198D065111D2624A31A93E69DD11D6D5EC85EC3B4278B9DAFF4069D6FF8492
310
75F1B5DADE7D600104CD8FDC0782976B16B9DC83CA75CD4DFC00504B0304140006080800B670623B55019EA25F0000007C00000007000000636E782E786D6C4DCB3B0E80201045D1AD90E915ED2CF8AC45050C11660C8261F98AB1B07AC9C97D42D718D865D3E909258CFD00CCE24AC6E326A164D74DC0B4128928FF326038
310
472BA13128B1252AC747C6BAB984FC68F0B87FE8960A5C09FE86CFB69FBA01504B0304140006080800B670623B3586FFB671010000D40300000C0000006662782F636F72652E786D6CC553ED6E8320147D15C2DF4541A76D6D90A6DDD627D80B50A4CE54C120983EFEAE1F4DD7A55BBA5FF3879273EEE59E7310B6393735EA
310
95ED2AA3731C851423A5A5292A5DE6D8BB63B0C268C39935C67D29C3488B46E578803167A535BE9D2169B453DA01AA4DA16650749D7218C91A1639EEE4876A4428BC838AEE14B6429E44A9C228041AEA38EB9C0501681A32BC313F1ECE8C4C3867DE57C5CC56054CAB8E95B298A7F12E5EEED224C8E87E11242FE936C8DE96
310
AB60BB7F4D295D66D12E5B30323473E6AAE6A24E5A259C2A308F29CD82280A68FC1E256B9AAE93F489AED694323294DF34F9B678B0C957DA3DC7B3DCA9ADC33C022123F1CD2D44E450277AD04338234388F01913BE0D1A0281909D38D4171F27807A259DB1093085F157AA17B557309586747CD0CF0B46A64E983A6E0EAEEF
310
CE881F9EF1FB8E70D44297604238581EBC1B74B249C31C5AAB6CD0BB33D2C636A27ECCC62F0EFF445DC5DF95244D6DEC7F2922F30191F9F720C37DE49F504B0304140006080800B670623B4220A0FF7D0000009D0000000B0000006662782F636E782E786D6C4DCCD10A83201886E15B91FFDCE542CB0335D0EC3E6259C84A
310
C3E9D8E5AF46073BFAE0E1E315DD675BD1DBA5978F41C2FD4600B9F088930F8B849267CC01754AA418F3DF0D50183727E164506249B1EC174D6E1ECB9A0F5D7D785E68DB8151CD286E5A5363CA6B8A39E90D36D40E96B086F55A43A544F52B1D7B86D517504B0304140006080800B670623B2FA3FEDE290100001202000031
310
0000006662782F45374635344235342D363743322D343832342D383044432D4334454645303536354442422F636F72652E786D6C8D515B6EC32010BC0AE22B55850D2E386E848994D7097A0117488A1283C5A3CAF10BB523B57FF961D1ECCCECC0F2ED7DBC816FED8371B687A4C210682B9D32F6D2C314CFA883602BB8772E
310
FEA141608751F7B0C050F08B77695A20E96CD43666D43AA5177008414708E42D5F7A18E4971E876A483133C2B59A06791D2EBA22556E679EE021FA1C00CC43CA09C5717D6274C7286AD7FB06D1AEA1A8C3873DDAD3E3E98859CB0EBB1DAF67A1E02919B5C88DCA71CCD968FFAC49110B1ECDF8882FBD1EA256503418BF2342
310
106E3E08DD60B6A1EC15771B8C795DE8FF4469524F8A92B1F1AD59E2CEB20005E1F5DC105CB9F4797B84D1F7C9F908CABC55D0F2050A5C61CC1AD2F27A26E6E767C7962E8E213A9FBF7775FDCC5CC266DB960A5E970DE5F2BBBE5CCB36C50F504B0304140006080800B670623B1B8617914E01000033030000300000006662
310
782F45374635344235342D363743322D343832342D383044432D4334454645303536354442422F636E782E786D6CD593C16EC32010447F0571AD6CE3D489D20813A9877E410FBD62D82434182CC055F3F75D1292E692438FBD206B7698593D61BEFD1E2DF982108D773D6D6B460938E5B571FB9ECE6957AD29D90A1EBC4F77
310
364A9C1CA1A759A682EF839FA72269D8C9D92654AD71C72206887E0E0A22CAF926B15E498B01E0AA19451807D01A34B919F16B070157417138917400F2F6FA41FCF0092A45DEE414C19BDC21783E4BD39D891265658C3D8DEA00A3ACE59CBC8678ACB54CB26EEB6BD7839D7E9348BE70AD9C8321B9BCA7F9A4A26C542347DE
310
E050F09802D22BA6749A800A394DD62899107273365E3C82CFC6A55557BC06C10774B7ABE7AEC3B0F34CF06446280E154026D0542C187BA9DAB6628BF7B6DBB0E5A65B3EB1F58631DE64BBE083F7B65CC218087E22CABB042E51D1F2268F1FE12B3EA24D40D63E9CFE00120194D60B9D5BC67FE6D39CDF37E20AF817881F50
310
4B0304140006080800B670623B29652116630500003C100000340000006662782F45374635344235342D363743322D343832342D383044432D4334454645303536354442422F6F626A656374732E786D6CAD575D739B3814FD2B0CFB0C989834C90EA1639B24E3E9A6EDD4D3CE3E64C623834CD8006224913AFDF57B040203
310
B65BEF871F0C12D2FD3CF7E8CA7FBFCB33E3957291B2E2D674ED8969D02262715A24B76625B7D6B569BC0F7CCE98EC2D338D82E4F4D654D366E0279C55A59E8AE99654991CCDDECFFF3444440B6A1A514684B83545F44C7362934AB2988A173B2692D8C97667BB76B3702836E1A47C1E092D09A78584A5982F20C5688C7287
310
C389E904BEA3BE07BEFAD7ABA6A75739B53F43FD69212429A20365233153D70BEF2E2E6FAC4BCF9B5ADEBB0BD79ADFCF43CBBD9A4E16EF168B9BD9DD0D140BC921495BC2E9D60C1E101B9E46BED37CEA2CD6861F3329624541A3DA7F7858DBAC25C6B4A4458C3CA654405BCFEBC970E8AAD8F43E4FD558ABEC4F9FE7557F47
310
4F506B7BFBEC5BCA367FC105710E2AB8A00A554D7CB4A30DFE26FBA86D18CBF4B75418399194A72433B274C3097F33032C554B027F2046A1932B842B0FCCC0DDCBEBDB8AD2F835768F59B9ADB24C41D30C6A64AF817F2A456D59FA83F2E3DA60137255A585BCD60EC9B7929AC18DEFD49381AF1ED30BFDB109A4B1CD488294
310
C3CDE6EBC8D185AABD6568061FEE37BB95AAC7E3CA4BCE4ACAA5820FA0D526AE7DAA2869B5EE5999531BE0CC20E6FBA07C41E43FA27CF7A6206F3CDD793B4F6B919C1462CB788EDCD893FA674CDA17AB7B3B7C019F8D561FAEE966FED562DFE98C1D12C6A9FC015C2A35D7FF3D7FC398F591DA4B5FE0BFA2C0189FEA50AE22
310
92817A1ED3020951A03432862970F976B33383259812CC8E5D240BBA801CBCF8CE2BBEE3BF910DB6AAD5F79E05123AE2DB33981FB1ACCB02B69D00CB014FD68AB573A7627EF9BFD4CC2C5C7D58557C4B22FAA88925A4DBB44825CECE3D78FB060D1231F0E885BE7D673C86A3874958F593906B5502D1563157814FDAC3420D
310
F69A070A22EC4B98E23CFF171A1E5311D12C23056555ABA53B8614563B92D17D02AAB009E8F46284624E5F53D5490C560CCCC2591FF1B45421EB0EBD8EA7ED13BE7C5D7E0428CD60FEF60779EB13E6664FF711CB185F6FDED60D139A001FF60CD1FD6D086F1D51474901E26B2CB794A343BC8ED3EDB612E0DD2351FCB65CF4
310
33D511C9E14B5B40ADC6A6263DB0336A8F700DDF56271A024E70B0B3629DE21847591E55DED73D56206AB927E46FAABC5C939C55853C274C93D69FD6FA4E78BF8B11DF898C9ECD60553FAD39283BA6F18984AA23E8884F83F45C5F5F859797B31B2B9C84A1E5B9DE9D35BFF25C6B76152E422F9C5DCC3D847F5801ED09D5AF
310
41441327A25FF15487F9EB725FB666F048A4701E9A827292E6F97569A32DF61DEC01C0BB8DCBBCCC684E0B49147C1FD54BF685A0AB18C868E6973949E819523E3DAC463660E68C7D9F55A9D1EFA3BD7A76A16AE1A810F95CE59B82A4D968A376DC2E8B44BBDD86B27B368CDE0ED548C7137DA860591A83706223A12CA712B4
310
7306DBF39C0A20A6DF95C7FAF670C6EED7A61F946493D1D6926782963813403548A78AE470DEF80D2D9CEAA26E4D1C76F60BFE74219A06527D6B82DF641A51616F703CAAC6A7160E08A00BEB4810A0274592A1B36E3675E36E978A0DE80727A0D6DF2D39A75BD27E0D8837276589537B40ABB56D5A41F48F1C6FCD3188C4EB
310
A6929D2FFB89CE995A4D00AE813BDD032DC48B56BD437DFDDC2DD7AED70C2272D63DE9A72068A45A92F0A4BE17A8A06B9366E16707AD80B1FC649459952097E74BB23805982B55E0401150A165964402AA8BDF9F3E7386BB686EDCA780C0D382E5392BF460A6EFB2C6EA1937D3F809B440D5F5435C4C5CF7A9EEFAF54564BD
310
2182DA24162F98680B4E7930C21A0079709CEAEB99A372305ABE0C0D7D6078105A83F6A0296DAEE1068A47DD1C55A9F4C9B2FC69E3EFD44B81028E963DF81B504B0304140006080000B670623B000000000000000000000000350000006662782F45374635344235342D363743322D343832342D383044432D433445464530
310
3536354442422F76657274696365732E62696E504B0304140006080800B670623BF270F1330600000004000000360000006662782F45374635344235342D363743322D343832342D383044432D4334454645303536354442422F747269616E676C65732E62696E636660600000504B0304140006080000B670623B00000000
310
0000000000000000370000006662782F45374635344235342D363743322D343832342D383044432D4334454645303536354442422F617474726962757465732E62696E504B0304140006080800B670623B08DA0BD19000000041010000360000006662782F45374635344235342D363743322D343832342D383044432D4334
310
454645303536354442422F6469726563746F72792E786D6C858F410AC3201045AF22B36F53E9A60B35CBEEBAE80D244E44489C6234F4F835464A48035D0DF398FF9F8AF63D0E6CC63039F212F8F9020C7D47C6792B21C5FE7403D62A1188E2E60C98D7234A5830286103A55745067B9D86B8A3CF9C7F90C11DE607FB144396
310
D7B6A82D282E9A152AD114D5EF2CB866EEE831B8EEA07A7BB5A8D7D61A2BAAEB7FD5F70921FF497D00504B0304140006080800B670623B6378F24DFF000000A00100003B0000006662782F45374635344235342D363743322D343832342D383044432D4334454645303536354442422F7265736F75726365732F636F72652E
310
786D6C8D504B6E833010BD0A9A6D65B0094E42641C85B639412F6099496225D8C89FAAC7AF09546A77DDCC8CDE47F3F4C4F16B7C149FE88371B603565228D06A37187BED20C50BD9437194C23B177FC9A0B06AC40E6618A4B87A97A615D2CE46B431A3D60DB8822A048C50E8473E3A08FA86A32A558A5911EEE5A4F45D5DB1
310
6465A6B34E8A107D0E502C4FE609D26370C96B0CA25A58295232C3AA3143FE692E063D485EF7F5AEE71BD2D2F39634AFFC44DAF7DD9E9CCE6F9CD25DCBFA762BAAD92C4534E34F46ED51451C40D694B6843142EB0FD61C283F34FC85EE0F948A6A96FF31A569F8A729191B37F51A77B105902C0779125254735F793DCBCC7B
310
EE567E03504B010214000A0000080000B670623B3DEE336E79000000790000001B00000000000000000000000000000000006175746F6465736B2D64657369676E2D7061636B6167652E786D6C504B01021400140006080800B670623BD486FD9CA0000000F40000001300000000000000000000000000B20000005B436F6E
310
74656E745F54797065735D2E786D6C504B01021400140006080800B670623BBC1638F5EC0000007C010000080000000000000000000000000083010000636F72652E786D6C504B01021400140006080800B670623B55019EA25F0000007C000000070000000000000000000000000095020000636E782E786D6C504B010214
310
00140006080800B670623B3586FFB671010000D40300000C00000000000000000000000000190300006662782F636F72652E786D6C504B01021400140006080800B670623B4220A0FF7D0000009D0000000B00000000000000000000000000B40400006662782F636E782E786D6C504B01021400140006080800B670623B2F
310
A3FEDE290100001202000031000000000000000000000000005A0500006662782F45374635344235342D363743322D343832342D383044432D4334454645303536354442422F636F72652E786D6C504B01021400140006080800B670623B1B8617914E010000330300003000000000000000000000000000D2060000666278
310
2F45374635344235342D363743322D343832342D383044432D4334454645303536354442422F636E782E786D6C504B01021400140006080800B670623B29652116630500003C10000034000000000000000000000000006E0800006662782F45374635344235342D363743322D343832342D383044432D4334454645303536
310
354442422F6F626A656374732E786D6C504B01021400140006080000B670623B0000000000000000000000003500000000000000000000000000230E00006662782F45374635344235342D363743322D343832342D383044432D4334454645303536354442422F76657274696365732E62696E504B01021400140006080800
310
B670623BF270F13306000000040000003600000000000000000000000000760E00006662782F45374635344235342D363743322D343832342D383044432D4334454645303536354442422F747269616E676C65732E62696E504B01021400140006080000B670623B0000000000000000000000003700000000000000000000
310
000000D00E00006662782F45374635344235342D363743322D343832342D383044432D4334454645303536354442422F617474726962757465732E62696E504B01021400140006080800B670623B08DA0BD190000000410100003600000000000000000000000000250F00006662782F45374635344235342D363743322D34
310
3832342D383044432D4334454645303536354442422F6469726563746F72792E786D6C504B01021400140006080800B670623B6378F24DFF000000A00100003B00000000000000000000000000091000006662782F45374635344235342D363743322D343832342D383044432D4334454645303536354442422F7265736F75
310
726365732F636F72652E786D6C504B0506000000000E000E0080040000611100000000
  0
XRECORD
  5
18A
102
{ACAD_REACTORS
330
110
102
}
330
110
100
AcDbXrecord
280
     1
 70
     0
 90
1778669749
  1
9BF507EE-FAF7-4A99-A33D-4EE51894BC40
310
504B03040A0000080000B670623B3DEE336E79000000790000001B0000006175746F6465736B2D64657369676E2D7061636B6167652E786D6C3C3F786D6C2076657273696F6E3D22312E302220656E636F64696E673D227574662D3822203F3E3C666F726D6174733E3C666F726D61743E687474703A2F2F736368656D612E
310
6175746F6465736B2E636F6D2F64657369676E2D7061636B6167652F323030393C2F666F726D61743E3C2F666F726D6174733E504B0304140006080800B670623BD486FD9CA0000000F4000000130000005B436F6E74656E745F54797065735D2E786D6C7D8EC10E82300C865F65E91D8A1E8C310C0EEA1BF002731658846E
310
D98AC1B77784ABF1D8FE5FBFBF75BBCE937A534CCEB38643598122B6FEE978D0B0485F9C41B54DDD7D022595594E1A469170414C76A4D9A4D207E29CF43ECE46F218070CC6BECC4078ACAA135ACF422C856C0E68EA1BF5669944DDD7BCDE7B1F8E415D77AECB980613C2E4AC91FC167A2B244592486606FC29C8FD7F045B9A
310
EF7053A7E60B504B0304140006080800B670623BCA089DFFEC0000007C01000008000000636F72652E786D6C8D90416E83301045AF62CDB632D8402020E32882F604BD80653BC44AB011B6AB1EBF262152BBEB6A467FFE9B197D76FA9EEFE84BAFDE38DB03CD08206DA553C64E3DC470C1474027CE56E7C22F1B202B66DDC3
310
260367D3EAE2B24BD2D9A06D48AA754AEFA2F05E0740F29E9A1EBCBCEA59642286E4F0B76C11F226269DD15797E0188D42CF2346A57DE662F40ABCAEC77628C6120F654571D50C04B7F5B9C1E3997CD4F550BE3745C3F20DE62C98F9755FAE5A04AD801784B498524C8A4F5A75E4D055873772EC0861F966FF03C545FD138A
310
C686B2D8DF7D621E384D8F3C069CE55B16A93C824A75CB8DFF00504B0304140006080800B670623B55019EA25F0000007C00000007000000636E782E786D6C4DCB3B0E80201045D1AD90E915ED2CF8AC45050C11660C8261F98AB1B07AC9C97D42D718D865D3E909258CFD00CCE24AC6E326A164D74DC0B4128928FF326038
310
472BA13128B1252AC747C6BAB984FC68F0B87FE8960A5C09FE86CFB69FBA01504B0304140006080800B670623B68FC0B7272010000D40300000C0000006662782F636F72652E786D6CC5535B6E833010BC8AE5DF0A6C1E8124328E22D29EA01770C0A128602363A31CBFCB234A53A555FA553EC09AD9F5CE8C31DB5DDA060D
310
D2F4B556190E7C8A9154852E6B5565D8D993B7C668C799D1DA7E29C3488956667884316795D1AE5BA0422B2B950554E9522EA0E87B69312A1A5864B82F3E642B7CE12C54F467BF13C55954D20F7CA0A18EB3DE1A1080E621E31BF3D3F1C2C88C73E65C5D2E6C5DC2B4FA544B8379921C36797888BC3C8A032F4E73EA6D927D
310
EA1DF6F42D49F2E8350D5346C666CE6CDD5ED515460A2B4BCC434A375E1078347C0FE22D5D6DE3D50B5D6F2965642CBF6B725DF96493AB958DC245EEDCD6631E809089F8E61622B2A81703E8219C913144F84C09DF070D8140C8561C9BAB8F3340832CAC363130A576376A108D933095FA747AD0CF0B46E64E983A6D0EAE1F
310
CE089F9EF1FB8E70D44255604258581E9D1D75B259C3125A278D37D80B52DAB4A279CEC62F0EFF44DDC43F9454E8469BFF5244960322CBEF41C6FBC83F01504B0304140006080800B670623B0F71DDB67E0000009D0000000B0000006662782F636E782E786D6C4DCCD10A83201886E15B91FFDCA54DB73F502386BB8F5816
310
32D3703976F9ABD1C18E3E78F87855FB990379BBFCF2296AE02706C4C5471A7C9C349475A408A4352AA7B4FEDD80C47E761A7606A3A69CCA72D0E0C6BE8475D3E0E3F3409428EA6B27A84079A782899AA2EC1A7AE3ECCC2FD858CB2D544655BFD2B67BD87C01504B0304140006080800B670623BE134B4FB28010000120200
310
00310000006662782F38353834323741342D343835462D343034322D383541392D4331303331363839454531452F636F72652E786D6C8D515B6EC32010BC0AE22B55850D0EA424C24451959EA0172086A42831583CAA1CBF503B52FB971F16CDCECC0EACD8DFC71BF836215AEF7A481A0C817183D7D65D7A98D3197108F652
310
04EFD31F1A044E8DA6871586525C82CFD3020DDE25E352419DD76601558C264130DCCAA58771F832A36A544E8511AFCDA486ABBA988634A55D7852C4144A00300FA927949C71DABD1D28A29C7D208A6987383B6CD13BC16BB2E1DBE3911C453B0BA5C8D9EA456E758963CFD684674DAA588A64C747FC2118958C86B2C3788B
310
0841B8FB247487D98EB257CC77188BB6D2FF89F2A49F1465EBD2BA5BE2CEB2082511EDDC9042FB7CBA3DC298FBE4430275DE2A9AE1054ADC60CC08E3A29D89E5F9C5714317C7987C28DFBBBA9E0A97B0D97643A568EB864AF95D5FA9759BF207504B0304140006080800B670623B1B8617914E010000330300003000000066
310
62782F38353834323741342D343835462D343034322D383541392D4331303331363839454531452F636E782E786D6CD593C16EC32010447F0571AD6CE3D489D20813A9877E410FBD62D82434182CC055F3F75D1292E692438FBD206B7698593D61BEFD1E2DF982108D773D6D6B460938E5B571FB9ECE6957AD29D90A1EBC4F
310
77364A9C1CA1A759A682EF839FA72269D8C9D92654AD71C72206887E0E0A22CAF926B15E498B01E0AA19451807D01A34B919F16B070157417138917400F2F6FA41FCF0092A45DEE414C19BDC21783E4BD39D891265658C3D8DEA00A3ACE59CBC8678ACB54CB26EEB6BD7839D7E9348BE70AD9C8321B9BCA7F9A4A26C542347
310
DEE050F09802D22BA6749A800A394DD62899107273365E3C82CFC6A55557BC06C10774B7ABE7AEC3B0F34CF06446280E154026D0542C187BA9DAB6628BF7B6DBB0E5A65B3EB1F58631DE64BBE083F7B65CC218087E22CABB042E51D1F2268F1FE12B3EA24D40D63E9CFE00120194D60B9D5BC67FE6D39CDF37E20AF817881F
310
504B0304140006080800B670623B5933D422630500003B100000340000006662782F38353834323741342D343835462D343034322D383541392D4331303331363839454531452F6F626A656374732E786D6CAD575B6FA33814FE2B887D0642934E9B156594264D158D3A534DD4D13E548A0C38942D60649B4EBABF7E3F8321
310
40924EF6928780CDF1B97EE762EFF32E4B8D37CA45C2F21BD3B547A641F39045491EDF98A5DC5AD7A6F1D9F73863B243661A39C9E88DA9B64DDF8B392B0BBD15D12D295339D85DDEFE618890E6D434C2940871638AF08566C426A5641115AF764424B1E3EDCE76ED9AB0CF36E6A47819302D08A7B984A6D8CFC1C5A89572FB
310
CB91E9F89EA3BEFB9EFAD754E3D3544E654F5F7E920B49F2F040D880CDD89D2CEE2E2EA7D6E56432B6269F2E5CEB7679BBB0DCABF168FE693E9FCEEEA6102C240727AD09A75BD3BF876F78127A4EFDA9D5582B7E4CA590E5390D2BFB6161A5B3E618D182E611E2985001691DAB47FDA5AB7CD3F93C566B2DB2BB7D9E55DD13
310
1D468DEECDB3AB290BFE8409E21C54704115AA6AFF68436BFC8DF65E0B184BF5B74418199194272435D224E084BF9B3E481589EFF5D828747285706581E9BB7B7E5D5D911ABFC6EE312DB7659A2A689A7E85EC0DF04FA5A8344BFEA2FCB834E8845895492EAFB541F2BDA0A63FF59C6AD3F7D4637CA13FD68E34B629891172
310
98597F1D183A57B9B75A98FE9765B05BAB7C3C2EBCE0ACA05C2AF8005A4DE09AA7F29216EB9E15397500C6F47CBE77CA7778FE2BD277AF0AE2C693DD6437D1522427B9D8329E2136F6A8FA19A3E6C56ADF0E5F50CF06D48734EDCEBF22F69C56D97EC138153F804B85E6FABFC7AFEFB32E523BE1F3BD372418E363EDCA7548
310
52949E8724474014288D94610BB57C1BEC4C7F854A89CA8E5324F55B871CBC78CE1BBEE3BFE68D6A5589EF3C730474506FCFA8FCF0659516D0ED04580EEA6425581B77CAE797FF4BCECC16EB2FEB926F49481F746159D06D922712BD730FDEAE42BD40F42C7AA5EF3F198F60E86110D6DD20645A9480B795CF95E3E3A659A8
310
C55E724F408873315335CFFB8584874484344D494E59D94869DB90C26A5B64F49C802CAC1D3ABE18A098D3B7444D123D8A9E5AE8F5214F0AE5B2B6E9B575DA3E61CBD3EA2B4009FA940524DD1305FB6A1FB294F14DF0BEA90BA109ECE1481FDC3FFAE8D60E75141700BE82725371B4873751B2DD960265F788137FACE6DD40
310
B575E4F0A5C99F46629D92131467A41EE11ABD8D4CCC039CA0AFB37C93A08B232B8F0AEFCA1E0A1015DF13FC83322B362463652ECF71D3A8B1A7D1BE65DE1D62C44F22C317D35F574FEB16153BA2D13E543D10A80E74C4A65E78A6B7CBCBD1D5DD9DB59C2DAFACC96C3AB566E3F1C29ADCDD5DBAD7D3C9ED7C822ED74F80A6
310
41755310DE4443F44A9E68373FADF6596BFA0F440AE7BECE2727AE9F4F2B1B53B1E7E00CF0DD1E5C65454A339A4BA2D0FBA05ED2EF0443458F47BDBFCA484CCFE0F2ED7E3DD0013B679C7B5499467F0ECEEADDB9CA85A34CE44B99053949D2C1416DB85DE4B136BB7165FBAC0B7AB3542BED4F8CA182A549847A1319316519
310
95A83A67147B9E5101C47487F2485F1ECE38FD568F839204296D3479219888530154036E6528FBFBC66F98E0D4107563A2D7D9AFF8D389681A08F58D89F22693900A3B407754734FC51C10C010D6D640809EE4718AC1BA3ED4AEDB53CA37283F68805A7E4B72CEB0A4EDEAD5DD8C14059A76AFAA56BA6901E13F32BC51C720
310
12AF41295B5BF61BAD3195181FB506E6B40F4C10AF5AF40EF9F5B159AE5DD1F43C72D635E94310D45C2D49785C5D0B94D3B54AB3C5A38349C0587D338AB48C11CBF339599C02CCA54A70A008A8D03C0B2201D5F9EFCF8F9CE12A9A19CB0410789EB32C63B95ECCF455D658BFE0621A3DA32C5075FB101723D77DAE867E7D0F
310
D90444509B44E2151B4DC2290B065803200FBAA9BE9D392A0603F2D5C2D00D6302A615680F66D2FA166E2079D4C551A54AB758161FCEFD4E450A14704CECFEDF504B0304140006080000B670623B000000000000000000000000350000006662782F38353834323741342D343835462D343034322D383541392D4331303331
310
363839454531452F76657274696365732E62696E504B0304140006080800B670623BF270F1330600000004000000360000006662782F38353834323741342D343835462D343034322D383541392D4331303331363839454531452F747269616E676C65732E62696E636660600000504B0304140006080000B670623B000000
310
000000000000000000370000006662782F38353834323741342D343835462D343034322D383541392D4331303331363839454531452F617474726962757465732E62696E504B0304140006080800B670623B08DA0BD19000000041010000360000006662782F38353834323741342D343835462D343034322D383541392D43
310
31303331363839454531452F6469726563746F72792E786D6C858F410AC3201045AF22B36F53E9A60B35CBEEBAE80D244E44489C6234F4F835464A48035D0DF398FF9F8AF63D0E6CC63039F212F8F9020C7D47C6792B21C5FE7403D62A1188E2E60C98D7234A5830286103A55745067B9D86B8A3CF9C7F90C11DE607FB1443
310
96D7B6A82D282E9A152AD114D5EF2CB866EEE831B8EEA07A7BB5A8D7D61A2BAAEB7FD5F70921FF497D00504B0304140006080800B670623BD9A3B367FE000000A00100003B0000006662782F38353834323741342D343835462D343034322D383541392D4331303331363839454531452F7265736F75726365732F636F7265
310
2E786D6C8D504B6E833010BD0A9A6D65B01D0201194711694FD00B586642AD043BF2A7EAF16B122AB5BB6E6646EFA3797AE2F8B5DC8A4FF4C1383B002B291468B59B8C9D0748F1420E501CA5F0CEC55F3228AC5A708015062966EFD27D83B4B3116DCCA875136EA00A012314FA968F0182FEC045952AC5AC08D7F2AEF455CD
310
58B232D3592745883E07289E4FD609D26370C96B0CA27AB252A464A64D63A6FCD35C0C7A904D73EE467EE664DCD58CD4ED4849D79C5A723ED1B7A61977AF2D6F45B59AA58866F9C9A83DAA8813484E6947182394BFB3BAA7FBBEDEBFD0434FA9A856F91F53BA4FFF342563E38E6F719FB60092E5200F428A6AED2BAF479979
310
AFDDCA6F504B010214000A0000080000B670623B3DEE336E79000000790000001B00000000000000000000000000000000006175746F6465736B2D64657369676E2D7061636B6167652E786D6C504B01021400140006080800B670623BD486FD9CA0000000F40000001300000000000000000000000000B20000005B436F6E
310
74656E745F54797065735D2E786D6C504B01021400140006080800B670623BCA089DFFEC0000007C010000080000000000000000000000000083010000636F72652E786D6C504B01021400140006080800B670623B55019EA25F0000007C000000070000000000000000000000000095020000636E782E786D6C504B010214
310
00140006080800B670623B68FC0B7272010000D40300000C00000000000000000000000000190300006662782F636F72652E786D6C504B01021400140006080800B670623B0F71DDB67E0000009D0000000B00000000000000000000000000B50400006662782F636E782E786D6C504B01021400140006080800B670623BE1
310
34B4FB280100001202000031000000000000000000000000005C0500006662782F38353834323741342D343835462D343034322D383541392D4331303331363839454531452F636F72652E786D6C504B01021400140006080800B670623B1B8617914E010000330300003000000000000000000000000000D3060000666278
310
2F38353834323741342D343835462D343034322D383541392D4331303331363839454531452F636E782E786D6C504B01021400140006080800B670623B5933D422630500003B10000034000000000000000000000000006F0800006662782F38353834323741342D343835462D343034322D383541392D4331303331363839
310
454531452F6F626A656374732E786D6C504B01021400140006080000B670623B0000000000000000000000003500000000000000000000000000240E00006662782F38353834323741342D343835462D343034322D383541392D4331303331363839454531452F76657274696365732E62696E504B01021400140006080800
310
B670623BF270F13306000000040000003600000000000000000000000000770E00006662782F38353834323741342D343835462D343034322D383541392D4331303331363839454531452F747269616E676C65732E62696E504B01021400140006080000B670623B0000000000000000000000003700000000000000000000
310
000000D10E00006662782F38353834323741342D343835462D343034322D383541392D4331303331363839454531452F617474726962757465732E62696E504B01021400140006080800B670623B08DA0BD190000000410100003600000000000000000000000000260F00006662782F38353834323741342D343835462D34
310
3034322D383541392D4331303331363839454531452F6469726563746F72792E786D6C504B01021400140006080800B670623BD9A3B367FE000000A00100003B000000000000000000000000000A1000006662782F38353834323741342D343835462D343034322D383541392D4331303331363839454531452F7265736F75
310
726365732F636F72652E786D6C504B0506000000000E000E0080040000611100000000
  0
CELLSTYLEMAP
  5
3062
102
{ACAD_REACTORS
330
3061
102
}
330
3061
100
AcDbCellStyleMap
 90
        3
300
CELLSTYLE
  1
TABLEFORMAT_BEGIN
 90
        5
170
     1
 91
        0
 92
    32768
 62
   257
 93
        1
300
CONTENTFORMAT
  1
CONTENTFORMAT_BEGIN
 90
        0
 91
        0
 92
      512
 93
        0
300

 40
0.0
140
1.0
 94
        5
 62
     0
340
11
144
0.25
309
CONTENTFORMAT_END
171
     1
301
MARGIN
  1
CELLMARGIN_BEGIN
 40
0.06
 40
0.06
 40
0.06
 40
0.06
 40
0.18
 40
0.18
309
CELLMARGIN_END
 94
        6
 95
        1
302
GRIDFORMAT
  1
GRIDFORMAT_BEGIN
 90
        0
 91
        1
 62
     0
 92
       -2
340
0
 93
        0
 40
0.045
309
GRIDFORMAT_END
 95
        2
302
GRIDFORMAT
  1
GRIDFORMAT_BEGIN
 90
        0
 91
        1
 62
     0
 92
       -2
340
0
 93
        0
 40
0.045
309
GRIDFORMAT_END
 95
        4
302
GRIDFORMAT
  1
GRIDFORMAT_BEGIN
 90
        0
 91
        1
 62
     0
 92
       -2
340
0
 93
        0
 40
0.045
309
GRIDFORMAT_END
 95
        8
302
GRIDFORMAT
  1
GRIDFORMAT_BEGIN
 90
        0
 91
        1
 62
     0
 92
       -2
340
0
 93
        0
 40
0.045
309
GRIDFORMAT_END
 95
       16
302
GRIDFORMAT
  1
GRIDFORMAT_BEGIN
 90
        0
 91
        1
 62
     0
 92
       -2
340
0
 93
        0
 40
0.045
309
GRIDFORMAT_END
 95
       32
302
GRIDFORMAT
  1
GRIDFORMAT_BEGIN
 90
        0
 91
        1
 62
     0
 92
       -2
340
0
 93
        0
 40
0.045
309
GRIDFORMAT_END
309
TABLEFORMAT_END
  1
CELLSTYLE_BEGIN
 90
        1
 91
        1
300
_TITLE
309
CELLSTYLE_END
300
CELLSTYLE
  1
TABLEFORMAT_BEGIN
 90
        5
170
     1
 91
        0
 92
        0
 62
   257
 93
        1
300
CONTENTFORMAT
  1
CONTENTFORMAT_BEGIN
 90
        0
 91
        0
 92
      512
 93
        0
300

 40
0.0
140
1.0
 94
        5
 62
     0
340
11
144
0.18
309
CONTENTFORMAT_END
171
     1
301
MARGIN
  1
CELLMARGIN_BEGIN
 40
0.06
 40
0.06
 40
0.06
 40
0.06
 40
0.18
 40
0.18
309
CELLMARGIN_END
 94
        6
 95
        1
302
GRIDFORMAT
  1
GRIDFORMAT_BEGIN
 90
        0
 91
        1
 62
     0
 92
       -2
340
0
 93
        0
 40
0.045
309
GRIDFORMAT_END
 95
        2
302
GRIDFORMAT
  1
GRIDFORMAT_BEGIN
 90
        0
 91
        1
 62
     0
 92
       -2
340
0
 93
        0
 40
0.045
309
GRIDFORMAT_END
 95
        4
302
GRIDFORMAT
  1
GRIDFORMAT_BEGIN
 90
        0
 91
        1
 62
     0
 92
       -2
340
0
 93
        0
 40
0.045
309
GRIDFORMAT_END
 95
        8
302
GRIDFORMAT
  1
GRIDFORMAT_BEGIN
 90
        0
 91
        1
 62
     0
 92
       -2
340
0
 93
        0
 40
0.045
309
GRIDFORMAT_END
 95
       16
302
GRIDFORMAT
  1
GRIDFORMAT_BEGIN
 90
        0
 91
        1
 62
     0
 92
       -2
340
0
 93
        0
 40
0.045
309
GRIDFORMAT_END
 95
       32
302
GRIDFORMAT
  1
GRIDFORMAT_BEGIN
 90
        0
 91
        1
 62
     0
 92
       -2
340
0
 93
        0
 40
0.045
309
GRIDFORMAT_END
309
TABLEFORMAT_END
  1
CELLSTYLE_BEGIN
 90
        2
 91
        1
300
_HEADER
309
CELLSTYLE_END
300
CELLSTYLE
  1
TABLEFORMAT_BEGIN
 90
        5
170
     1
 91
        0
 92
        0
 62
   257
 93
        1
300
CONTENTFORMAT
  1
CONTENTFORMAT_BEGIN
 90
        0
 91
        0
 92
      512
 93
        0
300

 40
0.0
140
1.0
 94
        2
 62
     0
340
11
144
0.18
309
CONTENTFORMAT_END
171
     1
301
MARGIN
  1
CELLMARGIN_BEGIN
 40
0.06
 40
0.06
 40
0.06
 40
0.06
 40
0.18
 40
0.18
309
CELLMARGIN_END
 94
        6
 95
        1
302
GRIDFORMAT
  1
GRIDFORMAT_BEGIN
 90
        0
 91
        1
 62
     0
 92
       -2
340
0
 93
        0
 40
0.045
309
GRIDFORMAT_END
 95
        2
302
GRIDFORMAT
  1
GRIDFORMAT_BEGIN
 90
        0
 91
        1
 62
     0
 92
       -2
340
0
 93
        0
 40
0.045
309
GRIDFORMAT_END
 95
        4
302
GRIDFORMAT
  1
GRIDFORMAT_BEGIN
 90
        0
 91
        1
 62
     0
 92
       -2
340
0
 93
        0
 40
0.045
309
GRIDFORMAT_END
 95
        8
302
GRIDFORMAT
  1
GRIDFORMAT_BEGIN
 90
        0
 91
        1
 62
     0
 92
       -2
340
0
 93
        0
 40
0.045
309
GRIDFORMAT_END
 95
       16
302
GRIDFORMAT
  1
GRIDFORMAT_BEGIN
 90
        0
 91
        1
 62
     0
 92
       -2
340
0
 93
        0
 40
0.045
309
GRIDFORMAT_END
 95
       32
302
GRIDFORMAT
  1
GRIDFORMAT_BEGIN
 90
        0
 91
        1
 62
     0
 92
       -2
340
0
 93
        0
 40
0.045
309
GRIDFORMAT_END
309
TABLEFORMAT_END
  1
CELLSTYLE_BEGIN
 90
        3
 91
        2
300
_DATA
309
CELLSTYLE_END
  0
ENDSEC
  0
SECTION
  2
THUMBNAILIMAGE
 90
    16364
310
28000000B4000000550000000100080000000000C43B000000000000000000000001000000010000000000000000FF0000FFFF0000FF0000FFFF0000FF000000FF00FF00FFFFFF0080808000C0C0C0000000FF007F7FFF000000CC006666CC00000099004C4C990000007F003F3F7F0000004C0026264C00003FFF007F9FFF
310
000033CC00667FCC00002699004C5F9900001F7F003F4F7F0000134C00262F4C00007FFF007FBFFF000066CC006699CC00004C99004C729900003F7F003F5F7F0000264C0026394C0000BFFF007FDFFF000099CC0066B2CC00007299004C859900005F7F003F6F7F0000394C0026424C0000FFFF007FFFFF0000CCCC0066CC
310
CC00009999004C999900007F7F003F7F7F00004C4C00264C4C0000FFBF007FFFDF0000CC990066CCB200009972004C998500007F5F003F7F6F00004C3900264C420000FF7F007FFFBF0000CC660066CC990000994C004C997200007F3F003F7F5F00004C2600264C390000FF3F007FFF9F0000CC330066CC7F00009926004C
310
995F00007F1F003F7F4F00004C1300264C2F0000FF00007FFF7F0000CC000066CC6600009900004C994C00007F00003F7F3F00004C0000264C26003FFF00009FFF7F0033CC00007FCC6600269900005F994C001F7F00004F7F3F00134C00002F4C26007FFF0000BFFF7F0066CC000099CC66004C99000072994C003F7F0000
310
5F7F3F00264C0000394C2600BFFF0000DFFF7F0099CC0000B2CC66007299000085994C005F7F00006F7F3F00394C0000424C2600FFFF0000FFFF7F00CCCC0000CCCC66009999000099994C007F7F00007F7F3F004C4C00004C4C2600FFBF0000FFDF7F00CC990000CCB266009972000099854C007F5F00007F6F3F004C3900
310
004C422600FF7F0000FFBF7F00CC660000CC996600994C000099724C007F3F00007F5F3F004C2600004C392600FF3F0000FF9F7F00CC330000CC7F660099260000995F4C007F1F00007F4F3F004C1300004C2F2600FF000000FF7F7F00CC000000CC66660099000000994C4C007F0000007F3F3F004C0000004C262600FF00
310
3F00FF7F9F00CC003300CC667F0099002600994C5F007F001F007F3F4F004C0013004C262F00FF007F00FF7FBF00CC006600CC66990099004C00994C72007F003F007F3F5F004C0026004C263900FF00BF00FF7FDF00CC009900CC66B20099007200994C85007F005F007F3F6F004C0039004C264200FF00FF00FF7FFF00CC
310
00CC00CC66CC0099009900994C99007F007F007F3F7F004C004C004C264C00BF00FF00DF7FFF009900CC00B266CC0072009900854C99005F007F006F3F7F0039004C0042264C007F00FF00BF7FFF006600CC009966CC004C009900724C99003F007F005F3F7F0026004C0039264C003F00FF009F7FFF003300CC007F66CC00
310
260099005F4C99001F007F004F3F7F0013004C002F264C00333333005B5B5B0084848400ADADAD00D6D6D600FFFFFF00FAFAFAFAFAFAFAFAFAFAFAFAFAFAFAFAFAFAFAFAFAFAFAFAFAFAFAFAFAFAFAFAFAFA070707070707070707070707070707070707070707070707070707070707070707070707070707070707070707
310
0707070707070707070707070707070707070707070707070707070707070707070707070707070707070707070707070707070707070707070707070707070707070707FAFAFAFAFAFAFAFAFAFAFAFAFAFAFAFAFAFAFAFAFAFAFAFAFAFAFAFAFAFAFAFAFAFAFAFAFAFAFAFAFAFAFAFAFAFAFAFAFAFAFAFAFAFAFAFAFAFAFA
310
FAFAFAFAFAFAFAFA07FAFAFAFAFAFAFAFAFAFAFAFAFAFAFAFAFAFAFAFAFAFAFAFAFAFAFAFAFAFAFAFAFAFAFAFAFAFAFAFAFAFAFAFAFAFAFAFAFAFAFAFAFAFAFAFAFAFAFAFAFAFAFAFAFAFAFAFAFAFAFAFAFAFAFAFAFAFAFAFAFAFAFAFAFAFAFAFAFAFAFAFAFAFAFAFAFAFAFAFAFAFAFAFAFAFAFAFAFAFAFA07FAFAFAFAFAFA
310
FAFAFAFAFAFAFAFAFAFAFAFAFAFAFAFAFAFAFAFAFAFAFAFAFAFAFAFAFAFAFAFAFAFAFAFAFAFAFAFAFAFAFAFAFAFAFAFAFAFAFAFAFAFAFAFAFAFAFAFAFA07FAFAFAFAFAFAFAFAFAFAFAFAFAFAFAFAFAFAFAFAFAFAFAFAFAFAFAFAFAFAFAFAFAFAFAFAFAFAFAFAFAFAFAFAFAFAFAFAFAFAFAFAFAFAFAFAFAFAFAFAFAFAFAFAFA
310
FAFAFAFAFAFAFAFAFAFAFAFAFAFAFAFAFAFAFAFAFAFAFAFAFAFAFAFAFAFAFAFAFAFAFAFAFAFAFAFAFAFAFAFAFAFA07FAFAFAFAFAFAFAFAFAFAFAFAFAFAFAFAFAFAFAFAFAFAFAFAFAFAFAFAFAFAFAFAFAFAFAFAFAFAFAFAFAFAFAFAFAFAFAFAFAFAFAFAFAFAFAFAFAFAFAFAFAFAFAFAFAFAFA07FAFAFAFAFAFAFAFAFAFAFAFA
310
FAFAFAFAFAFAFAFAFAFAFAFAFAFAFAFAFAFAFAFAFAFAFAFAFAFAFAFAFAFAFAFAFAFAFAFAFAFAFAFAFAFAFAFAFAFAFAFAFAFAFAFAFAFAFAFAFAFAFAFAFAFAFAFAFAFAFAFAFAFAFAFAFAFAFAFAFAFAFAFAFAFAFAFAFAFAFAFAFAFAFAFAFAFAFAFAFAFAFA07FAFAFAFAFAFAFAFAFAFAFAFAFAFAFAFAFAFAFAFAFAFAFAFAFAFAFA
310
FAFAFAFAFAFAFAFAFAFAFAFAFAFAFAFAFAFAFAFAFAFAFAFAFAFAFAFAFAFAFAFAFAFAFAFAFAFAFAFA07FAFA070707070707070707070707070707070707070707070707070707070707070707070707070707070707070707070707070707070707FAFAFAFAFAFAFAFAFAFAFAFAFAFAFAFAFAFAFAFAFAFAFAFAFAFAFAFAFAFA
310
FAFAFAFAFAFAFAFAFAFAFAFAFAFAFAFAFAFAFAFAFAFAFAFAFA07FAFAFAFAFAFAFAFAFAFAFAFAFAFAFAFAFAFAFAFAFAFAFAFAFAFAFAFAFAFAFAFAFAFAFAFAFAFAFAFAFAFAFAFAFAFAFAFAFAFAFAFAFAFAFAFAFAFAFAFAFAFAFAFAFAFAFA07FAFA07070707070707070707070707070707070707070707070707070707070707
310
0707070707070707070707070707070707070707070707FAFAFAFAFAFAFAFAFAFAFAFAFAFAFAFAFAFAFAFAFAFAFAFAFAFAFAFAFAFAFAFAFAFAFAFAFAFAFAFAFAFAFAFAFAFAFAFAFAFAFAFAFAFAFA07FAFAFAFAFAFAFAFAFAFAFAFAFAFAFAFAFAFAFAFAFAFAFAFAFAFAFAFAFAFAFAFAFAFAFAFAFAFAFAFAFAFAFAFAFAFAFAFA
310
FAFAFAFAFAFAFAFAFAFAFAFAFAFAFAFAFAFAFA07FAFA070707070707070707070707070707070707070707070707070707070707070707070707070707070707070707070707070707070707FAFAFAFAFAFAFAFAFAFAFAFAFAFAFAFAFAFAFAFAFAFAFAFAFAFAFAFAFAFAFAFAFAFAFAFAFAFAFAFAFAFAFAFAFAFAFAFAFAFAFA
310
FAFAFAFA07FAFAFAFAFAFAFAFAFAFAFAFAFAFAFAFAFAFAFAFAFAFAFAFAFAFAFAFAFAFAFAFAFAFAFAFAFAFAFAFAFAFAFAFAFAFAFAFAFAFAFAFAFAFAFAFAFAFAFAFAFAFAFAFAFAFAFA07FAFAFAFAFAFAFAFAFAFAFAFAFAFAFAFAFAFAFAFAFAFAFAFAFAFAFAFAFAFAFAFAFAFAFAFAFAFAFAFAFAFAFAFAFAFAFAFAFAFAFAFAFAFA
310
FAFAFAFAFAFAFAFAFAFAFAFAFAFAFAFAFAFAFAFAFAFAFAFAFAFAFAFAFAFAFAFAFAFAFAFAFAFAFAFAFAFAFAFAFAFAFAFAFAFAFAFAFAFAFAFAFA07FAFAFAFAFAFAFAFAFAFAFAFAFAFAFAFAFAFAFAFAFAFAFAFAFAFAFAFAFAFAFAFAFAFAFAFAFAFAFAFAFAFAFAFAFAFAFAFAFAFAFAFAFAFAFAFAFAFAFAFAFAFAFAFAFAFAFA07FA
310
FAFAFAFAFAFAFAFAFAFAFAFAFAFAFAFAFAFAFAFAFAFAFAFAFAFAFAFAFAFAFAFAFAFAFAFAFAFAFAFAFAFAFAFAFAFAFAFAFAFAFAFAFAFAFAFAFAFAFAFAFAFAFAFAFAFAFAFAFAFAFAFAFAFAFAFAFAFAFAFAFAFAFAFAFAFAFAFAFAFAFAFAFAFAFAFAFAFAFAFAFAFAFAFAFAFAFAFAFAFA07FAFAFAFAFAFAFAFAFAFAFAFAFAFAFAFA
310
FAFAFAFAFAFAFAFAFAFAFAFAFAFAFAFAFAFAFAFAFAFAFAFAFAFAFAFAFAFAFAFAFAFAFAFAFAFAFAFAFAFAFAFAFAFAFAFAFAFAFA07FAFAFAFAFAFAFAFAFAFAFAFAFAFAFAFAFAFAFAFAFAFAFAFAFAFAFAFAFAFAFAFAFAFAFAFAFAFAFAFAFAFAFAFAFAFAFAFAFAFAFAFAFAFAFAFAFAFAFAFAFAFAFAFAFAFAFAFAFAFAFAFAFAFAFA
310
FAFAFAFAFAFAFAFAFAFAFAFAFAFAFAFAFAFAFAFAFAFAFAFAFAFAFAFAFAFAFAFAFAFAFAFA07FAFAFAFAFAFAFAFAFAFAFAFAFAFAFAFAFAFAFAFAFAFAFAFAFAFAFAFAFAFAFAFAFAFAFAFAFAFAFAFAFAFAFAFAFAFAFAFAFAFAFAFAFAFAFAFAFAFAFAFAFAFAFAFAFAFAFA07FAFAFAFAFAFAFAFAFAFAFAFAFAFAFAFAFAFAFAFAFAFA
310
FAFAFAFAFAFAFAFAFAFAFAFAFAFAFAFAFAFAFAFAFAFAFAFAFAFAFAFAFAFAFAFAFAFA03FAFAFAFAFAFAFAFAFAFAFAFAFAFAFAFAFAFAFAFAFAFAFAFAFAFAFAFAFAFAFAFAFAFAFAFAFAFAFAFAFAFAFAFAFAFAFAFAFAFAFAFAFAFA07FAFAFAFAFAFAFAFAFAFAFAFAFAFAFAFAFAFAFAFAFAFAFAFAFAFAFAFAFAFAFAFAFAFAFAFAFA
310
FAFAFAFAFAFAFAFAFAFAFAFAFAFAFAFAFAFAFAFAFAFAFAFAFAFAFAFAFAFA07FAFAFAFAFAFAFAFAFAFAFAFAFAFAFAFAFAFAFAFAFAFAFAFAFAFAFAFAFAFAFAFAFAFAFAFAFAFAFAFAFAFAFAFAFAFAFA030303030303030303030303030303030303030303030303FAFAFAFAFAFAFAFAFAFAFAFAFAFAFAFAFAFAFAFAFAFAFAFAFA
310
FAFAFAFAFAFAFAFAFAFAFAFAFAFAFA07FAFAFAFAFAFAFAFAFAFAFAFAFAFAFAFAFAFAFAFAFAFAFAFAFAFAFAFAFAFAFAFAFAFAFAFAFAFAFAFAFAFAFAFAFAFAFAFAFAFAFAFAFAFAFAFAFAFAFAFAFAFAFAFAFAFAFA07FAFAFAFAFAFAFAFAFAFAFAFAFAFAFAFAFAFAFAFAFAFAFAFAFAFAFAFAFAFAFAFAFAFAFAFAFAFAFAFAFAFAFA
310
FAFAFAFA03FAFAFAFAFAFAFAFA03FAFAFAFAFAFAFAFA0303FA0303FA03FAFAFAFAFAFAFAFAFAFAFAFAFAFAFAFAFAFAFAFAFAFAFAFAFAFAFAFAFAFAFAFAFAFAFAFAFAFAFA07FAFAFAFAFAFAFAFAFAFAFAFAFAFAFAFAFAFAFAFAFAFAFAFAFAFAFAFAFAFAFAFAFAFAFAFAFAFAFAFAFAFAFAFAFAFAFAFAFAFAFAFAFAFAFAFAFAFA
310
FAFAFAFAFAFAFAFAFA07FAFAFAFAFAFAFAFAFAFAFAFAFAFAFAFAFAFAFAFAFAFAFAFAFAFAFAFAFAFAFAFAFAFAFAFAFAFAFAFAFAFAFAFAFAFAFA03FAFAFAFAFAFAFAFAFAFAFAFAFAFAFAFAFA0303FA03036D66FAFAFAFAFAFAFAFAFAFAFAFAFAFAFAFAFAFAFAFAFAFAFAFAFAFAFAFAFAFAFAFAFAFAFAFAFAFAFA07FAFAFAFAFA
310
FAFAFAFAFAFAFAFAFAFAFAFAFAFAFAFAFAFAFAFAFAFAFAFAFAFAFAFAFAFAFAFAFAFAFAFAFAFAFAFAFAFAFAFAFAFAFAFAFAFAFAFAFAFAFAFAFAFAFAFAFAFA07FAFAFAFAFAFAFAFAFAFAFAFAFAFAFAFAFAFAFAFAFAFAFAFAFAFAFAFAFAFAFAFAFAFAFAFAFAFAFAFAFAFAFAFAFAFAFA03FAFAFAFAFAFAFAFAFAFAFAFAFAFAFAFA
310
FA0303FA03035666FAFAFAFAFAFAFAFAFAFAFAFAFAFAFAFAFAFAFAFAFAFAFAFAFAFAFAFAFAFAFAFAFAFAFAFAFAFAFA07FAFAFAFAFAFAFAFAFAFAFAFAFAFAFAFAFAFAFAFAFAFAFAFAFAFAFAFAFAFAFAFAFAFAFAFAFAFAFAFAFAFAFAFAFAFAFAFAFAFAFAFAFAFAFAFAFAFAFAFAFAFAFAFAFAFAFA07FAFAFAFAFAFAFAFAFAFAFA
310
FAFAFAFAFAFAFAFAFAFAFAFAFAFAFAFAFAFAFAFAFAFAFAFAFAFAFAFAFAFAFAFAFAFAFAFA03FAFAFAFAFAFAFAFAFAFAFAFAFAFAFAFAFA0303FA03666656FAFAFAFAFAFAFAFAFAFAFAFAFAFAFAFAFAFAFAFAFAFAFAFAFAFAFAFAFAFAFAFAFAFAFAFAFAFAFA07FAFAFAFAFAFAFAFAFAFAFAFAFAFAFAFAFAFAFAFAFAFAFAFAFAFA
310
FAFAFAFAFAFAFAFAFAFAFAFAFAFAFAFAFAFAFAFAFAFAFAFAFAFAFAFAFAFAFAFAFAFAFAFAFAFAFAFAFA07FAFAFAFAFAFAFAFAFAFAFAFAFAFAFAFAFAFAFAFAFAFAFAFAFAFAFAFAFAFAFAFAFAFAFAFAFAFAFAFAFAFAFAFAFAFAFA03FAFAFAFAFAFAFAFAFAFAFAFAFAFAFAFAFA0303FA0366666DFAFAFAFAFAFAFAFAFAFAFAFAFA
310
FAFAFAFAFAFAFAFAFAFAFAFAFAFAFAFAFAFAFAFAFAFAFAFAFAFA07FAFAFAFAFAFAFAFAFAFAFAFAFAFAFAFAFAFAFAFAFAFAFAFAFAFAFAFAFAFAFAFAFAFAFAFAFAFAFAFAFAFAFAFAFAFAFAFAFAFAFAFAFAFAFAFAFAFAFAFAFAFAFAFAFAFAFA07FAFAFAFAFAFAFAFAFAFAFAFAFAFAFAFAFAFAFAFAFAFAFAFAFAFAFAFAFAFAFAFA
310
FAFAFAFAFAFAFAFAFAFAFAFAFAFAFA03FAFAFAFAFAFAFAFAFAFAFAFAFAFAFAFAFA0303FA035603FAFAFAFAFAFAFAFAFAFAFAFAFAFAFAFAFAFAFAFAFAFAFAFAFAFAFAFAFAFAFAFAFAFAFAFAFAFAFAFA07FAFAFAFAFAFAFAFAFAFAFAFAFAFAFAFAFAFAFAFAFAFAFAFAFAFAFAFAFAFAFAFAFAFAFAFAFAFAFAFAFAFAFAFAFAFAFA
310
FAFAFAFAFAFAFAFAFAFAFAFAFAFAFAFAFAFAFAFA07FAFAFAFAFAFAFAFAFAFAFAFAFAFAFAFAFAFAFAFAFAFAFAFAFAFAFAFAFAFAFAFAFAFAFAFAFAFAFAFAFAFAFAFAFAFAFA03FAFAFAFAFAFAFAFAFAFAFAFAFAFAFAFAFA0303FA035666FAFAFAFAFAFAFAFAFAFAFAFAFAFAFAFAFAFAFAFAFAFAFAFAFAFAFAFAFAFAFAFAFAFAFA
310
FAFAFAFAFA07FAFAFAFAFAFAFAFAFAFAFAFAFAFAFAFAFAFAFAFAFAFAFAFAFAFAFAFAFAFAFAFAFAFAFAFAFAFAFAFAFAFAFAFAFAFAFAFAFAFAFAFAFAFAFAFAFAFAFAFAFAFAFAFAFAFAFA07FAFAFAFAFAFAFAFAFAFAFAFAFAFAFAFAFAFAFAFAFAFAFAFAFAFAFAFAFAFAFAFAFAFAFAFAFAFAFAFAFAFAFAFAFAFAFA03FAFAFAFAFA
310
FAFAFAFAFAFAFAFAFAFAFAFA0303FA035666FAFAFAFAFAFAFAFAFAFAFAFAFAFAFAFAFAFAFAFAFAFAFAFAFAFAFAFAFAFAFAFAFAFAFAFAFAFAFAFA07FAFAFAFAFAFAFAFAFAFAFAFAFAFAFAFAFAFAFAFAFAFAFAFAFAFAFAFAFAFAFAFAFAFAFAFAFAFAFAFAFAFAFAFAFAFAFAFAFAFAFAFAFAFAFAFAFAFAFAFAFAFAFAFAFAFAFA07
310
FAFAFAFAFAFAFAFAFAFAFAFAFAFAFAFAFAFAFAFAFAFAFAFAFAFAFAFAFAFAFAFAFAFAFAFAFAFAFAFAFAFAFAFAFAFAFA03FAFAFAFAFAFAFAFAFAFAFAFAFAFAFAFAFA0303FA036656FAFAFAFAFAFAFAFAFAFAFAFAFAFAFAFAFAFAFAFAFAFAFAFAFAFAFAFAFAFAFAFAFAFAFAFAFAFAFAFA07FAFAFAFAFAFAFAFAFAFAFAFAFAFAFA
310
FAFAFAFAFAFAFAFAFAFAFAFAFAFAFAFAFAFAFAFAFAFAFAFAFAFAFAFAFAFAFAFAFAFAFAFAFAFAFAFAFAFAFAFAFAFAFAFAFAFAFAFA07FAFAFAFAFAFAFAFAFAFAFAFAFAFAFAFAFAFAFAFAFAFAFAFAFAFAFAFAFAFAFAFAFAFAFAFAFAFAFAFAFAFAFAFAFAFAFA03FAFAFAFAFAFAFAFAFAFAFAFAFAFAFAFAFA0303FA03030303FAFA
310
FAFAFAFAFAFAFAFAFAFAFAFAFAFAFAFAFAFAFAFAFAFAFAFAFAFAFAFAFAFAFAFAFAFAFAFAFA07FAFAFAFAFAFAFAFAFAFAFAFAFAFAFAFAFAFAFAFAFAFAFAFAFAFAFAFAFAFAFAFAFAFAFAFAFAFAFAFAFAFAFAFAFAFAFAFAFAFAFAFAFAFAFAFAFAFAFAFAFAFAFAFAFAFAFA07FAFAFAFAFAFAFAFAFAFAFAFAFAFAFAFAFAFAFAFAFA
310
FAFAFAFAFAFAFAFAFAFAFAFAFAFAFAFAFAFAFAFAFAFAFAFAFAFA03FAFAFAFAFAFAFAFAFAFAFAFAFAFAFAFAFA0303FA0303FA03FAFAFAFAFAFAFAFAFAFAFAFAFAFAFAFAFAFAFAFAFAFAFAFAFAFAFAFAFAFAFAFAFAFAFAFAFAFAFA07FAFAFAFAFAFAFAFAFAFAFAFAFAFAFAFAFAFAFAFAFAFAFAFAFAFAFAFAFAFAFAFAFAFAFAFA
310
FAFAFAFAFAFAFAFAFAFAFAFAFAFAFAFAFAFAFAFAFAFAFAFAFAFAFAFAFAFAFA07FAFAFAFAFAFAFAFAFAFAFAFAFAFAFAFAFAFAFAFAFAFAFAFAFAFAFAFAFAFAFAFAFAFAFAFAFAFAFAFAFAFAFAFAFAFAFA03FAFAFAFAFAFAFAFAFAFAFAFAFAFAFAFAFA0303FA03036D66FAFAFAFAFAFAFAFAFAFAFAFAFAFAFAFAFAFAFAFAFAFAFA
310
FAFAFAFAFAFAFAFAFAFAFAFAFAFAFAFA07FAFAFAFAFAFAFAFAFAFAFAFAFAFAFAFAFAFAFAFAFAFAFAFAFAFAFAFAFAFAFAFAFAFAFAFAFAFAFAFAFAFAFAFAFAFAFAFAFAFAFAFAFAFAFAFAFAFAFAFAFAFAFAFAFAFAFA07FAFAFAFAFAFAFAFAFAFAFAFAFAFAFAFAFAFAFAFAFAFAFAFAFAFAFAFAFAFAFAFAFAFAFAFAFAFAFAFAFAFA
310
FAFAFAFAFA03FAFAFAFAFAFAFAFAFAFAFAFAFAFAFAFAFA0303FA03035666FAFAFAFAFAFAFAFAFAFAFAFAFAFAFAFAFAFAFAFAFAFAFAFAFAFAFAFAFAFAFAFAFAFAFAFAFAFAFA07FAFAFAFAFAFAFAFAFAFAFAFAFAFAFAFAFAFAFAFAFAFAFAFAFAFAFAFAFAFAFAFAFAFAFAFAFAFAFAFAFAFAFAFAFAFAFAFAFAFAFAFAFAFAFAFAFA
310
FAFAFAFAFAFAFAFAFAFA07FAFAFAFAFAFAFAFAFAFAFAFAFAFAFAFAFAFAFAFAFAFAFAFAFAFAFAFAFAFAFAFAFAFAFAFAFAFAFAFAFAFAFAFAFAFAFA03FAFAFAFAFAFAFAFAFAFAFAFAFAFAFAFAFA0303FA03666656FAFAFAFAFAFAFAFAFAFAFAFAFAFAFAFAFAFAFAFAFAFAFAFAFAFAFAFAFAFAFAFAFAFAFAFAFAFAFA07FAFAFAFA
310
FAFAFAFAFAFAFAFAFAFAFAFAFAFAFAFAFAFAFAFAFAFAFAFAFAFAFAFAFAFAFAFAFAFAFAFAFAFAFAFAFAFAFAFAFAFAFAFAFAFAFAFAFAFAFAFAFAFAFAFAFAFAFA07FAFAFAFAFAFAFAFAFAFAFAFAFAFAFAFAFAFAFAFAFAFAFAFAFAFAFAFAFAFAFAFAFAFAFAFAFAFAFAFAFAFAFAFAFAFAFA03FAFAFAFAFAFAFAFAFAFAFAFAFAFAFA
310
FAFA0303FA0354036DFAFAFAFAFAFAFAFAFAFAFAFAFAFAFAFAFAFAFAFAFAFAFAFAFAFAFAFAFAFAFAFAFAFAFAFAFAFAFA07FAFAFAFAFAFAFAFAFAFAFAFAFAFAFAFAFAFAFAFAFAFAFAFAFAFAFAFAFAFAFAFAFAFAFAFAFAFAFAFAFAFAFAFAFAFAFAFAFAFAFAFAFAFAFAFAFAFAFAFAFAFAFAFAFAFAFA07FAFAFAFAFAFAFAFAFAFA
310
FAFAFAFAFAFAFAFAFAFAFAFAFAFAFAFAFAFAFAFAFAFAFAFAFAFAFAFAFAFAFAFAFAFAFAFAFA03FAFAFAFAFAFAFAFAFAFAFAFAFAFAFAFAFA0303FA036A03FAFAFAFAFAFAFAFAFAFAFAFAFAFAFAFAFAFAFAFAFAFAFAFAFAFAFAFAFAFAFAFAFAFAFAFAFAFAFAFA07FAFAFAFAFAFAFAFAFAFAFAFAFAFAFAFAFAFAFAFAFAFAFAFAFA
310
FAFAFAFAFAFAFAFAFAFAFAFAFAFAFAFAFAFAFAFAFAFAFAFAFAFAFAFAFAFAFAFAFAFAFAFAFAFAFAFAFAFA07FAFAFAFAFAFAFAFAFAFAFAFAFAFAFA036656FAFAFAFAFAFAFAFAFAFAFAFAFAFAFAFAFAFAFAFAFAFAFAFAFAFAFAFAFA03FAFAFAFAFAFAFAFAFAFAFAFAFAFAFAFAFA0303FA036A6603FAFAFAFAFAFAFAFAFAFAFAFA
310
FAFAFAFAFAFAFAFAFAFAFAFAFAFAFAFAFAFAFAFAFAFAFAFAFAFAFA07FAFAFAFAFAFAFAFAFAFAFAFAFAFAFAFAFAFAFAFAFAFAFAFAFAFAFAFAFAFAFAFAFAFAFAFAFAFAFAFAFAFAFAFAFAFAFAFAFAFAFAFAFAFAFAFAFAFAFAFAFAFAFAFAFAFAFA07FAFAFAFAFAFAFAFAFAFAFAFAFAFA6D666A66035C5677FAFAFAFAFAFAFAFAFA
310
FAFAFAFAFAFAFAFAFAFAFAFAFAFAFAFA03FAFAFAFAFAFAFAFAFAFAFAFAFAFAFAFAFA0303FA035666FA03FAFAFAFAFAFAFAFAFAFAFAFAFAFAFAFAFAFAFAFAFAFAFAFAFAFAFAFAFAFAFAFAFAFAFAFAFAFA07FAFAFAFAFAFAFAFAFAFAFAFAFAFAFAFAFAFAFAFAFAFAFAFAFAFAFAFAFAFAFAFAFAFAFAFAFAFAFAFAFAFAFAFAFAFA
310
FAFAFAFAFAFAFAFAFAFAFAFAFAFAFAFAFAFAFAFAFA07FAFAFAFAFAFAFAFAFAFAFAFAFAFA5666FAFAFA7466035C6877FAFAFAFAFAFAFAFAFAFAFAFAFAFAFAFAFAFAFAFAFAFA03FAFAFAFAFAFAFAFAFAFAFAFAFAFAFAFAFA0303FA036656FAFA0303030303030303030303030303FAFAFAFAFAFAFAFAFAFAFAFAFAFAFAFAFAFA
310
FAFAFAFAFAFA07FAFAFAFAFAFAFAFAFAFAFAFAFAFAFAFAFAFAFAFAFAFAFAFAFAFAFAFAFAFAFAFAFAFAFAFAFAFAFAFAFAFAFAFAFAFAFAFAFAFAFAFAFAFAFAFAFAFAFAFAFAFAFAFAFAFAFA07FAFAFAFAFAFAFAFAFAFAFAFAFAFA6656FAFAFAFAFAFA7766035C686DFAFAFAFAFAFAFAFAFAFAFAFAFAFAFAFAFAFAFA03FAFAFAFA
310
FAFAFAFAFAFAFAFAFAFAFAFAFA0303FA03030303FAFAFAFAFAFAFAFAFAFAFAFAFAFAFAFAFAFAFAFAFAFAFAFAFAFAFAFAFAFAFAFAFAFAFAFAFAFAFA07FAFAFAFAFAFAFAFAFAFAFAFAFAFAFAFAFAFAFAFAFAFAFAFAFAFAFAFAFAFAFAFAFAFAFAFAFAFAFAFAFAFAFAFAFAFAFAFAFAFAFAFAFAFAFAFAFAFAFAFAFAFAFAFAFAFAFA
310
07FAFAFAFAFAFAFAFAFAFAFAFAFAFA666DFAFAFAFAFAFAFAFAFA77665C66686DFAFAFAFAFAFAFAFAFAFAFAFAFAFAFAFA03FAFAFAFAFAFAFAFAFAFAFAFAFAFAFAFAFA0303FA03036366FAFAFAFAFAF1F1F1F1F1F1F1F1F1F1FAFAFAFAFAFAFAFAFAFAFAFAFAFAFAFAFAFAFAFAFAFAFAFA07FAFAFAFAFAFAFAFAFAFAFAFAFAFA
310
FAFAFAFAFAFAFAFAFAFAFAFAFAFAFAFAFAFAFAFAFAFAFAFAFAFAFAFAFAFAFAFAFAFAFAFAFAFAFAFAFAFAFAFAFAFAFAFAFAFAFAFAFA07FAFAFAFAFAFAFAFAFAFAFAFAFA030303FAFAFAFAFAFAFAFAFAFAFAFA6D705C665463FAFAFAFAFAFAFAFAFAFAFAFAFA03FAFAFAFAFAFAFAFAFAFAFAFAFAFAFAFAFA0303FA03035666FA
310
FAFAFAFAF1F1F1F1F1F1F1F1F1F1FAFAFAFAFAFAFAFAFAFAFAFAFAFAFAFAFAFAFAFAFAFAFAFA07FAFAFAFAFAFAFAFAFAFAFAFAFAFAFAFAFAFAFAFAFAFAFAFAFAFAFAFAFAFAFAFAFAFAFAFAFAFAFAFAFAFAFAFAFAFAFAFAFAFAFAFAFAFAFAFAFAFAFAFAFAFAFAFAFAFAFA07FAFAFAFAFAFAFAFAFAFAFAFAFA03FAFAFAFAFAFA
310
FAFAFAFAFAFAFAFAFAFAFA6354665C706DFAFAFAFAFAFAFAFAFAFA03FAFAFAFAFAFAFAFAFAFAFAFAFAFAFAFAFA0303FA035C7068FAFAFAFAFAFAFAFAFAFAFAFAFAFAFAFAFAFAFAFAFAFAFAFAFAFAFAFAFAFAFAFAFAFAFAFAFAFAFA07FAFAFAFAFAFAFAFAFAFAFAFAFAFAFAFAFAFAFAFAFAFAFAFAFAFAFAFAFAFAFAFAFAFAFA
310
FAFAFAFAFAFAFAFAFAFAFAFAFAFAFAFAFAFAFAFAFAFAFAFAFAFAFAFAFAFAFAFA07FAFAFAFAFAFAFAFAFAFAFAFA745CFAFAFAFAFAFAFAFAFAFAFAFAFAFAFAFAFAFAFAFA6D68665C6677FAFAFAFAFAFAFA03FAFAFAFAFAFAFAFAFAFAFAFAFAFAFAFAFA0303FA037D5C77FAFAFAFAFAFAFAFAFAFAFAFAFAFAFAFAFAFAFAFAFAFA
310
FAFAFAFAFAFAFAFAFAFAFAFAFAFAFAFAFA07FAFAFAFAFAFAFAFAFAFAFAFAFAFAFAFAFAFAFAFAFAFAFAFAFAFAFAFAFAFAFAFAFAFAFAFAFAFAFAFAFAFAFAFAFAFAFAFAFAFAFAFAFAFAFAFAFAFAFAFAFAFAFAFAFAFAFA07FAFAFAFAFAFAFAFAFAFAFAFA6668FAFAFAFAFAFAFA1A271DFAFAFAFAFAFAFAFAFAFAFAFAFA6D685C03
310
6677FAFAFAFA03FAFAFAFAFAFAFAFAFAFAFAFAFAFAFAFAFA0303FA037F0377FAFAFAFAFAFAFAFAFAFAFAFAFAFAFAFAFAFAFAFAFAFAFAFAFAFAFAFAFAFAFAFAFAFAFAFAFAFAFA07FAFAFAFAFAFAFAFAFAFAFAFAFAFAFAFAFAFAFAFAFAFAFAFAFAFAFAFAFAFAFAFAFAFAFAFAFAFAFAFAFAFAFAFAFAFAFAFAFAFAFAFAFAFAFAFA
310
FAFAFAFAFAFAFAFAFAFAFA07FAFAFAFAFAFAFAFAFAFAFAFA5C6DFAFAFAFAFAFAFB1A13301A1DFAFAFAFAFAFAFAFAFAFAFAFAFAFA77685C036674FA03FAFAFAFAFAFAFAFAFAFAFAFAFAFAFAFAFA0303FA035603FAFAFAFAFAFAFAFAFAFAFAFAFAFAFAFAFAFAFAFAFAFAFAFAFAFAFAFAFAFAFAFAFAFAFAFAFAFAFAFA07FAFAFA
310
FAFAFAFAFAFAFAFAFAFAFAFAFAFAFAFAFAFAFAFAFAFAFAFAFAFAFAFAFAFAFAFAFAFAFAFAFAFAFAFAFAFAFAFAFAFAFAFAFAFAFAFAFAFAFAFAFAFAFAFAFAFAFAFA07FAFAFAFAFAFAFAFAFAFAFA6D5CFAFAFAFAFAFAFA08FBFAFAFA133B1A1DFAFAFAFAFAFAFAFAFAFAFAFAFAFA77565C03036AFAFAFAFAFAFAFAFAFAFAFAFAFA
310
FAFAFA0303FA03565CFAFAFAFAFAFAFAFAFAFAFAFAFAFAFAFAFAFAFAFAFAFAFAFAFAFAFAFAFAFAFAFAFAFAFAFAFAFAFAFA07FAFAFAFAFAFAFAFAFAFAFAFAFAFAFAFAFAFAFAFAFAFAFAFAFAFAFAFAFAFAFAFAFAFAFAFAFAFAFAFAFAFAFAFAFAFAFAFAFAFAFAFAFAFAFAFAFAFAFAFAFAFAFAFAFAFAFA07FAFAFAFAFAFAFAFAFA
310
FAFA68035C66A9FAFAFAFAFCFCFAFCFAFAFAFA13243B13FAFAFAFAFAFAFAFAFAFAFAFAFAFAFA5666036656FAFAFAFAFAFAFAFAFAFAFAFAFA0303FA036870FAFAFAFAFAFAFAFAFAFAFAFAFAFAFAFAFAFAFAFAFAFAFAFAFAFAFAFAFAFAFAFAFAFAFAFAFAFAFAFA07FAFAFAFAFAFAFAFAFAFAFAFAFAFAFAFAFAFAFAFAFAFAFAFA
310
FAFAFAFAFAFAFAFAFAFAFAFAFAFAFAFAFAFAFAFAFAFAFAFAFAFAFAFAFAFAFAFAFAFAFAFAFAFAFAFAFAFAFA07FAFAFAFAFAFAFAFAFAFAFA5C74705C03036677FB0808FAFCFAFAFAFAFAFAFA1D043013FAFAFAFAFAFAFAFAFAFAFAFAFAFAFA6A66035C5677FAFAFAFAFAFAFAFAFA0303FA036656FAFAFAFAFAFAFAFAFAFAFAFA
310
FAFAFAFAFAFAFAFAFAFAFAFAFAFAFAFAFAFAFAFAFAFAFAFAFAFAFAFA07FAFAFAFAFAFAFAFAFAFAFAFAFAFAFAFAFAFAFAFAFAFAFAFAFAFAFAFAFAFAFAFAFAFAFAFAFAFAFAFAFAFAFAFAFAFAFAFAFAFAFAFAFAFAFAFAFAFAFAFAFAFAFAFAFAFAFA07FAFAFAFAFAFAFAFAFAFAFA010F1AF9FA685C03675575FB08FAFAFAFAFAFA
310
FA0404040404301DFAFAFAFAFAFAFAFAFAFAFAFAFAFAFA7466035C6877FAFAFAFAFAFA0303FA036663FAFA0303030303030303030303030303FAFAFAFAFAFAFAFAFAFAFAFAFAFAFAFAFAFAFAFAFAFAFAFA07FAFAFAFAFAFAFAFAFAFAFAFAFAFAFAFAFAFAFAFAFAFAFAFAFAFAFAFAFAFAFAFAFAFAFAFAFAFAFAFAFAFAFAFAFA
310
FAFAFAFAFAFAFAFAFAFAFAFAFAFAFAFAFAFAFAFAFAFA07FAFAFAFAFAFAFAFAFAFAFAFA1101010101010103FC03995F6DFAFAFAFAFAFA0404040404040404271DFAFAFAFAFAFAFAFAFAFAFAFAFAFAFA7766035C686DFAFAFA0303FA0303FAFA03FAFAFAFAFAF1F1F1F1F1F1F1F1FAFAFAFAFAFAFAFAFAFAFAFAFAFAFAFAFAFA
310
FAFAFAFAFAFAFA07FAFAFAFAFAFAFAFAFAFAFAFAFAFAFAFAFAFAFAFAFAFAFAFAFAFAFAFAFAFAFAFAFAFAFAFAFAFAFAFAFAFAFAFAFAFAFAFAFAFAFAFAFAFAFAFAFAFAFAFAFAFAFAFAFAFAFA07FAFAFAFAFAFAFAFAFAFAFAFAFAFAFAF90101FC0D9971FC030303666DFAFAFAFA040404FA0404040404041DFAFAFAFAFAFAFAFA
310
FAFAFAFAFAFAFAFA77665C66686D0303030303FA03FAFAFAFAFAFAF1F1F1F1F1F1F1F1FAFAFAFAFAFAFAFAFAFAFAFAFAFAFAFAFAFAFAFAFAFAFAFAFA07FAFAFAFAFAFAFAFAFAFAFAFAFAFAFAFAFAFAFAFAFAFAFAFAFAFAFAFAFAFAFAFAFAFAFAFAFAFAFAFAFAFAFAFAFAFAFAFAFAFAFAFAFAFAFAFAFAFAFAFAFAFAFAFAFAFA
310
FA07FAFAFAFAFAFAFAFAFAFAFAFAFAFAFAFAFAFAFC08995508FDFA686603036677FAFAFA03FA040404040404133B2413FAFAFAFAFAFAFAFAFAFAFAFAFAFAFAFA6D705C03030303030377FAFAFAFAFAFAFAFAFAFAFAFAFAFAFAFAFAFAFAFAFAFAFAFAFAFAFAFAFAFAFAFAFAFAFAFAFAFAFA07FAFAFAFAFAFAFAFAFAFAFAFAFA
310
FAFAFAFAFAFAFAFAFAFAFAFAFAFAFAFAFAFAFAFAFAFAFAFAFAFAFAFAFAFAFAFAFAFAFAFAFAFAFAFAFAFAFAFAFAFAFAFAFAFAFAFAFAFA07FAFAFAFAFAFAFAFAFAFAFAFAFAFAFAFAFAFA01FCE108FC08FAFAFAFA566603035C0303FAFAFA04040404FAFAFA1D1A3B13FAFAFAFAFAFAFAFAFAFAFAFAFAFAFAFA63545C03030303
310
035263FAFAFAFAFAFAFAFAFAFAFAFAFAFAFAFAFAFAFAFAFAFAFAFAFAFAFAFAFAFAFAFAFAFAFAFA07FAFAFAFAFAFAFAFAFAFAFAFAFAFAFAFAFAFAFAFAFAFAFAFAFAFAFAFAFAFAFAFAFAFAFAFAFAFAFAFAFAFAFAFAFAFAFAFAFAFAFAFAFAFAFAFAFAFAFAFAFAFAFAFAFAFAFA07FAFAFAFAFAFAFAFAFAFAFAFAFAFAFAFAFAFAFA
310
0D01FCFC010C11FAFAFAFAFA56030303646AFAFAFAFA04FAFAFAFAFAFA1D1A301A1A13FAFAFAFAFAFAFAFAFAFAFAFAFAFA6D685C0303030303646DFAFAFAFAFAFA030303030303030303030303030303030303FAFAFAFAFAFAFAFAFA07FAFAFAFAFAFAFAFAFAFAFAFAFAFAFAFAFAFAFAFAFAFAFAFAFAFAFAFAFAFAFAFAFAFA
310
FAFAFAFAFAFAFAFAFAFAFAFAFAFAFAFAFAFAFAFAFAFAFAFAFAFAFAFAFAFAFAFAFA07FAFAFAFAFAFAFAFAFAFAFAFAFAFAFAFAFAFAFAFAFAFAFA11010101010C1AFA6656FA6A5C03030356FAFAFAFAFAFAFAFAFAFA1D1B1A271A2713FAFAFAFAFAFAFAFAFAFAFAFAFAFA6D685C03030303646877FAFAFA03FAFAFAFAFAFAFAFA
310
FAFAFAFAFAFAFAFAFAFAFAFAFAFAFAFAFAFA07FAFAFAFAFAFAFAFAFAFAFAFAFAFAFAFAFAFAFAFAFAFAFAFAFAFAFAFAFAFAFAFAFAFAFAFAFAFAFAFAFAFAFAFAFAFAFAFAFAFAFAFAFAFAFAFAFAFAFAFAFAFAFAFAFAFAFA07FAFAFAFAFAFAFAFAFAFAFAFAFAFAFAFAFAFAFAFAFAFAFAFAFAFA130F01010101F227FAFAFA740303
310
036656FAFAFAFAFAFAFAFA08FBFAFA13271A2713FAFAFAFAFAFAFAFAFAFAFAFAFAFA77685C0303030364700303FAFAFAFAFAFAFAF1F1F1F1F1F1F1F1F1F1FAFAFAFAFAFAFAFAFA07FAFAFAFAFAFAFAFAFAFAFAFAFAFAFAFAFAFAFAFAFAFAFAFAFAFAFAFAFAFAFAFAFAFAFAFAFAFAFAFAFAFAFAFAFAFAFAFAFAFAFAFAFAFAFA
310
FAFAFAFAFAFAFAFAFAFAFAFA07FAFAFAFAFAFAFAFAFAFAFAFAFAFAFAFAFAFAFAFAFAFAFAFAFAFAFAFAFA6D4AF201010101F24A77FA775C03036668FAFAFAFAFAFCFCFAFAFAFAFA13271A2713FAFAFAFAFAFAFAFAFAFAFAFAFAFA77565C0303030303FAFAFAFAFAFAFAF1F1F1F1F1F1F1F1F1F1FAFAFAFAFAFAFAFAFA07FAFA
310
FAFAFAFAFAFAFAFAFAFAFAFAFAFAFAFAFAFAFAFAFAFAFAFAFAFAFAFAFAFAFAFAFAFAFAFAFAFAFAFAFAFAFAFAFAFAFAFAFAFAFAFAFAFAFAFAFAFAFAFAFAFAFAFAFA07FAFAFAFAFAFAFA0303030303030303030303030303030303030303030303FAFAFAFA27F2010101010F13FA6D6603036668FAFB0808FAFCFAFAFAFAFAFA
310
0404042713FAFAFAFAFAFAFAFAFAFAFAFAFAFAFA56660303FAFAFAFAFAFAFAFAFAFAFAF1F1F1F1F1F1FAFAFAFAFAFAFAFAFA07FAFAFAFAFAFAFAFAFAFAFAFAFAFAFAFAFAFAFAFAFAFAFAFAFAFAFAFAFAFAFAFAFAFAFAFAFAFAFAFAFAFAFAFAFAFAFAFAFAFAFAFAFAFAFAFAFAFAFAFAFAFAFAFAFAFAFA07FAFAFAFAFAFAFAFA
310
FAFAFAFAFAFAFAFAFAFAFAFAFAFAFAFAFAFAFAFAFAFAFAFAFAFAFA7764FA1A0C0101010111FA636603039908FBFB08FAFAFAFAFAFA04040404041A2713FAFAFAFAFAFAFAFAFAFAFAFAFAFA0303FAFAFAFAFAFAFAFAFAFAFAFAFAFAFAFAFAFAFAFAFAFAFAFAFAFA07FAFAFAFAFAFAFAFAFAFAFAFAFAFAFAFAFAFAFAFAFAFAFA
310
FAFAFAFAFAFAFAFAFAFAFAFAFAFAFAFAFAFAFAFAFAFAFAFAFAFAFAFAFAFAFAFAFAFAFAFAFAFAFAFAFAFAFAFA07FAFAFAFAFAFAF1F1F1F1F1FAFAFAFAFAFAFAFAFAFAFAFAFAFAFAFAFAFAFAFAFAFAFAFA03FAFAFAFAFAFA110C0101010C116D03FC03996977FAFAFAFA040404040404040404042713FAFAFAFAFAFAFAFAFAFA
310
FA0303FAFAFAFAFAFAFAFAFAFAFAFAFAFAFAFAFAFAFAFAFAFAFAFAFAFA07FAFAFAFAFAFAFAFAFAFAFAFAFAFAFAFAFAFAFAFAFAFAFAFAFAFAFAFAFAFAFAFAFAFAFAFAFAFAFAFAFAFAFAFAFAFAFAFAFAFAFAFAFAFAFAFAFAFAFAFAFAFAFAFAFAFAFA07FAFAFAFAFAFAF1F1F1F1F1FAFAFAFAFAFAFAFAFAFAFAFAFAFAFAFAFAFA
310
FAFAFAFAFA6477FAFAFAFAFAFAFAFAFAFAF40C0101FC9953FC03035C7077FAFAFA040404040404040404041A2713FAFAFAFAFAFAFAFA0303FAFAFAFAFAFAFAFAFAFAFAFAFAFAFAFAFAFAFAFAFAFAFAFAFAFA07FAFAFAFAFAFAFAFAFAFAFAFAFAFAFAFAFAFAFAFAFAFAFAFAFAFAFAFAFAFAFAFAFAFAFAFAFAFAFAFAFAFAFAFA
310
FAFAFAFAFAFAFAFAFAFAFAFAFAFAFAFAFAFAFAFAFAFAFA07FAFAFAFAFAFAFAFAFAFAFAFAFAFAFAFAFAFAFAFAFAFAFAFAFAFAFAFAFAFAFAFAFA5454FAFAFAFAFAFAFAFAFAFAFAFAFA0CFC08555308FD6D66030303666DFAFAFAFA0404040404FAFA13271A2713FAFAFAFAFA0303FAFAFAFAFAFAFAFAFAFAFAFAFAFAFAFAFAFA
310
FAFAFAFAFAFAFAFA07FAFAFAFAFAFAFAFAFAFAFAFAFAFAFAFAFAFAFAFAFAFAFAFAFAFAFAFAFAFAFAFAFAFAFAFAFAFAFAFAFAFAFAFAFAFAFAFAFAFAFAFAFAFAFAFAFAFAFAFAFAFAFAFAFAFAFA07FAFAFAFAFAFAFAFAFAFAFAFAFAFAFAFAFAFAFAFAFAFAFAFAFAFAFAFAFAFAFAFA7764FAFAFAFAFAFAFAFAFAFAFAFAFAFA0101
310
FC08FCFC08FAFAFA6D66030303666DFAFAFA040404FAFAFAFAFA13271A2713FCFA0303FAFAFAFAFAFAFAFAFAFAFAFAFAFAFAFAFAFAFAFAFAFAFAFAFAFA07FAFAFAFAFAFAFAFAFAFAFAFAFAFAFAFAFAFAFAFAFAFAFAFAFAFAFAFAFAFAFAFAFAFAFAFAFAFAFAFAFAFAFAFAFAFAFAFAFAFAFAFAFAFAFAFAFAFAFAFAFAFAFAFAFA
310
FAFA07FAFAFAFAFAFA030303030303030303030303030303030303030303030303030303FAFAFAFAFAFAFAFAFAFAFAFAFAFAFAFAFA1601FC01F213FAFAFAFAFA77705C03036663FAFAFAFAFAFAFAFAFAFAFA13031AFA0303FAFAFAFAFAFAFAFAFAFAFAFAFAFAFAFAFAFAFAFAFAFAFAFAFAFA07FAFAFAFAFAFAFAFAFAFAFAFA
310
FAFAFAFAFAFAFAFAFAFAFAFAFAFAFAFAFAFAFAFAFAFAFAFAFAFAFAFAFAFAFAFAFAFAFAFAFAFAFAFAFAFAFAFAFAFAFAFAFAFAFAFAFAFAFA07FAFAFAFAFAFAFAFAFAFAFAFAFAFAFAFAFAFAFAFAFAFAFAFAFAFAFAFAFAFAFAFAFAFAFAFAFAFAFAFAFAFAFAFAFAFAFAFAFA6656FAFA110101010C1DFAFAFAFAFA77685C0303666D
310
FAFAFAFAFAFAFAFAFA08FBFA0303FAFAFAFAFAFAFAFAFAFAFAFAFAFAFAFAFAFAFAFAFAFAFAFAFAFA07FAFAFAFAFAFAFAFAFAFAFAFAFAFAFAFAFAFAFAFAFAFAFAFAFAFAFAFAFAFAFAFAFAFAFAFAFAFAFAFAFAFAFAFAFAFAFAFAFAFAFAFAFAFAFAFAFAFAFAFAFAFAFAFAFAFAFA07FAFAFAFAFAFAF1F1F1F1F1F1F1F1F1F1F1F1
310
F1F1F1F1F1F1F1F1F1F1F1F1FAFAFAFAFAFAFAFAFAFAFAFAFAFAFAFAFAFA5666FAFAFAFAFAFA110101010C27FAFAFAFAFA77685C03036677FAFAFAFAFAFAFCFAFA030301FAFAFAFAFAFAFAFAFAFAFAFAFAFAFAFAFAFAFAFAFAFAFAFAFA07FAFAFAFAFAFAFAFAFAFAFAFAFAFAFAFAFAFAFAFAFAFAFAFAFAFAFAFAFAFAFAFAFA
310
FAFAFAFAFAFAFAFAFAFAFAFAFAFAFAFAFAFAFAFAFAFAFAFAFAFAFAFAFAFAFAFAFAFA07FAFAFAFAFAFAF1F1F1F1F1F1F1F1F1F1F1F1F1F1F1F1F1F1F1F1F1F1F1F1FAFAFAFAFAFAFAFAFAFAFAFAFAFAFAFAFA6D66FAFAFAFAFAFAFAFAFAFA380101010C1AFAFAFAFAFA77685C03035C77FAFAFBFCFAFAFC03FCFCFAFAFAFAFA
310
FAFAFAFAFAFAFAFAFAFAFAFAFAFAFAFAFAFAFA07FAFAFAFAFAFAFAFAFAFAFAFAFAFAFAFAFAFAFAFAFAFAFAFAFAFAFAFAFAFAFAFAFAFAFAFAFAFAFAFAFAFAFAFAFAFAFAFAFAFAFAFAFAFAFAFAFAFAFAFAFAFAFAFAFAFAFA07FAFAFAFAFAFA030303030303030303030303030303030303030303030303030303030303030303
310
030303030303030303FAFAFAFAFAFAFAFAFAFA6477FAFA110C01010C11FAFAFAFAFA77686603035C7308FAFCFCFC08FA01FAFAFAFAFAFAFAFAFAFAFAFAFAFAFAFAFAFAFAFAFAFAFA07FAFAFAFAFAFAFAFAFAFAFAFAFAFAFAFAFAFAFAFAFAFAFAFAFAFAFAFAFAFAFAFAFAFAFAFAFAFAFAFAFAFAFAFAFAFAFAFAFAFAFAFAFAFA
310
FAFAFAFAFAFAFAFAFAFAFAFAFA07FAFAFAFAFAFAFAFAFAFAFAFAFAFAFAFAFAFAFAFAFAFAFAFAFAFAFAFAFAFAFAFAFAFAFAFAFAFAFAFAFAFAFAFAFAFAFAFAFAFAFAFAFAFAFAFAFA5454FAFAFAFAFAFA1A0C010101F4FAFAFAFAFAFA565A034973FC9903FAFA01FAFAFAFAFAFAFAFAFAFAFAFAFAFAFAFAFAFAFAFAFAFAFA07FA
310
FAFAFAFAFAFAFAFAFAFAFAFAFAFAFAFAFAFAFAFAFAFAFAFAFAFAFAFAFAFAFAFAFAFAFAFAFAFAFAFAFAFAFAFAFAFAFAFAFAFAFAFAFAFAFAFAFAFAFAFAFAFAFAFAFAFA07FAFAFAFAFAFAF1F1F1F1F1F1F1F1F1F1F1F1F1F1F1FAFAFAFAFAFAFAFAFAFAFAFAFAFAFAFAFAFAFAFAFAFAFAFAFAFAFAFAFAFAFAFAFAFAFA7764FAFA
310
FAFAFAFAFAFAFAFA270C01010111FAFAFAFAFDFC534B4B0303FAFA0101FAFAFAFAFAFAFAFAFAFAFAFAFAFAFAFAFAFAFAFAFAFA07FAFAFAFAFAFAFAFAFAFAFAFAFAFAFAFAFAFAFAFAFAFAFAFAFAFAFAFAFAFAFAFAFAFAFAFAFAFAFAFAFAFAFAFAFAFAFAFAFAFAFAFAFAFAFAFAFAFAFAFAFAFAFAFAFAFAFA07FAFAFAFAFAFA03
310
0303030303030303030303030303030303030303030303030303030303030303030303030303030303030303030303030303FAFAFAFAFAFAFAFAFAFAFAFAFAFA1D0C01010111FAFD555299FC0303FAFAFA01FAFAFAFAFAFAFAFAFAFAFAFAFAFAFAFAFAFAFAFAFAFA07FAFAFAFAFAFAFAFAFAFAFAFAFAFAFAFAFAFAFAFAFAFA
310
FAFAFAFAFAFAFAFAFAFAFAFAFAFAFAFAFAFAFAFAFAFAFAFAFAFAFAFAFAFAFAFAFAFAFAFAFAFAFAFAFAFAFAFAFA07FAFAFAFAFAFAF1F1F1F1F1F1F1F1F1F1F1F1FAFAFAFAFAFAFAFAFAFAFAFAFAFAFAFAFAFAFAFAFAFAFAFAFAFAFAFAFAFAFAFAFAFAFAFAFAFAFAFAFAFAFAFAFAFAFAFAFAFAFAFAFAFAFAFA13F20101F00D55
310
08FC0303FAFAFA01FAFAFAFAFAFAFAFAFAFAFAFAFAFAFAFAFAFAFAFAFAFA07FAFAFAFAFAFAFAFAFAFAFAFAFAFAFAFAFAFAFAFAFAFAFAFAFAFAFAFAFAFAFAFAFAFAFAFAFAFAFAFAFAFAFAFAFAFAFAFAFAFAFAFAFAFAFAFAFAFAFAFAFAFAFAFAFAFAFA07FAFAFAFAFAFAF1F1F1F1F1F1F1F1F1F1F1F1FAFAFAFAFAFAFAFAFAFA
310
FAFAFAFAFAFAFAFAFAFAFAFAFAFAFAFAFAFAFAFAFAFAFAFAFAFAFAFAFAFAFAFAFAFAFAFAFAFAFAFAFAFAFAFAFAFAFA0342FA16F001FCFD0303FAFAFA01FAFAFAFAFAFAFAFAFAFAFAFAFAFAFAFAFAFAFAFAFAFA07FAFAFAFAFAFAFAFAFAFAFAFAFAFAFAFAFAFAFAFAFAFAFAFAFAFAFAFAFAFAFAFAFAFAFAFAFAFAFAFAFAFAFA
310
FAFAFAFAFAFAFAFAFAFAFAFAFAFAFAFAFAFAFAFAFAFAFAFA07FAFAFAFAFAFAFAFAFAFAFAFAFAFAFAFAFAFAFAFAFAFAFAFAFAFAFAFAFAFAFAFAFAFAFAFAFAFAFAFAFAFAFAFAFAFAFAFAFAFAFAFAFAFAFAFAFAFAFAFAFAFAFAFAFAFAFAFAFAFAFAFAFAFAFA4C4CFAFA1601FCFD0303FAFA0101FAFAFAFAFAFAFAFAFAFAFAFAFA
310
FAFAFAFAFAFAFAFAFA07FAFAFAFAFAFAFAFAFAFAFAFAFAFAFAFAFAFAFAFAFAFAFAFAFAFAFAFAFAFAFAFAFAFAFAFAFAFAFAFAFAFAFAFAFAFAFAFAFAFAFAFAFAFAFAFAFAFAFAFAFAFAFAFAFAFAFA07FAFAFAFAFAFA03030303030303030303030303030303030303030303030303030303030303030303030303030303030303
310
03030303030303030303030303030303030303030303030303FC111DFAF40116085D5A03FAFA01FAFAFAFAFAFAFAFAFAFAFAFAFAFAFAFAFAFAFAFAFAFAFA07FAFAFAFAFAFAFAFAFAFAFAFAFAFAFAFAFAFAFAFAFAFAFAFAFAFAFAFAFAFAFAFAFAFAFAFAFAFAFAFAFAFAFAFAFAFAFAFAFAFAFAFAFAFAFAFAFAFAFAFAFAFAFAFA
310
FAFAFA07FAFAFAFAFAFAF1F1F1F1F1F1F1F1F1F1F1F1F1F1F1F1F1F1F1F1F1F1F1FAFAFAFAFAFAFAFAFAFAFAFAFAFAFAFAFAFAFAFAFAFAFAFAFAFAFAFAFAFAFAFAFAFAFAFAFAFAFAFAFAFAFAFAFAFA1AFCFBFC01EB0808FCFDFA0101FAFAFAFAFAFAFAFAFAFAFAFAFAFAFAFAFAFAFAFAFAFAFA07FAFAFAFAFAFAFAFAFAFAFA
310
FAFAFAFAFAFAFAFAFAFAFAFAFAFAFAFAFAFAFAFAFAFAFAFAFAFAFAFAFAFAFAFAFAFAFAFAFAFAFAFAFAFAFAFAFAFAFAFAFAFAFAFAFAFAFAFA07FAFAFAFAFAFAF1F1F1F1F1F1F1F1F1F1F1F1F1F1F1F1F1F1F1F1F1F1F1FAFAFAFAFAFAFAFAFAFAFAFAFAFAFAFAFAFAFAFAFAFAFAFAFAFAFAFAFAFAFAFAFAFAFAFAFAFAFAFAFA
310
FAFAFAFAFAFAFA570101FCFCFCFC080101FAFAFAFAFAFAFAFAFAFAFAFAFAFAFAFAFAFAFAFAFAFAFAFA07FAFAFAFAFAFAFAFAFAFAFAFAFAFAFAFAFAFAFAFAFAFAFAFAFAFAFAFAFAFAFAFAFAFAFAFAFAFAFAFAFAFAFAFAFAFAFAFAFAFAFAFAFAFAFAFAFAFAFAFAFAFAFAFAFAFAFA07FAFAFAFAFAFA0303030303030303030303
310
030303030303030303030303030303030303030303030303030303030303030303030303030303030303030303030303030303030303030303030303030101010101010101FAFAFAFAFAFAFAFAFAFAFAFAFAFAFAFAFAFAFAFAFAFAFAFAFA07FAFAFAFAFAFAFAFAFAFAFAFAFAFAFAFAFAFAFAFAFAFAFAFAFAFAFAFAFAFAFAFA
310
FAFAFAFAFAFAFAFAFAFAFAFAFAFAFAFAFAFAFAFAFAFAFAFAFAFAFAFAFAFAFAFAFAFAFA07FAFAFAFAFAFAF1F1F1F1F1F1F1F1F1F1F1F1F1F1F1F1F1F1F1F1F1F1F1F1F1F1F1FAFAFAFAFAFAFAFAFAFAFAFAFAFAFAFAFAFAFAFAFAFAFAFAFAFAFAFAFAFAFAFAFAFAFAFAFAFAFAFAFAFAFAFAFAFA0103FAFAFA01FAFAFAFAFAFA
310
FAFAFAFAFAFAFAFAFAFAFAFAFAFAFAFAFAFAFAFA07FAFAFAFAFAFAFAFAFAFAFAFAFAFAFAFAFAFAFAFAFAFAFAFAFAFAFAFAFAFAFAFAFAFAFAFAFAFAFAFAFAFAFAFAFAFAFAFAFAFAFAFAFAFAFAFAFAFAFAFAFAFAFAFAFAFAFA07FAFAFAFAFAFAF1F1F1F1F1F1F1F1F1F1F1F1F1F1F1F1F1F1F1F1F1F1F1F1F1F1F1FAFAFAFAFA
310
FAFAFAFAFAFAFAFAFAFAFAFAFAFAFAFAFAFAFAFAFAFAFAFAFAFAFAFAFAFAFAFAFAFAFAFAFAFAFAFAFA6477FAFAFAFCFAFAFAFAFAFAFAFAFAFAFAFAFAFAFAFAFAFAFAFAFAFAFAFAFAFA07FAFAFAFAFAFAFAFAFAFAFAFAFAFAFAFAFAFAFAFAFAFAFAFAFAFAFAFAFAFAFAFAFAFAFAFAFAFAFAFAFAFAFAFAFAFAFAFAFAFAFAFAFA
310
FAFAFAFAFAFAFAFAFAFAFAFAFAFA07FAFAFAFAFAFAFAFAFAFAFAFAFAFAFAFAFAFAFAFAFAFAFAFAFAFAFAFAFAFAFAFAFAFAFAFAFAFAFAFAFAFAFAFAFAFAFAFAFAFAFAFAFAFAFAFAFAFAFAFAFAFAFAFAFAFAFAFAFAFAFAFAFAFAFAFAFAFA4C4C1A04041A011AFAFAFAFAFAFAFAFAFAFAFAFAFAFAFAFAFAFAFAFAFAFAFAFAFA07
310
FAFAFAFAFAFAFAFAFAFAFAFAFAFAFAFAFAFAFAFAFAFAFAFAFAFAFAFAFAFAFAFAFAFAFAFAFAFAFAFAFAFAFAFAFAFAFAFAFAFAFAFAFAFAFAFAFAFAFAFAFAFAFAFAFAFAFA07FAFAFAFAFAFAFAFAFAFAFAFAFAFAFAFAFAFAFAFAFAFAFAFAFAFAFAFAFAFAFAFAFAFAFAFAFAFAFAFAFAFAFAFAFAFAFAFAFAFAFAFAFAFAFAFAFAFAFA
310
FAFAFAFAFAFAFAFAFAFAFAFAFAFAFAFAFAFA7764FCFA0404FAFCFAFAFAFAFAFAFAFAFAFAFAFAFAFAFAFAFAFAFAFAFAFAFAFAFAFA07FAFAFAFAFAFAFAFAFAFAFAFAFAFAFAFAFAFAFAFAFAFAFAFAFAFAFAFAFAFAFAFAFAFAFAFAFAFAFAFAFAFAFAFAFAFAFAFAFAFAFAFAFAFAFAFAFAFAFAFAFAFAFAFAFAFAFA07FAFAFAFAFAFA
310
030303030303030303030303030303030303030303030303030303030303030303030303030303030303030303030303030303030303030303030303030303030303030303030303FAFAFAFAFAFAFAFAFAFAFAFAFAFAFAFAFAFAFAFAFAFAFAFAFAFAFAFAFAFAFAFAFA07FAFAFAFAFAFAFAFAFAFAFAFAFAFAFAFAFAFAFAFAFA
310
FAFAFAFAFAFAFAFAFAFAFAFAFAFAFAFAFAFAFAFAFAFAFAFAFAFAFAFAFAFAFAFAFAFAFAFAFAFAFAFAFAFAFAFAFAFA07FAFAFAFAFAFAF1F1F1F1F1F1F1F1F1F1F1F1F1F1F1F1F1F1F1F1F1F1F1F1F1F1FAFAFAFAFAFAFAFAFAFAFAFAFAFAFAFAFAFAFAFAFAFAFAFAFAFAFAFAFAFAFAFAFAFAFAFAFAFAFAFAFAFAFAFAFAFAFAFA
310
FAFAFAFAFAFAFAFAFAFAFAFAFAFAFAFAFAFAFAFAFAFAFAFAFAFAFAFAFAFAFA07FAFAFAFAFAFAFAFAFAFAFAFAFAFAFAFAFAFAFAFAFAFAFAFAFAFAFAFAFAFAFAFAFAFAFAFAFAFAFAFAFAFAFAFAFAFAFAFAFAFAFAFAFAFAFAFAFAFAFAFAFAFAFAFAFAFAFA07FAFAFAFAFAFAF1F1F1F1F1F1F1F1F1F1F1F1F1F1F1F1F1F1F1F1F1
310
F1F1F1F1F1FAFAFAFAFAFAFAFAFAFAFAFAFAFAFAFAFAFAFAFAFAFAFAFAFAFAFAFAFAFAFAFAFAFAFAFAFAFAFAFAFAFAFAFAFAFAFAFAFAFAFAFAFAFAFAFAFAFAFAFAFAFAFAFAFAFAFAFAFAFAFAFAFAFAFAFAFAFAFA07FAFAFAFAFAFAFAFAFAFAFAFAFAFAFAFAFAFAFAFAFAFAFAFAFAFAFAFAFAFAFAFAFAFAFAFAFAFAFAFAFAFA
310
FAFAFAFAFAFAFAFAFAFAFAFAFAFAFAFAFAFAFAFAFAFAFAFAFA07FAFAFAFAFAFAF1F1F1F1F1F1F1F1F1F1F1F1FAFAFAFAFAFAFAFAFAFAFAFAFAFAFAFAFAFAFAFAFAFAFAFAFAFAFAFAFAFAFAFAFAFAFAFAFAFAFAFAFAFAFAFAFAFAFAFAFAFAFAFAFAFAFAFAFAFAFAFAFAFAFAFAFAFAFAFAFAFAFAFAFAFAFAFAFAFAFAFAFAFAFA
310
FAFAFAFAFAFAFAFAFAFA07FAFAFAFAFAFAFAFAFAFAFAFAFAFAFAFAFAFAFAFAFAFAFAFAFAFAFAFAFAFAFAFAFAFAFAFAFAFAFAFAFAFAFAFAFAFAFAFAFAFAFAFAFAFAFAFAFAFAFAFAFAFAFAFAFAFAFA07FAFAFAFAFAFAF1F1F1F1F1F1F1F1F1F1F1F1FAFAFAFAFAFAFAFAFAFAFAFAFAFAFAFAFAFAFAFAFAFAFAFAFAFAFAFAFAFA
310
FAFAFAFAFAFAFAFAFAFAFAFAFAFAFAFAFAFAFAFAFAFAFAFAFAFAFAFAFAFAFAFAFAFAFAFAFAFAFAFAFAFAFAFAFAFAFAFAFAFAFAFAFAFAFAFAFAFAFAFAFAFAFA07FAFAFAFAFAFAFAFAFAFAFAFAFAFAFAFAFAFAFAFAFAFAFAFAFAFAFAFAFAFAFAFAFAFAFAFAFAFAFAFAFAFAFAFAFAFAFAFAFAFAFAFAFAFAFAFAFAFAFAFAFAFAFA
310
FAFAFAFA07FAFAFAFAFAFAFAFAFAFAFAFAFAFAFAFAFAFAFAFAFAFAFAFAFAFAFAFAFAFAFAFAFAFAFAFAFAFAFAFAFAFAFAFAFAFAFAFAFAFAFAFAFAFAFAFAFAFAFAFAFAFAFAFAFAFAFAFAFAFAFAFAFAFAFAFAFAFAFAFAFAFAFAFAFAFAFAFAFAFAFAFAFAFAFAFAFAFAFAFAFAFAFAFAFAFAFAFAFAFAFA07FAFAFAFAFAFAFAFAFAFA
310
FAFAFAFAFAFAFAFAFAFAFAFAFAFAFAFAFAFAFAFAFAFAFAFAFAFAFAFAFAFAFAFAFAFAFAFAFAFAFAFAFAFAFAFAFAFAFAFAFAFAFAFAFAFAFAFAFA07FAFAFAFAFAFAFAFAFAFAFAFAFAFAFAFAFAFAFAFAFAFAFAFAFAFAFAFAFAFAFAFAFAFAFAFAFAFAFAFAFAFAFAFAFAFAFAFAFAFAFAFAFAFAFAFAFAFAFAFAFAFAFAFAFAFAFAFAFA
310
FAFAFAFAFAFAFAFAFAFAFAFAFAFAFAFAFAFAFAFAFAFAFAFAFAFAFAFAFAFAFAFAFAFAFAFAFAFAFAFAFAFA07FAFAFAFAFAFAFAFAFAFAFAFAFAFAFAFAFAFAFAFAFAFAFAFAFAFAFAFAFAFAFAFAFAFAFAFAFAFAFAFAFAFAFAFAFAFAFAFAFAFAFAFAFAFAFAFAFAFAFAFAFAFAFAFAFAFAFA07FAFAFAFAFAFAFAFAFAFAFAFAFAFAFAFA
310
FAFAFAFAFAFAFAFAFAFAFAFAFAFAFAFAFAFAFAFAFAFAFAFAFAFAFAFAFAFAFAFAFAFAFAFAFAFAFAFAFAFAFAFAFAFAFAFAFAFAFAFAFAFAFAFAFAFAFAFAFAFAFAFAFAFAFAFAFAFAFAFAFAFAFAFAFAFAFAFAFAFAFAFAFAFAFAFAFAFAFAFAFAFAFA07FAFAFAFAFAFAFAFAFAFAFAFAFAFAFAFAFAFAFAFAFAFAFAFAFAFAFAFAFAFAFA
310
FAFAFAFAFAFAFAFAFAFAFAFAFAFAFAFAFAFAFAFAFAFAFAFAFAFAFAFAFAFAFAFAFAFAFAFA07070707070707070707070707070707070707070707070707070707070707070707070707070707070707070707070707070707070707070707070707070707070707070707070707070707070707070707070707070707070707
310
07070707070707070707070707070707070707070707FAFAFAFAFAFAFAFAFAFAFAFAFAFAFAFAFAFAFAFAFAFAFAFAFAFAFAFAFAFAFAFAFAFAFAFAFAFAFAFAFAFAFAFAFAFAFAFAFAFAFAFAFAFAFAFAFAFAFAFAFAFAFAFAFAFAFAFAFAFAFAFAFAFAFAFAFAFAFAFAFAFAFAFAFAFAFAFAFAFAFAFAFAFAFAFAFAFAFAFAFAFAFAFAFA
310
FAFAFAFAFAFAFAFAFAFAFAFAFAFAFAFAFAFAFAFAFAFAFAFAFAFAFAFAFAFAFAFAFAFAFAFAFAFAFAFAFAFAFAFAFAFAFAFAFAFAFAFAFAFAFAFAFAFAFAFAFAFAFAFAFAFAFAFAFAFAFAFAFAFAFAFAFAFAFAFAFAFAFAFAFAFAFAFAFAFAFAFAFAFAFAFAFAFAFAFAFAFAFAFAFAFAFAFA
  0
ENDSEC
  0
EOF
