  0
SECTION
  2
HEADER
  9
$ACADVER
  1
AC1032
  9
$ACADMAINTVER
 90
      155
  9
$DWGCODEPAGE
  3
ANSI_1252
  9
$LASTSAVEDBY
  1
ctolentino
  9
$REQUIREDVERSIONS
160
                 0
  9
$INSBASE
 10
0.0
 20
0.0
 30
0.0
  9
$EXTMIN
 10
2.121518365837346
 20
1.490733711909002
 30
0.0
  9
$EXTMAX
 10
1272.136314479726
 20
939.834999082144
 30
0.0
  9
$LIMMIN
 10
0.0
 20
0.0
  9
$LIMMAX
 10
12.0
 20
9.0
  9
$ORTHOMODE
 70
     0
  9
$REGENMODE
 70
     1
  9
$FILLMODE
 70
     1
  9
$QTEXTMODE
 70
     0
  9
$MIRRTEXT
 70
     0
  9
$LTSCALE
 40
1.0
  9
$ATTMODE
 70
     1
  9
$TEXTSIZE
 40
0.2
  9
$TRACEWID
 40
0.05
  9
$TEXTSTYLE
  7
Standard
  9
$CLAYER
  8
0
  9
$CELTYPE
  6
ByLayer
  9
$CECOLOR
 62
   256
  9
$CELTSCALE
 40
1.0
  9
$DISPSILH
 70
     0
  9
$DIMSCALE
 40
1.0
  9
$DIMASZ
 40
0.18
  9
$DIMEXO
 40
0.0625
  9
$DIMDLI
 40
0.38
  9
$DIMRND
 40
0.0
  9
$DIMDLE
 40
0.0
  9
$DIMEXE
 40
0.18
  9
$DIMTP
 40
0.0
  9
$DIMTM
 40
0.0
  9
$DIMTXT
 40
0.18
  9
$DIMCEN
 40
0.09
  9
$DIMTSZ
 40
0.0
  9
$DIMTOL
 70
     0
  9
$DIMLIM
 70
     0
  9
$DIMTIH
 70
     1
  9
$DIMTOH
 70
     1
  9
$DIMSE1
 70
     0
  9
$DIMSE2
 70
     0
  9
$DIMTAD
 70
     0
  9
$DIMZIN
 70
     0
  9
$DIMTOFFSET
 70
     1
  9
$DIMBLK
  1

  9
$DIMASO
 70
     1
  9
$DIMSHO
 70
     1
  9
$DIMPOST
  1

  9
$DIMAPOST
  1

  9
$DIMALT
 70
     0
  9
$DIMALTD
 70
     2
  9
$DIMALTF
 40
25.4
  9
$DIMLFAC
 40
1.0
  9
$DIMTOFL
 70
     0
  9
$DIMTVP
 40
0.0
  9
$DIMTIX
 70
     0
  9
$DIMSOXD
 70
     0
  9
$DIMSAH
 70
     0
  9
$DIMBLK1
  1

  9
$DIMBLK2
  1

  9
$DIMSTYLE
  2
Standard
  9
$DIMCLRD
 70
     0
  9
$DIMCLRE
 70
     0
  9
$DIMCLRT
 70
     0
  9
$DIMTFAC
 40
1.0
  9
$DIMGAP
 40
0.09
  9
$DIMJUST
 70
     0
  9
$DIMSD1
 70
     0
  9
$DIMSD2
 70
     0
  9
$DIMTOLJ
 70
     1
  9
$DIMTZIN
 70
     0
  9
$DIMALTZ
 70
     0
  9
$DIMALTTZ
 70
     0
  9
$DIMUPT
 70
     0
  9
$DIMDEC
 70
     4
  9
$DIMTDEC
 70
     4
  9
$DIMALTU
 70
     2
  9
$DIMALTTD
 70
     2
  9
$DIMTXSTY
  7
Standard
  9
$DIMAUNIT
 70
     0
  9
$DIMADEC
 70
     0
  9
$DIMALTRND
 40
0.0
  9
$DIMAZIN
 70
     0
  9
$DIMDSEP
 70
    46
  9
$DIMATFIT
 70
     3
  9
$DIMFRAC
 70
     0
  9
$DIMLDRBLK
  1

  9
$DIMLUNIT
 70
     2
  9
$DIMLWD
 70
    -2
  9
$DIMLWE
 70
    -2
  9
$DIMTMOVE
 70
     0
  9
$DIMFXL
 40
1.0
  9
$DIMFXLON
 70
     0
  9
$DIMJOGANG
 40
0.7853981633974483
  9
$DIMTFILL
 70
     0
  9
$DIMTFILLCLR
 70
     0
  9
$DIMARCSYM
 70
     0
  9
$DIMLTYPE
  6

  9
$DIMLTEX1
  6

  9
$DIMLTEX2
  6

  9
$DIMTXTDIRECTION
 70
     0
  9
$LUNITS
 70
     2
  9
$LUPREC
 70
     4
  9
$SKETCHINC
 40
0.1
  9
$FILLETRAD
 40
0.0
  9
$AUNITS
 70
     0
  9
$AUPREC
 70
     0
  9
$MENU
  1
.
  9
$ELEVATION
 40
0.0
  9
$PELEVATION
 40
0.0
  9
$THICKNESS
 40
0.0
  9
$LIMCHECK
 70
     0
  9
$CHAMFERA
 40
0.0
  9
$CHAMFERB
 40
0.0
  9
$CHAMFERC
 40
0.0
  9
$CHAMFERD
 40
0.0
  9
$SKPOLY
 70
     0
  9
$TDCREATE
 40
2460916.438306169
  9
$TDUCREATE
 40
2460915.938306169
  9
$TDUPDATE
 40
2460916.582417835
  9
$TDUUPDATE
 40
2460916.082417835
  9
$TDINDWG
 40
0.0637687731
  9
$TDUSRTIMER
 40
0.0637687616
  9
$USRTIMER
 70
     1
  9
$ANGBASE
 50
0.0
  9
$ANGDIR
 70
     0
  9
$PDMODE
 70
     0
  9
$PDSIZE
 40
0.0
  9
$PLINEWID
 40
0.0
  9
$SPLFRAME
 70
     0
  9
$SPLINETYPE
 70
     6
  9
$SPLINESEGS
 70
     8
  9
$HANDSEED
  5
29B1
  9
$SURFTAB1
 70
     6
  9
$SURFTAB2
 70
     6
  9
$SURFTYPE
 70
     6
  9
$SURFU
 70
     6
  9
$SURFV
 70
     6
  9
$UCSBASE
  2

  9
$UCSNAME
  2

  9
$UCSORG
 10
0.0
 20
0.0
 30
0.0
  9
$UCSXDIR
 10
1.0
 20
0.0
 30
0.0
  9
$UCSYDIR
 10
0.0
 20
1.0
 30
0.0
  9
$UCSORTHOREF
  2

  9
$UCSORTHOVIEW
 70
     0
  9
$UCSORGTOP
 10
0.0
 20
0.0
 30
0.0
  9
$UCSORGBOTTOM
 10
0.0
 20
0.0
 30
0.0
  9
$UCSORGLEFT
 10
0.0
 20
0.0
 30
0.0
  9
$UCSORGRIGHT
 10
0.0
 20
0.0
 30
0.0
  9
$UCSORGFRONT
 10
0.0
 20
0.0
 30
0.0
  9
$UCSORGBACK
 10
0.0
 20
0.0
 30
0.0
  9
$PUCSBASE
  2

  9
$PUCSNAME
  2

  9
$PUCSORG
 10
0.0
 20
0.0
 30
0.0
  9
$PUCSXDIR
 10
1.0
 20
0.0
 30
0.0
  9
$PUCSYDIR
 10
0.0
 20
1.0
 30
0.0
  9
$PUCSORTHOREF
  2

  9
$PUCSORTHOVIEW
 70
     0
  9
$PUCSORGTOP
 10
0.0
 20
0.0
 30
0.0
  9
$PUCSORGBOTTOM
 10
0.0
 20
0.0
 30
0.0
  9
$PUCSORGLEFT
 10
0.0
 20
0.0
 30
0.0
  9
$PUCSORGRIGHT
 10
0.0
 20
0.0
 30
0.0
  9
$PUCSORGFRONT
 10
0.0
 20
0.0
 30
0.0
  9
$PUCSORGBACK
 10
0.0
 20
0.0
 30
0.0
  9
$USERI1
 70
     0
  9
$USERI2
 70
     0
  9
$USERI3
 70
     0
  9
$USERI4
 70
     0
  9
$USERI5
 70
     0
  9
$USERR1
 40
0.0
  9
$USERR2
 40
0.0
  9
$USERR3
 40
0.0
  9
$USERR4
 40
0.0
  9
$USERR5
 40
0.0
  9
$WORLDVIEW
 70
     1
  9
$SHADEDGE
 70
     3
  9
$SHADEDIF
 70
    70
  9
$TILEMODE
 70
     1
  9
$MAXACTVP
 70
    64
  9
$PINSBASE
 10
0.0
 20
0.0
 30
0.0
  9
$PLIMCHECK
 70
     0
  9
$PEXTMIN
 10
0.0
 20
0.0
 30
0.0
  9
$PEXTMAX
 10
0.0
 20
0.0
 30
0.0
  9
$PLIMMIN
 10
0.0
 20
0.0
  9
$PLIMMAX
 10
12.0
 20
9.0
  9
$UNITMODE
 70
     0
  9
$VISRETAIN
 70
     1
  9
$PLINEGEN
 70
     0
  9
$PSLTSCALE
 70
     1
  9
$TREEDEPTH
 70
  3020
  9
$CMLSTYLE
  2
Standard
  9
$CMLJUST
 70
     0
  9
$CMLSCALE
 40
1.0
  9
$PROXYGRAPHICS
 70
     1
  9
$MEASUREMENT
 70
     0
  9
$CELWEIGHT
370
    -1
  9
$ENDCAPS
280
     0
  9
$JOINSTYLE
280
     0
  9
$LWDISPLAY
290
     0
  9
$INSUNITS
 70
     1
  9
$HYPERLINKBASE
  1

  9
$STYLESHEET
  1

  9
$XEDIT
290
     1
  9
$CEPSNTYPE
380
     0
  9
$PSTYLEMODE
290
     1
  9
$FINGERPRINTGUID
  2
{011C5076-1CE6-4951-8944-42E214B48432}
  9
$VERSIONGUID
  2
{EF5A116A-4A25-4390-9277-3BEEF0A8AB21}
  9
$EXTNAMES
290
     1
  9
$PSVPSCALE
 40
0.0
  9
$OLESTARTUP
290
     0
  9
$SORTENTS
280
   127
  9
$INDEXCTL
280
     0
  9
$HIDETEXT
280
     1
  9
$XCLIPFRAME
280
     2
  9
$HALOGAP
280
     0
  9
$OBSCOLOR
 70
   257
  9
$OBSLTYPE
280
     0
  9
$INTERSECTIONDISPLAY
280
     0
  9
$INTERSECTIONCOLOR
 70
   257
  9
$DIMASSOC
280
     2
  9
$PROJECTNAME
  1

  9
$CAMERADISPLAY
290
     0
  9
$LENSLENGTH
 40
50.0
  9
$CAMERAHEIGHT
 40
0.0
  9
$STEPSPERSEC
 40
2.0
  9
$STEPSIZE
 40
6.0
  9
$3DDWFPREC
 40
2.0
  9
$PSOLWIDTH
 40
0.25
  9
$PSOLHEIGHT
 40
4.0
  9
$LOFTANG1
 40
1.570796326794897
  9
$LOFTANG2
 40
1.570796326794897
  9
$LOFTMAG1
 40
0.0
  9
$LOFTMAG2
 40
0.0
  9
$LOFTPARAM
 70
     7
  9
$LOFTNORMALS
280
     1
  9
$LATITUDE
 40
37.795
  9
$LONGITUDE
 40
-122.394
  9
$NORTHDIRECTION
 40
0.0
  9
$TIMEZONE
 70
 -8000
  9
$LIGHTGLYPHDISPLAY
280
     1
  9
$TILEMODELIGHTSYNCH
280
     1
  9
$CMATERIAL
347
96
  9
$SOLIDHIST
280
     0
  9
$SHOWHIST
280
     1
  9
$DWFFRAME
280
     2
  9
$DGNFRAME
280
     0
  9
$REALWORLDSCALE
290
     1
  9
$INTERFERECOLOR
 62
     1
  9
$INTERFEREOBJVS
345
A3
  9
$INTERFEREVPVS
346
A0
  9
$CSHADOW
280
     0
  9
$SHADOWPLANELOCATION
 40
0.0
  0
ENDSEC
  0
SECTION
  2
CLASSES
  0
CLASS
  1
ACDBDICTIONARYWDFLT
  2
AcDbDictionaryWithDefault
  3
ObjectDBX Classes
 90
        0
 91
        1
280
     0
281
     0
  0
CLASS
  1
ACDBPLACEHOLDER
  2
AcDbPlaceHolder
  3
ObjectDBX Classes
 90
        0
 91
        1
280
     0
281
     0
  0
CLASS
  1
LAYOUT
  2
AcDbLayout
  3
ObjectDBX Classes
 90
        0
 91
        1
280
     0
281
     0
  0
CLASS
  1
DICTIONARYVAR
  2
AcDbDictionaryVar
  3
ObjectDBX Classes
 90
        0
 91
        1
280
     0
281
     0
  0
CLASS
  1
TABLESTYLE
  2
AcDbTableStyle
  3
ObjectDBX Classes
 90
     4095
 91
        1
280
     0
281
     0
  0
CLASS
  1
MATERIAL
  2
AcDbMaterial
  3
ObjectDBX Classes
 90
     1153
 91
        1
280
     0
281
     0
  0
CLASS
  1
VISUALSTYLE
  2
AcDbVisualStyle
  3
ObjectDBX Classes
 90
     4095
 91
        1
280
     0
281
     0
  0
CLASS
  1
SCALE
  2
AcDbScale
  3
ObjectDBX Classes
 90
     1153
 91
        1
280
     0
281
     0
  0
CLASS
  1
MLEADERSTYLE
  2
AcDbMLeaderStyle
  3
ACDB_MLEADERSTYLE_CLASS
 90
     4095
 91
        1
280
     0
281
     0
  0
CLASS
  1
CELLSTYLEMAP
  2
AcDbCellStyleMap
  3
ObjectDBX Classes
 90
     1152
 91
        1
280
     0
281
     0
  0
CLASS
  1
LAYER_INDEX
  2
AcDbLayerIndex
  3
ObjectDBX Classes
 90
        0
 91
        1
280
     0
281
     0
  0
CLASS
  1
SPATIAL_INDEX
  2
AcDbSpatialIndex
  3
AutoCAD 2000
 90
        0
 91
        1
280
     0
281
     0
  0
CLASS
  1
IDBUFFER
  2
AcDbIdBuffer
  3
ObjectDBX Classes
 90
        0
 91
        1
280
     0
281
     0
  0
CLASS
  1
ACDBSECTIONVIEWSTYLE
  2
AcDbSectionViewStyle
  3
ObjectDBX Classes
 90
     1025
 91
        1
280
     0
281
     0
  0
CLASS
  1
ACDBDETAILVIEWSTYLE
  2
AcDbDetailViewStyle
  3
ObjectDBX Classes
 90
     1025
 91
        1
280
     0
281
     0
  0
CLASS
  1
SUN
  2
AcDbSun
  3
SCENEOE
 90
     1153
 91
        1
280
     0
281
     0
  0
CLASS
  1
SORTENTSTABLE
  2
AcDbSortentsTable
  3
ObjectDBX Classes
 90
        0
 91
        1
280
     0
281
     0
  0
CLASS
  1
MULTILEADER
  2
AcDbMLeader
  3
ACDB_MLEADER_CLASS
 90
     1025
 91
        1
280
     0
281
     1
  0
CLASS
  1
DIMASSOC
  2
AcDbDimAssoc
  3
"AcDbDimAssoc|Product Desc:     AcDim ARX App For Dimension|Company:          Autodesk, Inc.|WEB Address:      www.autodesk.com"
 90
        0
 91
        1
280
     0
281
     0
  0
ENDSEC
  0
SECTION
  2
TABLES
  0
TABLE
  2
VPORT
  5
8
330
0
100
AcDbSymbolTable
 70
     1
  0
VPORT
  5
94
330
8
100
AcDbSymbolTableRecord
100
AcDbViewportTableRecord
  2
*Active
 70
     0
 10
0.0
 20
0.0
 11
1.0
 21
1.0
 12
636.0681572398628
 22
469.917499541072
 13
0.0
 23
0.0
 14
0.5
 24
0.5
 15
0.5
 25
0.5
 16
0.0
 26
0.0
 36
1.0
 17
0.0
 27
0.0
 37
0.0
 40
949.7935156287098
 41
2.163826998689384
 42
50.0
 43
0.0
 44
0.0
 50
0.0
 51
0.0
 71
     0
 72
  1000
 73
     1
 74
     3
 75
     0
 76
     1
 77
     0
 78
     0
281
     0
 65
     1
110
0.0
120
0.0
130
0.0
111
1.0
121
0.0
131
0.0
112
0.0
122
1.0
132
0.0
 79
     0
146
0.0
348
9F
 60
     3
 61
     5
292
     1
282
     1
141
0.0
142
0.0
 63
   250
421
  3355443
361
20C
1001
ACAD_NAV_VCDISPLAY
1070
     3
  0
ENDTAB
  0
TABLE
  2
LTYPE
  5
5
330
0
100
AcDbSymbolTable
 70
     4
  0
LTYPE
  5
14
330
5
100
AcDbSymbolTableRecord
100
AcDbLinetypeTableRecord
  2
ByBlock
 70
     0
  3

 72
    65
 73
     0
 40
0.0
  0
LTYPE
  5
15
330
5
100
AcDbSymbolTableRecord
100
AcDbLinetypeTableRecord
  2
ByLayer
 70
     0
  3

 72
    65
 73
     0
 40
0.0
  0
LTYPE
  5
16
330
5
100
AcDbSymbolTableRecord
100
AcDbLinetypeTableRecord
  2
Continuous
 70
     0
  3
Solid line
 72
    65
 73
     0
 40
0.0
  0
LTYPE
  5
51C
330
5
100
AcDbSymbolTableRecord
100
AcDbLinetypeTableRecord
  2
Dash
 70
     0
  3

 72
    65
 73
     2
 40
6.350000000000001
 49
3.175
 74
     0
 49
-3.175
 74
     0
  0
LTYPE
  5
51D
330
5
100
AcDbSymbolTableRecord
100
AcDbLinetypeTableRecord
  2
XAR-1873-FP03-17_off$0$HIDDEN
 70
     0
  3
Hidden __ __ __ __ __ __ __ __ __ __ __ __ __ _
 72
    65
 73
     2
 40
0.375
 49
0.25
 74
     0
 49
-0.125
 74
     0
  0
LTYPE
  5
22E8
330
5
100
AcDbSymbolTableRecord
100
AcDbLinetypeTableRecord
  2
PHANTOM
 70
     0
  3
Phantom ______  __  __  ______  __  __  ______
 72
    65
 73
     6
 40
12.7
 49
6.35
 74
     0
 49
-1.27
 74
     0
 49
1.27
 74
     0
 49
-1.27
 74
     0
 49
1.27
 74
     0
 49
-1.27
 74
     0
  0
ENDTAB
  0
TABLE
  2
LAYER
  5
2
102
{ACAD_XDICTIONARY
360
18E
102
}
330
0
100
AcDbSymbolTable
 70
     9
  0
LAYER
  5
10
330
2
100
AcDbSymbolTableRecord
100
AcDbLayerTableRecord
  2
0
 70
     0
 62
     7
  6
Continuous
370
    -3
390
F
347
98
348
0
  0
LAYER
  5
50B
102
{ACAD_XDICTIONARY
360
50C
102
}
330
2
100
AcDbSymbolTableRecord
100
AcDbLayerTableRecord
  2
DEFPOINTS
 70
     0
 62
     7
  6
Continuous
290
     0
370
    -3
390
F
347
98
348
0
1001
AcAecLayerStandard
1000

1000

  0
LAYER
  5
510
102
{ACAD_XDICTIONARY
360
511
102
}
330
2
100
AcDbSymbolTableRecord
100
AcDbLayerTableRecord
  2
A-_ANOT----_H-_N
 70
     0
 62
    11
  6
Continuous
370
    -3
390
F
347
98
348
0
1001
AcAecLayerStandard
1000

1000

  0
LAYER
  5
513
102
{ACAD_XDICTIONARY
360
514
102
}
330
2
100
AcDbSymbolTableRecord
100
AcDbLayerTableRecord
  2
A-DETL-GENF-OTLN
 70
     0
 62
     3
  6
Continuous
370
     5
390
F
347
98
348
0
1001
AcAecLayerStandard
1000

1000

  0
LAYER
  5
516
102
{ACAD_XDICTIONARY
360
517
102
}
330
2
100
AcDbSymbolTableRecord
100
AcDbLayerTableRecord
  2
_lines
 70
     0
 62
     3
  6
Continuous
370
    -3
390
F
347
98
348
0
1001
AcAecLayerStandard
1000

1000

  0
LAYER
  5
519
102
{ACAD_XDICTIONARY
360
51A
102
}
330
2
100
AcDbSymbolTableRecord
100
AcDbLayerTableRecord
  2
GE FLASHING
 70
     0
 62
     1
  6
Continuous
370
    -3
390
F
347
98
348
0
1001
AcAecLayerStandard
1000

1000

  0
LAYER
  5
80A
102
{ACAD_XDICTIONARY
360
80B
102
}
330
2
100
AcDbSymbolTableRecord
100
AcDbLayerTableRecord
  2
_circles
 70
     0
 62
     3
  6
Continuous
370
    -3
390
F
347
98
348
0
1001
AcAecLayerStandard
1000

1000

  0
LAYER
  5
810
102
{ACAD_XDICTIONARY
360
811
102
}
330
2
100
AcDbSymbolTableRecord
100
AcDbLayerTableRecord
  2
_hatch
 70
     0
 62
   253
  6
Continuous
370
    -3
390
F
347
98
348
0
1001
AcAecLayerStandard
1000

1000

  0
LAYER
  5
1766
102
{ACAD_XDICTIONARY
360
1767
102
}
330
2
100
AcDbSymbolTableRecord
100
AcDbLayerTableRecord
  2
GE TILES
 70
     0
 62
     1
  6
Continuous
370
    -3
390
F
347
98
348
0
1001
AcAecLayerStandard
1000

1000

  0
ENDTAB
  0
TABLE
  2
STYLE
  5
3
330
0
100
AcDbSymbolTable
 70
     5
  0
STYLE
  5
11
330
3
100
AcDbSymbolTableRecord
100
AcDbTextStyleTableRecord
  2
Standard
 70
     0
 40
0.0
 41
1.0
 50
0.0
 71
     0
 42
0.2
  3
arial.ttf
  4

1001
ACAD
1000
Arial
1071
       34
  0
STYLE
  5
DC
330
3
100
AcDbSymbolTableRecord
100
AcDbTextStyleTableRecord
  2
Annotative
 70
     0
 40
0.0
 41
1.0
 50
0.0
 71
     0
 42
0.2
  3
arial.ttf
  4

1001
AcadAnnotative
1000
AnnotativeData
1002
{
1070
     1
1070
     1
1002
}
1001
ACAD
1000
Arial
1071
       34
  0
STYLE
  5
521
330
3
100
AcDbSymbolTableRecord
100
AcDbTextStyleTableRecord
  2
RS
 70
     0
 40
0.0
 41
1.0
 50
0.0
 71
     0
 42
0.2
  3
swisscl.ttf
  4

1001
ACAD
1000
Swis721 LtCn BT
1071
       34
  0
STYLE
  5
537
330
3
100
AcDbSymbolTableRecord
100
AcDbTextStyleTableRecord
  2
Arial
 70
     0
 40
12.5
 41
1.0
 50
0.0
 71
     0
 42
0.2
  3
arial.ttf
  4

1001
ACAD
1000
Arial
1071
       34
  0
STYLE
  5
20A0
330
3
100
AcDbSymbolTableRecord
100
AcDbTextStyleTableRecord
  2
PDF Arial
 70
     0
 40
0.0
 41
1.0
 50
0.0
 71
     0
 42
0.2
  3
arial.ttf
  4

1001
ACAD
1000
Arial
1071
       34
  0
ENDTAB
  0
TABLE
  2
VIEW
  5
6
330
0
100
AcDbSymbolTable
 70
     0
  0
ENDTAB
  0
TABLE
  2
UCS
  5
7
330
0
100
AcDbSymbolTable
 70
     0
  0
ENDTAB
  0
TABLE
  2
APPID
  5
9
330
0
100
AcDbSymbolTable
 70
    13
  0
APPID
  5
12
330
9
100
AcDbSymbolTableRecord
100
AcDbRegAppTableRecord
  2
ACAD
 70
     0
  0
APPID
  5
DD
330
9
100
AcDbSymbolTableRecord
100
AcDbRegAppTableRecord
  2
AcadAnnoPO
 70
     0
  0
APPID
  5
DE
330
9
100
AcDbSymbolTableRecord
100
AcDbRegAppTableRecord
  2
AcadAnnotative
 70
     0
  0
APPID
  5
DF
330
9
100
AcDbSymbolTableRecord
100
AcDbRegAppTableRecord
  2
ACAD_DSTYLE_DIMJAG
 70
     0
  0
APPID
  5
E0
330
9
100
AcDbSymbolTableRecord
100
AcDbRegAppTableRecord
  2
ACAD_DSTYLE_DIMTALN
 70
     0
  0
APPID
  5
107
330
9
100
AcDbSymbolTableRecord
100
AcDbRegAppTableRecord
  2
ACAD_MLEADERVER
 70
     0
  0
APPID
  5
1A6
330
9
100
AcDbSymbolTableRecord
100
AcDbRegAppTableRecord
  2
ACAD_NAV_VCDISPLAY
 70
     0
  0
APPID
  5
50F
330
9
100
AcDbSymbolTableRecord
100
AcDbRegAppTableRecord
  2
AcAecLayerStandard
 70
     0
  0
APPID
  5
52D
330
9
100
AcDbSymbolTableRecord
100
AcDbRegAppTableRecord
  2
ACAD_DSTYLE_DIMBREAK
 70
     0
  0
APPID
  5
532
330
9
100
AcDbSymbolTableRecord
100
AcDbRegAppTableRecord
  2
REVIT
 70
     0
  0
APPID
  5
533
330
9
100
AcDbSymbolTableRecord
100
AcDbRegAppTableRecord
  2
ACAD_PSEXT
 70
     0
  0
APPID
  5
535
330
9
100
AcDbSymbolTableRecord
100
AcDbRegAppTableRecord
  2
HATCHBACKGROUNDCOLOR
 70
     0
  0
APPID
  5
ADA
330
9
100
AcDbSymbolTableRecord
100
AcDbRegAppTableRecord
  2
AcDbDynamicBlockGUID
 70
     0
  0
ENDTAB
  0
TABLE
  2
DIMSTYLE
  5
A
330
0
100
AcDbSymbolTable
 70
     4
100
AcDbDimStyleTable
  0
DIMSTYLE
105
27
330
A
100
AcDbSymbolTableRecord
100
AcDbDimStyleTableRecord
  2
Standard
 70
     0
178
     0
340
11
  0
DIMSTYLE
105
E1
330
A
100
AcDbSymbolTableRecord
100
AcDbDimStyleTableRecord
  2
Annotative
 70
     0
 40
0.0
178
     0
340
11
1001
AcadAnnotative
1000
AnnotativeData
1002
{
1070
     1
1070
     1
1002
}
1001
ACAD_DSTYLE_DIMJAG
1070
   388
1040
1.5
1001
ACAD_DSTYLE_DIMTALN
1070
   392
1070
     0
  0
DIMSTYLE
105
520
102
{ACAD_REACTORS
330
295C
102
}
330
A
100
AcDbSymbolTableRecord
100
AcDbDimStyleTableRecord
  2
DIM150
 70
     0
 41
5.0
 42
0.0
 43
0.0
 44
7.0
 46
7.0
 90
        2
 73
     0
 74
     0
 77
     1
140
5.0
141
0.0
147
1.0
172
     1
176
    24
177
     8
271
     0
178
     4
271
     0
272
     0
279
     2
340
521
341
522
342
528
346
51D
347
51D
1001
ACAD_DSTYLE_DIMBREAK
1070
   391
1040
1.0
1001
ACAD_DSTYLE_DIMJAG
1070
   388
1040
1.0
1001
ACAD_DSTYLE_DIMTALN
1070
   392
1070
     0
  0
DIMSTYLE
105
530
330
A
100
AcDbSymbolTableRecord
100
AcDbDimStyleTableRecord
  2
ISO-25
 70
     0
 41
2.5
 42
0.625
 43
3.75
 44
1.25
 73
     0
 74
     0
 77
     1
 78
     8
140
2.5
141
-2.5
143
0.03937007874016
147
0.625
171
     3
172
     1
178
     0
271
     2
272
     2
274
     3
278
    44
283
     0
284
     8
340
11
  0
ENDTAB
  0
TABLE
  2
BLOCK_RECORD
  5
1
330
0
100
AcDbSymbolTable
 70
    23
  0
BLOCK_RECORD
  5
1F
330
1
100
AcDbSymbolTableRecord
100
AcDbBlockTableRecord
  2
*Model_Space
340
22
 70
     0
280
     1
281
     0
  0
BLOCK_RECORD
  5
58
330
1
100
AcDbSymbolTableRecord
100
AcDbBlockTableRecord
  2
*Paper_Space
340
59
 70
     0
280
     1
281
     0
  0
BLOCK_RECORD
  5
5D
330
1
100
AcDbSymbolTableRecord
100
AcDbBlockTableRecord
  2
*Paper_Space0
340
5E
 70
     0
280
     1
281
     0
  0
BLOCK_RECORD
  5
522
330
1
100
AcDbSymbolTableRecord
100
AcDbBlockTableRecord
  2
_OPEN
340
0
 70
     0
280
     1
281
     0
  0
BLOCK_RECORD
  5
528
330
1
100
AcDbSymbolTableRecord
100
AcDbBlockTableRecord
  2
_OBLIQUE
340
0
102
{BLKREFS
331
2960
331
2961
331
65C
331
65D
331
669
331
66A
331
676
331
677
331
683
331
684
331
692
331
693
331
6B0
331
6B1
331
6BC
331
6BD
331
6C8
331
6C9
331
6D4
331
6D5
331
6E0
331
6E1
331
7CB
331
7CC
331
7D7
331
7D8
331
7E3
331
7E4
331
7EF
331
7F0
331
7FB
331
7FC
331
919
331
91A
331
926
331
927
331
933
331
934
331
944
331
945
331
96E
331
96F
331
97A
331
97B
331
986
331
987
331
992
331
993
331
A8F
331
A90
331
A9B
331
A9C
331
AA7
331
AA8
331
AB3
331
AB4
331
BB3
331
BB4
331
BC0
331
BC1
331
BF9
331
BFA
331
C0B
331
C0C
331
C17
331
C18
331
C23
331
C24
331
D06
331
D07
331
D12
331
D13
331
D1E
331
D1F
331
E31
331
E32
331
E3E
331
E3F
331
E4B
331
E4C
331
E58
331
E59
331
E67
331
E68
331
E85
331
E86
331
E91
331
E92
331
E9D
331
E9E
331
EA9
331
EAA
331
EB5
331
EB6
331
FA0
331
FA1
331
FAC
331
FAD
331
FB8
331
FB9
331
FC4
331
FC5
331
FD0
331
FD1
331
10CF
331
10D0
331
10DC
331
10DD
331
1109
331
110A
331
111B
331
111C
331
1127
331
1128
331
1133
331
1134
331
1216
331
1217
331
1222
331
1223
331
122E
331
122F
331
134F
331
1350
331
135C
331
135D
331
1369
331
136A
331
137C
331
137D
331
1388
331
1389
331
1394
331
1395
331
147A
331
147B
331
1486
331
1487
331
1492
331
1493
331
15B0
331
15B1
331
15BD
331
15BE
331
15CA
331
15CB
331
15DB
331
15DC
331
1607
331
1608
331
1613
331
1614
331
161F
331
1620
331
162B
331
162C
331
172A
331
172B
331
1736
331
1737
331
1742
331
1743
331
174E
331
174F
331
1803
331
1804
331
1828
331
1829
331
1837
331
1838
331
1846
331
1847
331
1855
331
1856
331
1862
331
1863
331
1871
331
1872
331
18F1
331
18F2
331
18FD
331
18FE
331
1909
331
190A
331
1915
331
1916
331
1921
331
1922
331
192B
331
192C
331
1937
331
1938
331
19DE
331
19DF
331
19EA
331
19EB
331
19F6
331
19F7
331
1A02
331
1A03
331
1A0E
331
1A0F
331
1A18
331
1A19
331
1A24
331
1A25
331
1AB2
331
1AB3
331
1B64
331
1B65
331
1B87
331
1B88
331
1B96
331
1B97
331
1BB7
331
1BB8
331
1BC3
331
1BC4
331
1BCF
331
1BD0
331
1C65
331
1C66
331
1C71
331
1C72
331
1C7D
331
1C7E
331
1CE9
331
1CEA
331
1D1C
331
1D1D
331
1D63
331
1D64
331
1DC9
331
1DCA
331
1DF0
331
1DF1
331
1DFF
331
1E00
331
1E1D
331
1E1E
331
1E29
331
1E2A
331
1E35
331
1E36
331
1E83
331
1E84
331
1E8F
331
1E90
331
1E9B
331
1E9C
331
1F01
331
1F02
331
1F31
331
1F32
331
1F3E
331
1F3F
331
1F4B
331
1F4C
331
1F58
331
1F59
331
1F63
331
1F64
331
1F70
331
1F71
331
1F93
331
1F94
331
1F9F
331
1FA0
331
1FAB
331
1FAC
331
1FB7
331
1FB8
331
1FC3
331
1FC4
331
1FCD
331
1FCE
331
1FD9
331
1FDA
331
2031
331
2032
331
203D
331
203E
331
2049
331
204A
331
2055
331
2056
331
2061
331
2062
331
206B
331
206C
331
2077
331
2078
331
2125
331
2126
331
2134
331
2135
331
2142
331
2143
331
2151
331
2152
331
215E
331
215F
331
21A6
331
21A7
331
21B7
331
21B8
331
21C3
331
21C4
331
21CE
331
21CF
331
21DC
331
21DD
331
21E6
331
21E7
331
21F4
331
21F5
331
2294
331
2295
331
22A0
331
22A1
331
22AB
331
22AC
331
22B9
331
22BA
331
22C3
331
22C4
331
22D1
331
22D2
331
2331
331
2332
331
2340
331
2341
331
2364
331
2365
331
23A8
331
23A9
331
23B4
331
23B5
331
23C0
331
23C1
331
241F
331
2420
331
242B
331
242C
331
2437
331
2438
331
2498
331
2499
331
24A7
331
24A8
331
24BA
331
24BB
331
24E4
331
24E5
331
252D
331
252E
331
2539
331
253A
331
2545
331
2546
331
2551
331
2552
331
25C3
331
25C4
331
25CF
331
25D0
331
25DB
331
25DC
331
25E7
331
25E8
331
266E
331
266F
331
267D
331
267E
331
268B
331
268C
331
269A
331
269B
331
26A7
331
26A8
331
26CC
331
26CD
331
2728
331
2729
331
2734
331
2735
331
273F
331
2740
331
274D
331
274E
331
2757
331
2758
331
2765
331
2766
331
280F
331
2810
331
281B
331
281C
331
2826
331
2827
331
2834
331
2835
331
283E
331
283F
331
284C
331
284D
331
28A6
331
28A7
331
28B5
331
28B6
331
28DA
331
28DB
331
2916
331
2917
331
2922
331
2923
331
292E
331
292F
331
2990
331
2991
331
299C
331
299D
331
29A8
331
29A9
102
}
 70
     0
280
     1
281
     0
  0
BLOCK_RECORD
  5
606
102
{ACAD_XDICTIONARY
360
607
102
}
330
1
100
AcDbSymbolTableRecord
100
AcDbBlockTableRecord
  2
G$C6871B53C
340
0
 70
     0
280
     1
281
     0
  0
BLOCK_RECORD
  5
614
102
{ACAD_XDICTIONARY
360
615
102
}
330
1
100
AcDbSymbolTableRecord
100
AcDbBlockTableRecord
  2
G$CD7152208
340
0
 70
     0
280
     1
281
     0
  0
BLOCK_RECORD
  5
639
330
1
100
AcDbSymbolTableRecord
100
AcDbBlockTableRecord
  2
_Dot
340
0
 70
     0
280
     1
281
     0
  0
BLOCK_RECORD
  5
64A
102
{ACAD_XDICTIONARY
360
64B
102
}
330
1
100
AcDbSymbolTableRecord
100
AcDbBlockTableRecord
  2
G$C2A2A107F
340
0
 70
     0
280
     1
281
     0
  0
BLOCK_RECORD
  5
BC8
330
1
100
AcDbSymbolTableRecord
100
AcDbBlockTableRecord
  2
G$C165DBF54
340
0
 70
     0
280
     1
281
     0
1001
AcDbDynamicBlockGUID
1000
{479d2c7b-f6c3-4861-acbc-d34a4f4a2dc7}
  0
BLOCK_RECORD
  5
187B
102
{ACAD_XDICTIONARY
360
187C
102
}
330
1
100
AcDbSymbolTableRecord
100
AcDbBlockTableRecord
  2
G$CEF564B3B
340
0
 70
     0
280
     1
281
     0
  0
BLOCK_RECORD
  5
1882
102
{ACAD_XDICTIONARY
360
1883
102
}
330
1
100
AcDbSymbolTableRecord
100
AcDbBlockTableRecord
  2
G$CB19DC8F7
340
0
 70
     0
280
     1
281
     0
1001
AcDbDynamicBlockGUID
1000
{f172ea19-8cb5-418d-a29b-c5652f4599e6}
  0
BLOCK_RECORD
  5
188F
102
{ACAD_XDICTIONARY
360
1890
102
}
330
1
100
AcDbSymbolTableRecord
100
AcDbBlockTableRecord
  2
G$CE1693FE5
340
0
 70
     0
280
     1
281
     0
  0
BLOCK_RECORD
  5
1B9E
330
1
100
AcDbSymbolTableRecord
100
AcDbBlockTableRecord
  2
G$CFFEEE416
340
0
 70
     0
280
     1
281
     0
1001
AcDbDynamicBlockGUID
1000
{0c2157f6-b3ee-4cc8-8ef8-e3c5727a5504}
  0
BLOCK_RECORD
  5
1D07
330
1
100
AcDbSymbolTableRecord
100
AcDbBlockTableRecord
  2
G$C71E0D0B6
340
0
 70
     0
280
     1
281
     0
1001
AcDbDynamicBlockGUID
1000
{1b67938a-c04f-4007-9aec-0af97924580e}
  0
BLOCK_RECORD
  5
1F7C
102
{ACAD_XDICTIONARY
360
1F7D
102
}
330
1
100
AcDbSymbolTableRecord
100
AcDbBlockTableRecord
  2
G$CD8E13982
340
0
 70
     0
280
     1
281
     0
1001
AcDbDynamicBlockGUID
1000
{a60dc6bd-090b-4d02-89df-6ca7ec748270}
  0
BLOCK_RECORD
  5
2168
330
1
100
AcDbSymbolTableRecord
100
AcDbBlockTableRecord
  2
G$C453E252E
340
0
 70
     0
280
     1
281
     0
1001
AcDbDynamicBlockGUID
1000
{5617beaa-9f4d-4b54-802b-8a0c3ab02923}
  0
BLOCK_RECORD
  5
218F
102
{ACAD_XDICTIONARY
360
2190
102
}
330
1
100
AcDbSymbolTableRecord
100
AcDbBlockTableRecord
  2
G$C34E990A1
340
0
 70
     0
280
     1
281
     0
  0
BLOCK_RECORD
  5
2321
330
1
100
AcDbSymbolTableRecord
100
AcDbBlockTableRecord
  2
G$CC91778B9
340
0
102
{BLKREFS
331
237E
102
}
 70
     0
280
     1
281
     0
1001
AcDbDynamicBlockGUID
1000
{4a7b87a7-3508-4c0b-92ee-70d2268fe1a6}
  0
BLOCK_RECORD
  5
237A
102
{ACAD_XDICTIONARY
360
237B
102
}
330
1
100
AcDbSymbolTableRecord
100
AcDbBlockTableRecord
  2
G$CBE61CC38
340
0
102
{BLKREFS
331
296B
102
}
 70
     0
280
     1
281
     0
  0
BLOCK_RECORD
  5
2382
330
1
100
AcDbSymbolTableRecord
100
AcDbBlockTableRecord
  2
G$CB27C112C
340
0
 70
     0
280
     1
281
     0
1001
AcDbDynamicBlockGUID
1000
{c052728d-9344-4c66-8aae-fa5bc194eecd}
  0
BLOCK_RECORD
  5
24C2
102
{ACAD_XDICTIONARY
360
24C3
102
}
330
1
100
AcDbSymbolTableRecord
100
AcDbBlockTableRecord
  2
G$C56DAE06E
340
0
 70
     0
280
     1
281
     0
  0
BLOCK_RECORD
  5
24FE
330
1
100
AcDbSymbolTableRecord
100
AcDbBlockTableRecord
  2
G$C83A38C16
340
0
 70
     0
280
     1
281
     0
1001
AcDbDynamicBlockGUID
1000
{4122586b-fc58-4d96-8268-8d5b18754cbf}
  0
BLOCK_RECORD
  5
26E0
102
{ACAD_XDICTIONARY
360
26E1
102
}
330
1
100
AcDbSymbolTableRecord
100
AcDbBlockTableRecord
  2
G$C2E32D176
340
0
102
{BLKREFS
331
2974
331
2975
331
2976
331
2978
331
2979
331
297A
102
}
 70
     0
280
     1
281
     0
  0
BLOCK_RECORD
  5
29A2
330
1
100
AcDbSymbolTableRecord
100
AcDbBlockTableRecord
  2
*D249
340
0
 70
     0
280
     1
281
     0
  0
ENDTAB
  0
ENDSEC
  0
SECTION
  2
BLOCKS
  0
BLOCK
  5
20
330
1F
100
AcDbEntity
  8
0
100
AcDbBlockBegin
  2
*Model_Space
 70
     0
 10
0.0
 20
0.0
 30
0.0
  3
*Model_Space
  1

  0
ENDBLK
  5
21
330
1F
100
AcDbEntity
  8
0
100
AcDbBlockEnd
  0
BLOCK
  5
5A
330
58
100
AcDbEntity
 67
     1
  8
0
100
AcDbBlockBegin
  2
*Paper_Space
 70
     0
 10
0.0
 20
0.0
 30
0.0
  3
*Paper_Space
  1

  0
ENDBLK
  5
5B
330
58
100
AcDbEntity
 67
     1
  8
0
100
AcDbBlockEnd
  0
BLOCK
  5
5F
330
5D
100
AcDbEntity
  8
0
100
AcDbBlockBegin
  2
*Paper_Space0
 70
     0
 10
0.0
 20
0.0
 30
0.0
  3
*Paper_Space0
  1

  0
ENDBLK
  5
60
330
5D
100
AcDbEntity
  8
0
100
AcDbBlockEnd
  0
BLOCK
  5
523
330
522
100
AcDbEntity
  8
0
370
    -1
100
AcDbBlockBegin
  2
_OPEN
 70
     0
 10
0.0
 20
0.0
 30
0.0
  3
_OPEN
  1

  0
LINE
  5
524
330
522
100
AcDbEntity
  8
0
  6
ByBlock
 62
     0
370
    -1
100
AcDbLine
 10
-1.0
 20
0.1666666666666667
 30
0.0
 11
0.0
 21
0.0
 31
0.0
  0
LINE
  5
525
330
522
100
AcDbEntity
  8
0
  6
ByBlock
 62
     0
370
    -1
100
AcDbLine
 10
0.0
 20
0.0
 30
0.0
 11
-1.0
 21
-0.1666666666666667
 31
0.0
  0
LINE
  5
526
330
522
100
AcDbEntity
  8
0
  6
ByBlock
 62
     0
370
    -1
100
AcDbLine
 10
0.0
 20
0.0
 30
0.0
 11
-1.0
 21
0.0
 31
0.0
  0
ENDBLK
  5
527
330
522
100
AcDbEntity
  8
0
370
    -1
100
AcDbBlockEnd
  0
BLOCK
  5
529
330
528
100
AcDbEntity
  8
0
370
    -1
100
AcDbBlockBegin
  2
_OBLIQUE
 70
     0
 10
0.0
 20
0.0
 30
0.0
  3
_OBLIQUE
  1

  0
LINE
  5
52A
330
528
100
AcDbEntity
  8
0
  6
ByBlock
 62
     0
370
    -2
100
AcDbLine
 10
-0.5
 20
-0.5
 30
0.0
 11
0.5
 21
0.5
 31
0.0
  0
LINE
  5
52B
330
528
100
AcDbEntity
  8
0
  6
ByBlock
 62
     0
370
    -2
100
AcDbLine
 10
0.0
 20
0.0
 30
0.0
 11
0.0
 21
0.0
 31
0.0
  0
ENDBLK
  5
52C
330
528
100
AcDbEntity
  8
A-_ANOT----_H-_N
370
    -1
100
AcDbBlockEnd
  0
BLOCK
  5
609
330
606
100
AcDbEntity
  8
0
100
AcDbBlockBegin
  2
G$C6871B53C
 70
     0
 10
0.0
 20
0.0
 30
0.0
  3
G$C6871B53C
  1

  0
LWPOLYLINE
  5
60A
330
606
100
AcDbEntity
  8
0
 62
     3
370
    -3
100
AcDbPolyline
 90
        4
 70
     1
 43
0.0
 10
0.0
 20
0.0
 10
40.0
 20
0.0
 10
40.0
 20
50.0
 10
0.0
 20
50.0
  0
LINE
  5
60B
330
606
100
AcDbEntity
  8
0
 62
     8
 48
0.5
370
    -3
100
AcDbLine
 10
0.0
 20
50.0
 30
0.0
 11
40.0
 21
0.0
 31
0.0
  0
LINE
  5
60C
330
606
100
AcDbEntity
  8
0
 62
     8
 48
0.5
370
    -3
100
AcDbLine
 10
0.0
 20
0.0
 30
0.0
 11
40.0
 21
50.0
 31
0.0
  0
ENDBLK
  5
60D
330
606
100
AcDbEntity
  8
0
100
AcDbBlockEnd
  0
BLOCK
  5
617
330
614
100
AcDbEntity
  8
0
100
AcDbBlockBegin
  2
G$CD7152208
 70
     0
 10
0.0
 20
0.0
 30
0.0
  3
G$CD7152208
  1

  0
LINE
  5
618
330
614
100
AcDbEntity
  8
_lines
100
AcDbLine
 10
16.88076436214124
 20
87.75396592278958
 30
0.0
 11
16.88076436214124
 21
90.41469002391386
 31
0.0
  0
ARC
  5
619
330
614
100
AcDbEntity
  8
_lines
100
AcDbCircle
 10
15.88076436214124
 20
90.41469002391386
 30
0.0
 40
1.0
100
AcDbArc
 50
0.0
 51
90.0
  0
LINE
  5
61A
330
614
100
AcDbEntity
  8
_lines
100
AcDbLine
 10
15.88076436214124
 20
91.41469002391386
 30
0.0
 11
3.051734022178607
 21
91.41469002391386
 31
0.0
  0
ARC
  5
61B
330
614
100
AcDbEntity
  8
_lines
100
AcDbCircle
 10
3.051734022178607
 20
90.41469002391023
 30
0.0
 40
1.000000000001535
100
AcDbArc
 50
90.0
 51
169.5118037983809
  0
LINE
  5
61C
330
614
100
AcDbEntity
  8
_lines
100
AcDbLine
 10
2.068441592201452
 20
90.59672298013356
 30
0.0
 11
0.0334151400465998
 21
79.60406458068064
 31
0.0
  0
ARC
  5
61D
330
614
100
AcDbEntity
  8
_lines
100
AcDbCircle
 10
2.000000000000909
 20
79.23999866823397
 30
0.0
 40
2.00000000000096
100
AcDbArc
 50
169.5118037983667
 51
237.7651800470682
  0
LINE
  5
61E
330
614
100
AcDbEntity
  8
_lines
100
AcDbLine
 10
0.9332191429266459
 20
77.54826033060999
 30
0.0
 11
6.371753296591123
 21
74.11881500999334
 31
0.0
  0
ARC
  5
61F
330
614
100
AcDbEntity
  8
_lines
100
AcDbCircle
 10
-9.629959559511008
 20
48.74273994565374
 30
0.0
 40
30.00000000000131
100
AcDbArc
 50
14.33762585345906
 51
57.76518004708165
  0
LINE
  5
620
330
614
100
AcDbEntity
  8
_lines
100
AcDbLine
 10
19.43564002405219
 20
56.17179916254281
 30
0.0
 11
24.88320987134648
 21
34.85861814428245
 31
0.0
  0
ARC
  5
621
330
614
100
AcDbEntity
  8
_lines
100
AcDbCircle
 10
53.94880945490786
 20
42.28767736117152
 30
0.0
 40
29.99999999999993
100
AcDbArc
 50
194.3376258534557
 51
229.3656677408582
  0
LINE
  5
622
330
614
100
AcDbEntity
  8
_lines
100
AcDbLine
 10
34.41193753198604
 20
19.52124076105065
 30
0.0
 11
38.30499333734133
 21
16.18043982702875
 31
0.0
  0
ARC
  5
623
330
614
100
AcDbEntity
  8
_lines
100
AcDbCircle
 10
25.28041205539466
 20
1.002815426949383
 30
0.0
 40
19.9999999999985
100
AcDbArc
 50
36.21083694825055
 51
49.36566774085934
  0
LINE
  5
624
330
614
100
AcDbEntity
  8
_lines
100
AcDbLine
 10
42.50828968670521
 20
10.33716085122251
 30
0.0
 11
42.03339202656753
 21
7.259654366209361
 31
0.0
  0
ARC
  5
625
330
614
100
AcDbEntity
  8
_lines
100
AcDbCircle
 10
40.53168502446533
 20
10.64217562005797
 30
0.0
 40
1.999999999999788
100
AcDbArc
 50
351.2277387767663
 51
36.21083694826925
  0
LINE
  5
626
330
614
100
AcDbEntity
  8
_lines
100
AcDbLine
 10
41.41738386142606
 20
12.81798114441881
 30
0.0
 11
42.14538220506802
 21
11.82369219180509
 31
0.0
  0
ARC
  5
627
330
614
100
AcDbEntity
  8
_lines
100
AcDbCircle
 10
46.9749036821695
 20
6.497117444119795
 30
0.0
 40
4.9999999999997
100
AcDbArc
 50
171.227738776756
 51
207.9735891547149
  0
LINE
  5
628
330
614
100
AcDbEntity
  8
_lines
100
AcDbLine
 10
42.55908415777958
 20
4.151794880375746
 30
0.0
 11
44.20019929318551
 21
1.061870974503108
 31
0.0
  0
ARC
  5
629
330
614
100
AcDbEntity
  8
_lines
100
AcDbCircle
 10
45.96652710294165
 20
2.000000000001819
 30
0.0
 40
2.000000000000503
100
AcDbArc
 50
207.9735891548032
 51
270.0
  0
LINE
  5
62A
330
614
100
AcDbEntity
  8
_lines
100
AcDbLine
 10
45.96652710294165
 20
0.0
 30
0.0
 11
130.542071139379
 21
0.0
 31
0.0
  0
ARC
  5
62B
330
614
100
AcDbEntity
  8
_lines
100
AcDbCircle
 10
130.542071139379
 20
2.000000000001819
 30
0.0
 40
2.000000000001817
100
AcDbArc
 50
270.0
 51
0.0
  0
LINE
  5
62C
330
614
100
AcDbEntity
  8
_lines
100
AcDbLine
 10
132.5420711393808
 20
2.000000000001819
 30
0.0
 11
132.5420711393808
 21
73.5
 31
0.0
  0
ARC
  5
62D
330
614
100
AcDbEntity
  8
_lines
100
AcDbCircle
 10
131.042071139379
 20
73.5
 30
0.0
 40
1.500000000000002
100
AcDbArc
 50
0.0
 51
180.0
  0
LINE
  5
62E
330
614
100
AcDbEntity
  8
_lines
100
AcDbLine
 10
129.542071139379
 20
73.5
 30
0.0
 11
129.542071139379
 21
68.5
 31
0.0
  0
LINE
  5
62F
330
614
100
AcDbEntity
  8
_lines
100
AcDbLine
 10
131.042071139379
 20
73.5
 30
0.0
 11
131.042071139379
 21
62.15193032068782
 31
0.0
  0
ARC
  5
630
330
614
100
AcDbEntity
  8
_lines
100
AcDbCircle
 10
126.042071139379
 20
62.15193032068782
 30
0.0
 40
4.999999999999996
100
AcDbArc
 50
298.7687820837271
 51
0.0
  0
LINE
  5
631
330
614
100
AcDbEntity
  8
_lines
100
AcDbLine
 10
128.4484518502222
 20
57.76908514038769
 30
0.0
 11
92.31948031753109
 21
37.93264177486344
 31
0.0
  0
ARC
  5
632
330
614
100
AcDbEntity
  8
_lines
100
AcDbCircle
 10
89.91309960668787
 20
42.31548695516358
 30
0.0
 40
4.999999999999999
100
AcDbArc
 50
242.5985020513257
 51
298.7687820837271
  0
LINE
  5
633
330
614
100
AcDbEntity
  8
_lines
100
AcDbLine
 10
87.61198462772245
 20
37.87647018862845
 30
0.0
 11
9.670371818519016
 21
78.28015013687582
 31
0.0
  0
ARC
  5
634
330
614
100
AcDbEntity
  8
_lines
100
AcDbCircle
 10
11.97148679748443
 20
82.71916690341095
 30
0.0
 40
4.999999999999999
100
AcDbArc
 50
171.8014896755656
 51
242.5985020513257
  0
ARC
  5
635
330
614
100
AcDbEntity
  8
_lines
100
AcDbCircle
 10
11.97148679748443
 20
84.14519890070551
 30
0.0
 40
5.000000000000023
100
AcDbArc
 50
90.0
 51
188.198510324455
  0
LINE
  5
636
330
614
100
AcDbEntity
  8
_lines
100
AcDbLine
 10
11.97148679748443
 20
89.14519890070551
 30
0.0
 11
14.66945682582627
 21
89.14519890070551
 31
0.0
  0
ENDBLK
  5
637
330
614
100
AcDbEntity
  8
0
100
AcDbBlockEnd
  0
BLOCK
  5
63A
330
639
100
AcDbEntity
  8
0
100
AcDbBlockBegin
  2
_Dot
 70
     0
 10
0.0
 20
0.0
 30
0.0
  3
_Dot
  1

  0
LWPOLYLINE
  5
63B
330
639
100
AcDbEntity
  8
0
  6
ByBlock
 62
     0
440
 16777216
100
AcDbPolyline
 90
        2
 70
     1
 43
0.5
 10
-0.25
 20
0.0
 42
1.0
 10
0.25
 20
0.0
 42
1.0
  0
LINE
  5
63C
330
639
100
AcDbEntity
  8
0
  6
ByBlock
 62
     0
440
 16777216
370
    -2
100
AcDbLine
 10
-0.5
 20
0.0
 30
0.0
 11
-1.0
 21
0.0
 31
0.0
  0
ENDBLK
  5
63D
330
639
100
AcDbEntity
  8
0
100
AcDbBlockEnd
  0
BLOCK
  5
64D
330
64A
100
AcDbEntity
  8
0
100
AcDbBlockBegin
  2
G$C2A2A107F
 70
     0
 10
0.0
 20
0.0
 30
0.0
  3
G$C2A2A107F
  1

  0
LWPOLYLINE
  5
64E
330
64A
100
AcDbEntity
  8
0
 62
     1
 48
0.5
370
    -3
100
AcDbPolyline
 90
       13
 70
     0
 43
0.39
 10
3.991807792449436
 20
0.0607952146779098
 10
0.2052291347154096
 20
11.60084799211245
 42
-0.3154444403219085
 10
4.148211283686578
 20
17.2288358209812
 10
167.1912729961223
 20
76.04996977377732
 42
0.3160763298158982
 10
172.4763846200494
 20
83.5752193447529
 42
0.0979840179088652
 10
171.8633558313695
 20
86.67339389046492
 42
-0.1901895654699158
 10
171.7753170694477
 20
92.62187120955605
 42
-0.2331417737959737
 10
176.9113534049084
 20
97.42200648388143
 10
338.5020032749271
 20
153.8107698771269
 42
0.4195131113913144
 10
340.2870431224546
 20
157.7016170894017
 10
337.5324503276252
 20
165.085650864052
 42
-0.3849086565160594
 10
340.8742863619391
 20
170.8982900926762
 10
359.8959654100909
 20
177.0788082708418
  0
ENDBLK
  5
64F
330
64A
100
AcDbEntity
  8
0
100
AcDbBlockEnd
  0
BLOCK
  5
BC9
330
BC8
100
AcDbEntity
  8
0
100
AcDbBlockBegin
  2
G$C165DBF54
 70
     0
 10
0.0
 20
0.0
 30
0.0
  3
G$C165DBF54
  1

  0
LINE
  5
BCA
330
BC8
100
AcDbEntity
  8
_lines
100
AcDbLine
 10
0.3929681876434188
 20
20.27561882960981
 30
0.0
 11
8.124407595323646
 21
0.0
 31
0.0
1001
REVIT
1002
{
1070
     3
1000
541600
1002
}
  0
ARC
  5
BCB
330
BC8
100
AcDbEntity
  8
_lines
100
AcDbCircle
 10
5.988025489960819
 20
22.40910964332579
 30
0.0
 40
5.988025489960886
100
AcDbArc
 50
109.9696388459708
 51
200.8727024843681
1001
REVIT
1002
{
1070
     3
1000
541600
1002
}
  0
LINE
  5
BCC
330
BC8
100
AcDbEntity
  8
_lines
100
AcDbLine
 10
361.5033518494483
 20
188.7323064455377
 30
0.0
 11
342.4816728012966
 21
182.5517882673721
 31
0.0
1001
REVIT
1002
{
1070
     3
1000
541600
1002
}
  0
ARC
  5
BCD
330
BC8
100
AcDbEntity
  8
_lines
100
AcDbCircle
 10
344.026757773172
 20
177.7965056858957
 30
0.0
 40
5.000000000000037
100
AcDbArc
 50
108.0000000000086
 51
200.872702484329
1001
REVIT
1002
{
1070
     3
1000
541600
1002
}
  0
LINE
  5
BCE
330
BC8
100
AcDbEntity
  8
0
 62
     1
 48
0.5
370
    -3
100
AcDbLine
 10
343.5449590526696
 20
150.746785398358
 30
0.0
 11
3.942982148970259
 21
28.03709747219364
 31
0.0
1001
REVIT
1002
{
1070
     3
1000
541600
1002
}
  0
LINE
  5
BCF
330
BC8
100
AcDbEntity
  8
_lines
100
AcDbLine
 10
339.3548861255831
 20
176.0150413139672
 30
0.0
 11
346.5176818500531
 21
157.2306845848125
 31
0.0
1001
REVIT
1002
{
1070
     3
1000
541600
1002
}
  0
ARC
  5
BD0
330
BC8
100
AcDbEntity
  8
_lines
100
AcDbCircle
 10
341.8458102024642
 20
155.4492202128822
 30
0.0
 40
4.999999999999972
100
AcDbArc
 50
289.8665030839831
 51
20.8727024843527
1001
REVIT
1002
{
1070
     3
1000
541600
1002
}
  0
CIRCLE
  5
BD1
330
BC8
100
AcDbEntity
  8
_circles
100
AcDbCircle
 10
340.0597577961616
 20
177.1414329795771
 30
0.0
 40
0.5
1001
REVIT
1002
{
1070
     3
1000
548272
1002
}
  0
LWPOLYLINE
  5
BD2
330
BC8
100
AcDbEntity
  8
0
 62
     1
 48
0.5
370
    -3
100
AcDbPolyline
 90
        8
 70
     0
 43
0.39
 10
8.124407595323646
 20
0.0
 10
0.1289867743497073
 20
21.17294031940961
 42
-0.3736071094690657
 10
3.942982148970281
 20
28.03709747219425
 10
343.5449590526696
 20
150.7467853983584
 42
0.4193666086212307
 10
346.5176818500531
 20
157.2306845848125
 10
339.2385977974005
 20
176.3565320589077
 42
-0.4077765970010953
 10
342.4816728012966
 20
182.5517882673721
 10
361.5033518494483
 20
188.7323064455377
  0
ENDBLK
  5
BD3
330
BC8
100
AcDbEntity
  8
0
100
AcDbBlockEnd
  0
BLOCK
  5
187E
330
187B
100
AcDbEntity
  8
0
100
AcDbBlockBegin
  2
G$CEF564B3B
 70
     0
 10
0.0
 20
0.0
 30
0.0
  3
G$CEF564B3B
  1

  0
LWPOLYLINE
  5
187F
330
187B
100
AcDbEntity
  8
GE FLASHING
 62
     1
 48
0.5
370
    -3
100
AcDbPolyline
 90
        5
 70
     0
 43
1.0
 10
90.37167965212939
 20
93.13741346982351
 10
90.37167965212939
 20
137.7740636299386
 10
0.5
 20
137.7740636299386
 10
0.5
 20
44.19081537009652
 10
9.5
 20
0.0999999999999091
  0
ENDBLK
  5
1880
330
187B
100
AcDbEntity
  8
0
100
AcDbBlockEnd
  0
BLOCK
  5
1885
330
1882
100
AcDbEntity
  8
GE FLASHING
100
AcDbBlockBegin
  2
G$CB19DC8F7
 70
     0
 10
0.0
 20
0.0
 30
0.0
  3
G$CB19DC8F7
  1

  0
LWPOLYLINE
  5
1886
330
1882
100
AcDbEntity
  8
GE TILES
 62
     1
 48
0.5
370
    -3
100
AcDbPolyline
 90
      100
 70
     0
 43
1.0
 10
0.5
 20
40.50640191459752
 10
0.5
 20
0.506401914597518
 10
14.1725153997686
 20
0.500118431415558
 42
0.3144374898271473
 10
16.81581283750165
 20
2.344808262156221
 42
-0.0952816377930046
 10
20.63509879313187
 20
8.684814391263444
 42
-0.1507717279415002
 10
25.66152323887854
 20
11.69320834219798
 42
-0.0890307948874332
 10
28.90061418777259
 20
11.89573612264667
 42
-0.1464817733278774
 10
34.20013489598841
 20
9.617286225188764
 42
-0.0085850172702223
 10
36.36945415475475
 20
7.737145184496057
 42
0.1851250302374373
 10
40.67128017781943
 20
6.092474862468862
 42
0.0161362627762171
 10
43.97366053396672
 20
6.202164435833765
 42
0.1680002659188674
 10
47.62084806579151
 20
7.737145184629753
 42
-0.0485798954908245
 10
52.27894242697039
 20
11.16329436993465
 42
-0.1983824016748921
 10
57.21651403806118
 20
11.88637168073956
 42
-0.047523137941845
 10
61.33409766229579
 20
10.42406521811972
 42
-0.1630622330458971
 10
63.93659805260813
 20
7.953000555517974
 42
0.0298243649624302
 10
66.57762552654731
 20
3.622572194136865
 42
-0.0554847166023468
 10
67.81706495662638
 20
1.33439106573951
 42
0.3144581315813627
 10
68.82136102408822
 20
0.6822900860524896
 42
-0.1075480814737937
 10
69.8177868205812
 20
0.500118431415558
 10
80.89175846141552
 20
0.5064024137050183
 42
0.2677971490740892
 10
83.57467810244816
 20
2.056401914584967
 10
86.33025617792191
 20
7.937827973607455
 42
-0.2909805391793188
 10
90.38222667345235
 20
10.51404450718292
 10
105.539499278756
 20
10.55585857672531
 10
111.2089692617174
 20
11.23063264256552
 10
114.6655868486605
 20
11.19046292570647
 10
118.6311006377946
 20
10.62367477374619
 10
123.0573623773744
 20
9.386827873678612
 10
126.1594207850212
 20
8.056397858123091
 10
129.2248930004716
 20
6.47201829828191
 10
131.4881645881032
 20
5.811293573851344
 10
133.7432006337431
 20
5.74502765606303
 10
135.8499342378982
 20
6.203079345412789
 10
137.5337544901186
 20
6.986468366736517
 10
140.7950917390208
 20
8.807104952828468
 42
-0.2343085133768697
 10
156.8614793675533
 20
7.594591718855554
 42
-0.0369830761216474
 10
158.9750527230408
 20
6.11872238388105
 42
0.0452840395304961
 10
161.2311011927886
 20
4.59835705992009
 42
0.0839199469717881
 10
163.9300143321916
 20
3.658674814784263
 42
0.0577814066399808
 10
167.1340254517172
 20
3.491394980279438
 42
0.0817118573763595
 10
169.8277797613273
 20
4.111711191467748
 42
0.060460522145006
 10
172.7267047677788
 20
5.73389432799695
 42
-0.0175628328589988
 10
175.3359050103627
 20
7.502983267269883
 42
-0.1193038223792303
 10
178.3178182144256
 20
8.501805458517993
 42
-0.0466804696993966
 10
182.6728703623321
 20
8.468861645591005
 42
-0.1224255899562275
 10
185.7635084384356
 20
7.359928461627078
 42
-0.0021976574366095
 10
187.7148586459762
 20
6.046227317925513
 42
0.0598692057381186
 10
190.1835734509341
 20
4.769353675192178
 42
0.0805518231819641
 10
196.5889408784378
 20
3.491062266356948
 42
0.1085830654256639
 10
202.470526338966
 20
4.561922786614105
 42
0.0431621048222569
 10
206.0825613577226
 20
6.454738890144654
 42
-0.073120503309113
 10
213.5135972274193
 20
9.799796311475802
 42
-0.2135351777441864
 10
219.0976687736083
 20
8.991474148594534
 42
0.0277003729638193
 10
221.8823694662906
 20
7.437039103971074
 42
0.0666138996187925
 10
225.5894862758341
 20
6.205645711431771
 42
0.1383936215819727
 10
231.5653848895408
 20
6.729081522864362
 42
0.071769835774096
 10
235.2223579450556
 20
8.754056798192778
 42
-0.0511818591444494
 10
238.3013124250056
 20
10.62792028270633
 42
-0.1776902975007202
 10
241.5546881623677
 20
10.93049883443064
 42
-0.2052507455354989
 10
243.8378261473599
 20
9.144415901918364
 10
247.0417144123421
 20
2.293215352718562
 42
0.2911769892817301
 10
249.8498349677729
 20
0.506401914597518
 10
261.1567026265111
 20
0.5448467670753416
 42
0.2667636498253825
 10
263.5460291287709
 20
2.465096660755535
 10
267.3861375849601
 20
10.05756280756714
 42
-0.1913380611813692
 10
269.9149055353237
 20
11.06203593723512
 10
279.353229131154
 20
11.03820211102266
 42
-0.1941050331233009
 10
283.4751162140983
 20
8.954638598132533
 42
0.0713673250360073
 10
285.0694761338123
 20
7.587074005034992
 42
0.1305424751270063
 10
289.9025117658671
 20
6.055598081225071
 42
0.1537998043526602
 10
294.8000385041751
 20
7.347742183331775
 42
-0.0342019839470086
 10
297.2821976325763
 20
8.687003429507058
 42
-0.1759827198152869
 10
299.609032997389
 20
8.86889660181123
 42
-0.0245861296963565
 10
301.8102541421395
 20
8.140541378602848
 42
-0.1390652413202865
 10
303.0185787390719
 20
7.231336964232469
 42
0.1892836867809608
 10
304.4670411471247
 20
6.348679678694225
 42
-0.0012892425160863
 10
306.240592503932
 20
6.033779596651584
 42
0.22312029341888
 10
308.7863599962434
 20
6.713049575530476
 42
-0.0259294320993023
 10
309.90007038779
 20
7.556101087043771
 42
-0.0668917843344885
 10
313.8636002301564
 20
9.532276123581596
 42
-0.2028112030561561
 10
317.6937928740622
 20
9.258872889142367
 42
0.0033231228805357
 10
319.5754927409284
 20
8.31529122162192
 42
0.0339765351938608
 10
324.3389263245299
 20
6.355948850759432
 42
0.174403570499621
 10
329.9220580049969
 20
6.484526417232246
 42
-0.0142766282042484
 10
332.4259145242595
 20
7.369692131039301
 42
0.1273253406553399
 10
335.278345056076
 20
9.176132187994881
 42
-0.2836931045728486
 10
339.8049350942242
 20
10.40443517272979
 42
-0.0046855754428039
 10
343.7463822015347
 20
9.197030756550248
 42
-0.195884940313394
 10
345.7104704139006
 20
7.564403306076656
 42
0.2728160678700086
 10
347.6450242904602
 20
6.384423292642623
 42
-0.0576703196817088
 10
350.0823247332728
 20
6.065165383007297
 42
0.2597477929231045
 10
352.3466979607565
 20
6.674340685362495
 42
-0.0797956924462406
 10
353.9226653300943
 20
7.780073461120082
 42
0.1930007918767561
 10
355.5701900673371
 20
9.595599550231327
 42
-0.3447979284179001
 10
357.2784954296867
 20
10.64560463221051
 42
0.1498657568152403
 10
359.1987351896905
 20
11.00410606923788
 10
374.6972637832068
 20
10.99034944575214
 42
-0.3059463717492144
 10
377.8929074820962
 20
8.552612251653045
 10
380.8102808585181
 20
2.296285237615848
  0
ENDBLK
  5
1887
330
1882
100
AcDbEntity
  8
GE FLASHING
100
AcDbBlockEnd
  0
BLOCK
  5
1892
330
188F
100
AcDbEntity
  8
_lines
100
AcDbBlockBegin
  2
G$CE1693FE5
 70
     0
 10
0.0
 20
0.0
 30
0.0
  3
G$CE1693FE5
  1

  0
HATCH
  5
1893
330
188F
100
AcDbEntity
  8
0
  6
Dash
 62
     8
 48
0.1
370
    18
100
AcDbHatch
 10
0.0
 20
0.0
 30
0.0
210
0.0
220
0.0
230
1.0
  2
SOLID
 70
     1
 71
     0
 91
        1
 92
        0
 93
        4
 72
     1
 10
1.959124880144373
 20
0.7372192214470488
 11
1.959124880144373
 21
5.569324604104168
 72
     1
 10
1.959124880144373
 20
5.569324604104168
 11
2.618048341415488
 21
5.569324604104168
 72
     1
 10
2.618048341416397
 20
5.569324604104168
 11
2.618048341416397
 21
0.7372192214470488
 72
     1
 10
2.618048341416397
 20
0.7372192214470488
 11
1.959124880145282
 21
0.7372192214470488
 97
        0
 75
     0
 76
     1
 98
        1
 10
2.618048341416397
 20
3.153271912775836
1001
REVIT
1002
{
1070
     3
1000
162980
1002
}
  0
LINE
  5
1894
330
188F
100
AcDbEntity
  8
0
  6
Dash
 62
     8
 48
0.1
370
    18
100
AcDbLine
 10
2.618048341416397
 20
2.102181275184194
 30
0.0
 11
3.086642861036125
 21
2.102181275184194
 31
0.0
1001
REVIT
1002
{
1070
     3
1000
162980
1002
}
  0
LINE
  5
1895
330
188F
100
AcDbEntity
  8
0
  6
Dash
 62
     8
 48
0.1
370
    18
100
AcDbLine
 10
3.677922969505744
 20
2.102181275184194
 30
0.0
 11
40.70648383665321
 21
2.102181275185103
 31
0.0
1001
REVIT
1002
{
1070
     3
1000
162980
1002
}
  0
LINE
  5
1896
330
188F
100
AcDbEntity
  8
0
  6
Dash
 62
     8
 48
0.1
370
    18
100
AcDbLine
 10
40.70648383665412
 20
4.204362550368842
 30
0.0
 11
3.933691160676972
 21
4.204362550367932
 31
0.0
1001
REVIT
1002
{
1070
     3
1000
162980
1002
}
  0
LINE
  5
1897
330
188F
100
AcDbEntity
  8
0
  6
Dash
 62
     8
 48
0.1
370
    18
100
AcDbLine
 10
3.342411052208263
 20
4.204362550367932
 30
0.0
 11
2.618048341416397
 21
4.204362550367478
 31
0.0
1001
REVIT
1002
{
1070
     3
1000
162980
1002
}
  0
LINE
  5
1898
330
188F
100
AcDbEntity
  8
0
  6
Dash
 62
     8
 48
0.1
370
    18
100
AcDbLine
 10
0.0
 20
1.336261008598285
 30
0.0
 11
0.0
 21
4.970282816953386
 31
0.0
1001
REVIT
1002
{
1070
     3
1000
162980
1002
}
  0
ARC
  5
1899
330
188F
100
AcDbEntity
  8
0
  6
Dash
 62
     8
 48
0.1
370
    18
100
AcDbCircle
 10
0.7093329076560622
 20
1.336261008598285
 30
0.0
 40
0.7093329076562176
100
AcDbArc
 50
122.3800650937775
 51
237.6199349062225
1001
REVIT
1002
{
1070
     3
1000
162980
1002
}
  0
ARC
  5
189A
330
188F
100
AcDbEntity
  8
0
  6
Dash
 62
     8
 48
0.1
370
    18
100
AcDbCircle
 10
2.416052691327423
 20
3.153271912775836
 30
0.0
 40
2.416052691327213
100
AcDbArc
 50
149.7273586810873
 51
210.2726413189127
1001
REVIT
1002
{
1070
     3
1000
162980
1002
}
  0
ARC
  5
189B
330
188F
100
AcDbEntity
  8
0
  6
Dash
 62
     8
 48
0.1
370
    18
100
AcDbCircle
 10
0.7093329076560622
 20
4.970282816953386
 30
0.0
 40
0.7093329076562584
100
AcDbArc
 50
122.3800650937972
 51
237.6199349062225
1001
REVIT
1002
{
1070
     3
1000
162980
1002
}
  0
LINE
  5
189C
330
188F
100
AcDbEntity
  8
0
  6
Dash
 62
     8
 48
0.1
370
    18
100
AcDbLine
 10
1.629663149508815
 20
5.569324604104168
 30
0.0
 11
0.3294617306355576
 21
5.569324604104168
 31
0.0
1001
REVIT
1002
{
1070
     3
1000
162980
1002
}
  0
LINE
  5
189D
330
188F
100
AcDbEntity
  8
0
  6
Dash
 62
     8
 48
0.1
370
    18
100
AcDbLine
 10
1.629663149508815
 20
4.37124102980215
 30
0.0
 11
0.3294617306355576
 21
4.37124102980215
 31
0.0
1001
REVIT
1002
{
1070
     3
1000
162980
1002
}
  0
LINE
  5
189E
330
188F
100
AcDbEntity
  8
0
  6
Dash
 62
     8
 48
0.1
370
    18
100
AcDbLine
 10
1.629663149508815
 20
1.935302795749521
 30
0.0
 11
0.3294617306355576
 21
1.935302795749521
 31
0.0
1001
REVIT
1002
{
1070
     3
1000
162980
1002
}
  0
LINE
  5
189F
330
188F
100
AcDbEntity
  8
0
  6
Dash
 62
     8
 48
0.1
370
    18
100
AcDbLine
 10
1.629663149508815
 20
0.7372192214470488
 30
0.0
 11
0.3294617306355576
 21
0.7372192214470488
 31
0.0
1001
REVIT
1002
{
1070
     3
1000
162980
1002
}
  0
LINE
  5
18A0
330
188F
100
AcDbEntity
  8
0
  6
Dash
 62
     8
 48
0.1
370
    18
100
AcDbLine
 10
1.629663149508815
 20
6.306543825551216
 30
0.0
 11
1.629663149509724
 21
0.0
 31
0.0
1001
REVIT
1002
{
1070
     3
1000
162980
1002
}
  0
LINE
  5
18A1
330
188F
100
AcDbEntity
  8
0
  6
Dash
 62
     8
 48
0.1
370
    18
100
AcDbLine
 10
1.959124880144373
 20
6.306543825551216
 30
0.0
 11
1.629663149508815
 21
6.306543825551216
 31
0.0
1001
REVIT
1002
{
1070
     3
1000
162980
1002
}
  0
LINE
  5
18A2
330
188F
100
AcDbEntity
  8
0
  6
Dash
 62
     8
 48
0.1
370
    18
100
AcDbLine
 10
1.629663149509724
 20
0.0
 30
0.0
 11
1.959124880145282
 21
0.0000000000004547
 31
0.0
1001
REVIT
1002
{
1070
     3
1000
162980
1002
}
  0
LINE
  5
18A3
330
188F
100
AcDbEntity
  8
0
  6
Dash
 62
     8
 48
0.1
370
    18
100
AcDbLine
 10
1.959124880144373
 20
6.306543825551216
 30
0.0
 11
1.959124880145282
 21
5.569324604104168
 31
0.0
1001
REVIT
1002
{
1070
     3
1000
162980
1002
}
  0
LINE
  5
18A4
330
188F
100
AcDbEntity
  8
0
  6
Dash
 62
     8
 48
0.1
370
    18
100
AcDbLine
 10
1.959124880145282
 20
0.7372192214475035
 30
0.0
 11
1.959124880145282
 21
0.0000000000004547
 31
0.0
1001
REVIT
1002
{
1070
     3
1000
162980
1002
}
  0
LINE
  5
18A5
330
188F
100
AcDbEntity
  8
0
  6
Dash
 62
     8
 48
0.1
370
    18
100
AcDbLine
 10
3.937443091726891
 20
4.235200001892736
 30
0.0
 11
4.379852680223848
 21
1.726170545823152
 31
0.0
1001
REVIT
1002
{
1070
     3
1000
162980
1002
}
  0
LINE
  5
18A6
330
188F
100
AcDbEntity
  8
0
  6
Dash
 62
     8
 48
0.1
370
    18
100
AcDbLine
 10
4.379852680223848
 20
1.726170545823152
 30
0.0
 11
4.594818725230652
 21
2.102181275184194
 31
0.0
1001
REVIT
1002
{
1070
     3
1000
162980
1002
}
  0
LINE
  5
18A7
330
188F
100
AcDbEntity
  8
0
  6
Dash
 62
     8
 48
0.1
370
    18
100
AcDbLine
 10
40.70648383665321
 20
2.102181275185103
 30
0.0
 11
41.95912488014528
 21
3.1532719127772
 31
0.0
1001
REVIT
1002
{
1070
     3
1000
162980
1002
}
  0
LINE
  5
18A8
330
188F
100
AcDbEntity
  8
0
  6
Dash
 62
     8
 48
0.1
370
    18
100
AcDbLine
 10
40.70648383665412
 20
4.204362550368842
 30
0.0
 11
41.95912488014528
 21
3.1532719127772
 31
0.0
1001
REVIT
1002
{
1070
     3
1000
162980
1002
}
  0
LINE
  5
18A9
330
188F
100
AcDbEntity
  8
0
  6
Dash
 62
     8
 48
0.1
370
    18
100
AcDbLine
 10
41.95912488014528
 20
3.1532719127772
 30
0.0
 11
39.35424813983536
 21
4.204362550368842
 31
0.0
1001
REVIT
1002
{
1070
     3
1000
162980
1002
}
  0
ARC
  5
18AA
330
188F
100
AcDbEntity
  8
0
  6
Dash
 62
     8
 48
0.1
370
    18
100
AcDbCircle
 10
42.43472275428303
 20
3.203085492852551
 30
0.0
 40
2.049097326358384
100
AcDbArc
 50
164.3059196023562
 51
212.497514400309
1001
REVIT
1002
{
1070
     3
1000
162980
1002
}
  0
LINE
  5
18AB
330
188F
100
AcDbEntity
  8
0
  6
Dash
 62
     8
 48
0.1
370
    18
100
AcDbLine
 10
5.853350113638953
 20
4.580373279728974
 30
0.0
 11
6.356623064038104
 21
1.726170545823152
 31
0.0
1001
REVIT
1002
{
1070
     3
1000
162980
1002
}
  0
LINE
  5
18AC
330
188F
100
AcDbEntity
  8
0
  6
Dash
 62
     8
 48
0.1
370
    18
100
AcDbLine
 10
5.638384068632149
 20
4.204362550367932
 30
0.0
 11
5.853350113638953
 21
4.580373279728974
 31
0.0
1001
REVIT
1002
{
1070
     3
1000
162980
1002
}
  0
LINE
  5
18AD
330
188F
100
AcDbEntity
  8
0
  6
Dash
 62
     8
 48
0.1
370
    18
100
AcDbLine
 10
6.356623064038104
 20
1.726170545823152
 30
0.0
 11
6.571589109044908
 21
2.102181275184194
 31
0.0
1001
REVIT
1002
{
1070
     3
1000
162980
1002
}
  0
LINE
  5
18AE
330
188F
100
AcDbEntity
  8
0
  6
Dash
 62
     8
 48
0.1
370
    18
100
AcDbLine
 10
7.830120497453208
 20
4.580373279728974
 30
0.0
 11
8.333393447853268
 21
1.726170545823152
 31
0.0
1001
REVIT
1002
{
1070
     3
1000
162980
1002
}
  0
LINE
  5
18AF
330
188F
100
AcDbEntity
  8
0
  6
Dash
 62
     8
 48
0.1
370
    18
100
AcDbLine
 10
7.615154452446404
 20
4.204362550367932
 30
0.0
 11
7.830120497453208
 21
4.580373279728974
 31
0.0
1001
REVIT
1002
{
1070
     3
1000
162980
1002
}
  0
LINE
  5
18B0
330
188F
100
AcDbEntity
  8
0
  6
Dash
 62
     8
 48
0.1
370
    18
100
AcDbLine
 10
8.333393447853268
 20
1.726170545823152
 30
0.0
 11
8.548359492860072
 21
2.102181275184194
 31
0.0
1001
REVIT
1002
{
1070
     3
1000
162980
1002
}
  0
LINE
  5
18B1
330
188F
100
AcDbEntity
  8
0
  6
Dash
 62
     8
 48
0.1
370
    18
100
AcDbLine
 10
9.806890881267464
 20
4.580373279728974
 30
0.0
 11
10.31016383166752
 21
1.726170545823152
 31
0.0
1001
REVIT
1002
{
1070
     3
1000
162980
1002
}
  0
LINE
  5
18B2
330
188F
100
AcDbEntity
  8
0
  6
Dash
 62
     8
 48
0.1
370
    18
100
AcDbLine
 10
9.59192483626066
 20
4.204362550367932
 30
0.0
 11
9.806890881267464
 21
4.580373279728974
 31
0.0
1001
REVIT
1002
{
1070
     3
1000
162980
1002
}
  0
LINE
  5
18B3
330
188F
100
AcDbEntity
  8
0
  6
Dash
 62
     8
 48
0.1
370
    18
100
AcDbLine
 10
10.31016383166752
 20
1.726170545823152
 30
0.0
 11
10.52512987667433
 21
2.102181275184194
 31
0.0
1001
REVIT
1002
{
1070
     3
1000
162980
1002
}
  0
LINE
  5
18B4
330
188F
100
AcDbEntity
  8
0
  6
Dash
 62
     8
 48
0.1
370
    18
100
AcDbLine
 10
11.78366126508172
 20
4.580373279728974
 30
0.0
 11
12.28693421548178
 21
1.726170545823152
 31
0.0
1001
REVIT
1002
{
1070
     3
1000
162980
1002
}
  0
LINE
  5
18B5
330
188F
100
AcDbEntity
  8
0
  6
Dash
 62
     8
 48
0.1
370
    18
100
AcDbLine
 10
11.56869522007491
 20
4.204362550367932
 30
0.0
 11
11.78366126508172
 21
4.580373279728974
 31
0.0
1001
REVIT
1002
{
1070
     3
1000
162980
1002
}
  0
LINE
  5
18B6
330
188F
100
AcDbEntity
  8
0
  6
Dash
 62
     8
 48
0.1
370
    18
100
AcDbLine
 10
12.28693421548178
 20
1.726170545823152
 30
0.0
 11
12.50190026048858
 21
2.102181275184194
 31
0.0
1001
REVIT
1002
{
1070
     3
1000
162980
1002
}
  0
LINE
  5
18B7
330
188F
100
AcDbEntity
  8
0
  6
Dash
 62
     8
 48
0.1
370
    18
100
AcDbLine
 10
13.76043164889688
 20
4.580373279728974
 30
0.0
 11
14.26370459929603
 21
1.726170545823152
 31
0.0
1001
REVIT
1002
{
1070
     3
1000
162980
1002
}
  0
LINE
  5
18B8
330
188F
100
AcDbEntity
  8
0
  6
Dash
 62
     8
 48
0.1
370
    18
100
AcDbLine
 10
13.54546560389008
 20
4.204362550367932
 30
0.0
 11
13.76043164889688
 21
4.580373279728974
 31
0.0
1001
REVIT
1002
{
1070
     3
1000
162980
1002
}
  0
LINE
  5
18B9
330
188F
100
AcDbEntity
  8
0
  6
Dash
 62
     8
 48
0.1
370
    18
100
AcDbLine
 10
14.26370459929603
 20
1.726170545823152
 30
0.0
 11
14.47867064430284
 21
2.102181275184194
 31
0.0
1001
REVIT
1002
{
1070
     3
1000
162980
1002
}
  0
LINE
  5
18BA
330
188F
100
AcDbEntity
  8
0
  6
Dash
 62
     8
 48
0.1
370
    18
100
AcDbLine
 10
15.73720203271114
 20
4.580373279728974
 30
0.0
 11
16.24047498311029
 21
1.726170545823152
 31
0.0
1001
REVIT
1002
{
1070
     3
1000
162980
1002
}
  0
LINE
  5
18BB
330
188F
100
AcDbEntity
  8
0
  6
Dash
 62
     8
 48
0.1
370
    18
100
AcDbLine
 10
15.52223598770433
 20
4.204362550367932
 30
0.0
 11
15.73720203271114
 21
4.580373279728974
 31
0.0
1001
REVIT
1002
{
1070
     3
1000
162980
1002
}
  0
LINE
  5
18BC
330
188F
100
AcDbEntity
  8
0
  6
Dash
 62
     8
 48
0.1
370
    18
100
AcDbLine
 10
16.24047498311029
 20
1.726170545823152
 30
0.0
 11
16.45544102811709
 21
2.102181275184194
 31
0.0
1001
REVIT
1002
{
1070
     3
1000
162980
1002
}
  0
LINE
  5
18BD
330
188F
100
AcDbEntity
  8
0
  6
Dash
 62
     8
 48
0.1
370
    18
100
AcDbLine
 10
17.71397241652539
 20
4.580373279728974
 30
0.0
 11
18.21724536692454
 21
1.726170545823607
 31
0.0
1001
REVIT
1002
{
1070
     3
1000
162980
1002
}
  0
LINE
  5
18BE
330
188F
100
AcDbEntity
  8
0
  6
Dash
 62
     8
 48
0.1
370
    18
100
AcDbLine
 10
17.49900637151859
 20
4.204362550368387
 30
0.0
 11
17.71397241652539
 21
4.580373279728974
 31
0.0
1001
REVIT
1002
{
1070
     3
1000
162980
1002
}
  0
LINE
  5
18BF
330
188F
100
AcDbEntity
  8
0
  6
Dash
 62
     8
 48
0.1
370
    18
100
AcDbLine
 10
18.21724536692454
 20
1.726170545823607
 30
0.0
 11
18.43221141193226
 21
2.102181275184648
 31
0.0
1001
REVIT
1002
{
1070
     3
1000
162980
1002
}
  0
LINE
  5
18C0
330
188F
100
AcDbEntity
  8
0
  6
Dash
 62
     8
 48
0.1
370
    18
100
AcDbLine
 10
19.69074280033965
 20
4.580373279729429
 30
0.0
 11
20.19401575073971
 21
1.726170545823607
 31
0.0
1001
REVIT
1002
{
1070
     3
1000
162980
1002
}
  0
LINE
  5
18C1
330
188F
100
AcDbEntity
  8
0
  6
Dash
 62
     8
 48
0.1
370
    18
100
AcDbLine
 10
19.47577675533284
 20
4.204362550368387
 30
0.0
 11
19.69074280033965
 21
4.580373279729429
 31
0.0
1001
REVIT
1002
{
1070
     3
1000
162980
1002
}
  0
LINE
  5
18C2
330
188F
100
AcDbEntity
  8
0
  6
Dash
 62
     8
 48
0.1
370
    18
100
AcDbLine
 10
20.19401575073971
 20
1.726170545823607
 30
0.0
 11
20.40898179574651
 21
2.102181275184648
 31
0.0
1001
REVIT
1002
{
1070
     3
1000
162980
1002
}
  0
LINE
  5
18C3
330
188F
100
AcDbEntity
  8
0
  6
Dash
 62
     8
 48
0.1
370
    18
100
AcDbLine
 10
21.6675131841539
 20
4.580373279729429
 30
0.0
 11
22.17078613455396
 21
1.726170545823607
 31
0.0
1001
REVIT
1002
{
1070
     3
1000
162980
1002
}
  0
LINE
  5
18C4
330
188F
100
AcDbEntity
  8
0
  6
Dash
 62
     8
 48
0.1
370
    18
100
AcDbLine
 10
21.4525471391471
 20
4.204362550368387
 30
0.0
 11
21.6675131841539
 21
4.580373279729429
 31
0.0
1001
REVIT
1002
{
1070
     3
1000
162980
1002
}
  0
LINE
  5
18C5
330
188F
100
AcDbEntity
  8
0
  6
Dash
 62
     8
 48
0.1
370
    18
100
AcDbLine
 10
22.17078613455396
 20
1.726170545823607
 30
0.0
 11
22.38575217956077
 21
2.102181275184648
 31
0.0
1001
REVIT
1002
{
1070
     3
1000
162980
1002
}
  0
LINE
  5
18C6
330
188F
100
AcDbEntity
  8
0
  6
Dash
 62
     8
 48
0.1
370
    18
100
AcDbLine
 10
23.64428356796907
 20
4.580373279729429
 30
0.0
 11
24.14755651836822
 21
1.726170545823607
 31
0.0
1001
REVIT
1002
{
1070
     3
1000
162980
1002
}
  0
LINE
  5
18C7
330
188F
100
AcDbEntity
  8
0
  6
Dash
 62
     8
 48
0.1
370
    18
100
AcDbLine
 10
23.42931752296226
 20
4.204362550368387
 30
0.0
 11
23.64428356796907
 21
4.580373279729429
 31
0.0
1001
REVIT
1002
{
1070
     3
1000
162980
1002
}
  0
LINE
  5
18C8
330
188F
100
AcDbEntity
  8
0
  6
Dash
 62
     8
 48
0.1
370
    18
100
AcDbLine
 10
24.14755651836822
 20
1.726170545823607
 30
0.0
 11
24.36252256337502
 21
2.102181275184648
 31
0.0
1001
REVIT
1002
{
1070
     3
1000
162980
1002
}
  0
LINE
  5
18C9
330
188F
100
AcDbEntity
  8
0
  6
Dash
 62
     8
 48
0.1
370
    18
100
AcDbLine
 10
25.62105395178332
 20
4.580373279729429
 30
0.0
 11
26.12432690218247
 21
1.726170545823607
 31
0.0
1001
REVIT
1002
{
1070
     3
1000
162980
1002
}
  0
LINE
  5
18CA
330
188F
100
AcDbEntity
  8
0
  6
Dash
 62
     8
 48
0.1
370
    18
100
AcDbLine
 10
25.40608790677652
 20
4.204362550368387
 30
0.0
 11
25.62105395178332
 21
4.580373279729429
 31
0.0
1001
REVIT
1002
{
1070
     3
1000
162980
1002
}
  0
LINE
  5
18CB
330
188F
100
AcDbEntity
  8
0
  6
Dash
 62
     8
 48
0.1
370
    18
100
AcDbLine
 10
26.12432690218247
 20
1.726170545823607
 30
0.0
 11
26.33929294718928
 21
2.102181275184648
 31
0.0
1001
REVIT
1002
{
1070
     3
1000
162980
1002
}
  0
LINE
  5
18CC
330
188F
100
AcDbEntity
  8
0
  6
Dash
 62
     8
 48
0.1
370
    18
100
AcDbLine
 10
27.59782433559758
 20
4.580373279729429
 30
0.0
 11
28.10109728599673
 21
1.726170545823607
 31
0.0
1001
REVIT
1002
{
1070
     3
1000
162980
1002
}
  0
LINE
  5
18CD
330
188F
100
AcDbEntity
  8
0
  6
Dash
 62
     8
 48
0.1
370
    18
100
AcDbLine
 10
27.38285829059078
 20
4.204362550368387
 30
0.0
 11
27.59782433559758
 21
4.580373279729429
 31
0.0
1001
REVIT
1002
{
1070
     3
1000
162980
1002
}
  0
LINE
  5
18CE
330
188F
100
AcDbEntity
  8
0
  6
Dash
 62
     8
 48
0.1
370
    18
100
AcDbLine
 10
28.10109728599673
 20
1.726170545823607
 30
0.0
 11
28.31606333100444
 21
2.102181275184648
 31
0.0
1001
REVIT
1002
{
1070
     3
1000
162980
1002
}
  0
LINE
  5
18CF
330
188F
100
AcDbEntity
  8
0
  6
Dash
 62
     8
 48
0.1
370
    18
100
AcDbLine
 10
29.57459471941183
 20
4.580373279729429
 30
0.0
 11
30.07786766981189
 21
1.726170545823607
 31
0.0
1001
REVIT
1002
{
1070
     3
1000
162980
1002
}
  0
LINE
  5
18D0
330
188F
100
AcDbEntity
  8
0
  6
Dash
 62
     8
 48
0.1
370
    18
100
AcDbLine
 10
29.35962867440503
 20
4.204362550368387
 30
0.0
 11
29.57459471941183
 21
4.580373279729429
 31
0.0
1001
REVIT
1002
{
1070
     3
1000
162980
1002
}
  0
LINE
  5
18D1
330
188F
100
AcDbEntity
  8
0
  6
Dash
 62
     8
 48
0.1
370
    18
100
AcDbLine
 10
30.07786766981189
 20
1.726170545823607
 30
0.0
 11
30.2928337148187
 21
2.102181275184648
 31
0.0
1001
REVIT
1002
{
1070
     3
1000
162980
1002
}
  0
LINE
  5
18D2
330
188F
100
AcDbEntity
  8
0
  6
Dash
 62
     8
 48
0.1
370
    18
100
AcDbLine
 10
31.55136510322609
 20
4.580373279729429
 30
0.0
 11
32.05463805362615
 21
1.726170545824061
 31
0.0
1001
REVIT
1002
{
1070
     3
1000
162980
1002
}
  0
LINE
  5
18D3
330
188F
100
AcDbEntity
  8
0
  6
Dash
 62
     8
 48
0.1
370
    18
100
AcDbLine
 10
31.33639905821929
 20
4.204362550368387
 30
0.0
 11
31.55136510322609
 21
4.580373279729429
 31
0.0
1001
REVIT
1002
{
1070
     3
1000
162980
1002
}
  0
LINE
  5
18D4
330
188F
100
AcDbEntity
  8
0
  6
Dash
 62
     8
 48
0.1
370
    18
100
AcDbLine
 10
32.05463805362615
 20
1.726170545824061
 30
0.0
 11
32.26960409863295
 21
2.102181275185103
 31
0.0
1001
REVIT
1002
{
1070
     3
1000
162980
1002
}
  0
LINE
  5
18D5
330
188F
100
AcDbEntity
  8
0
  6
Dash
 62
     8
 48
0.1
370
    18
100
AcDbLine
 10
33.52813548704125
 20
4.580373279729884
 30
0.0
 11
34.0314084374404
 21
1.726170545824061
 31
0.0
1001
REVIT
1002
{
1070
     3
1000
162980
1002
}
  0
LINE
  5
18D6
330
188F
100
AcDbEntity
  8
0
  6
Dash
 62
     8
 48
0.1
370
    18
100
AcDbLine
 10
33.31316944203445
 20
4.204362550368842
 30
0.0
 11
33.52813548704125
 21
4.580373279729884
 31
0.0
1001
REVIT
1002
{
1070
     3
1000
162980
1002
}
  0
LINE
  5
18D7
330
188F
100
AcDbEntity
  8
0
  6
Dash
 62
     8
 48
0.1
370
    18
100
AcDbLine
 10
34.0314084374404
 20
1.726170545824061
 30
0.0
 11
34.24637448244721
 21
2.102181275185103
 31
0.0
1001
REVIT
1002
{
1070
     3
1000
162980
1002
}
  0
LINE
  5
18D8
330
188F
100
AcDbEntity
  8
0
  6
Dash
 62
     8
 48
0.1
370
    18
100
AcDbLine
 10
35.50490587085551
 20
4.580373279729884
 30
0.0
 11
36.00817882125466
 21
1.726170545824061
 31
0.0
1001
REVIT
1002
{
1070
     3
1000
162980
1002
}
  0
LINE
  5
18D9
330
188F
100
AcDbEntity
  8
0
  6
Dash
 62
     8
 48
0.1
370
    18
100
AcDbLine
 10
35.28993982584871
 20
4.204362550368842
 30
0.0
 11
35.50490587085551
 21
4.580373279729884
 31
0.0
1001
REVIT
1002
{
1070
     3
1000
162980
1002
}
  0
LINE
  5
18DA
330
188F
100
AcDbEntity
  8
0
  6
Dash
 62
     8
 48
0.1
370
    18
100
AcDbLine
 10
36.00817882125466
 20
1.726170545824061
 30
0.0
 11
36.22314486626146
 21
2.102181275185103
 31
0.0
1001
REVIT
1002
{
1070
     3
1000
162980
1002
}
  0
LINE
  5
18DB
330
188F
100
AcDbEntity
  8
0
  6
Dash
 62
     8
 48
0.1
370
    18
100
AcDbLine
 10
37.48167625466976
 20
4.580373279729884
 30
0.0
 11
37.98494920506892
 21
1.726170545824061
 31
0.0
1001
REVIT
1002
{
1070
     3
1000
162980
1002
}
  0
LINE
  5
18DC
330
188F
100
AcDbEntity
  8
0
  6
Dash
 62
     8
 48
0.1
370
    18
100
AcDbLine
 10
37.26671020966296
 20
4.204362550368842
 30
0.0
 11
37.48167625466976
 21
4.580373279729884
 31
0.0
1001
REVIT
1002
{
1070
     3
1000
162980
1002
}
  0
LINE
  5
18DD
330
188F
100
AcDbEntity
  8
0
  6
Dash
 62
     8
 48
0.1
370
    18
100
AcDbLine
 10
37.98494920506892
 20
1.726170545824061
 30
0.0
 11
38.19991525007663
 21
2.102181275185103
 31
0.0
1001
REVIT
1002
{
1070
     3
1000
162980
1002
}
  0
LINE
  5
18DE
330
188F
100
AcDbEntity
  8
0
  6
Dash
 62
     8
 48
0.1
370
    18
100
AcDbLine
 10
39.45844663848402
 20
4.580373279729884
 30
0.0
 11
39.96171958888408
 21
1.726170545824061
 31
0.0
1001
REVIT
1002
{
1070
     3
1000
162980
1002
}
  0
LINE
  5
18DF
330
188F
100
AcDbEntity
  8
0
  6
Dash
 62
     8
 48
0.1
370
    18
100
AcDbLine
 10
39.24348059347722
 20
4.204362550368842
 30
0.0
 11
39.45844663848402
 21
4.580373279729884
 31
0.0
1001
REVIT
1002
{
1070
     3
1000
162980
1002
}
  0
LINE
  5
18E0
330
188F
100
AcDbEntity
  8
0
  6
Dash
 62
     8
 48
0.1
370
    18
100
AcDbLine
 10
39.96171958888408
 20
1.726170545824061
 30
0.0
 11
40.17668563389088
 21
2.102181275185103
 31
0.0
1001
REVIT
1002
{
1070
     3
1000
162980
1002
}
  0
LINE
  5
18E1
330
188F
100
AcDbEntity
  8
0
  6
Dash
 62
     8
 48
0.1
370
    18
100
AcDbLine
 10
2.618048341416397
 20
0.7372192214475035
 30
0.0
 11
1.959124880145282
 21
0.7372192214475035
 31
0.0
1001
REVIT
1002
{
1070
     3
1000
162980
1002
}
  0
LINE
  5
18E2
330
188F
100
AcDbEntity
  8
0
  6
Dash
 62
     8
 48
0.1
370
    18
100
AcDbLine
 10
1.959124880145282
 20
0.7372192214475035
 30
0.0
 11
1.959124880145282
 21
5.569324604104168
 31
0.0
1001
REVIT
1002
{
1070
     3
1000
162980
1002
}
  0
LINE
  5
18E3
330
188F
100
AcDbEntity
  8
0
  6
Dash
 62
     8
 48
0.1
370
    18
100
AcDbLine
 10
1.959124880145282
 20
5.569324604104168
 30
0.0
 11
2.618048341416397
 21
5.569324604104168
 31
0.0
1001
REVIT
1002
{
1070
     3
1000
162980
1002
}
  0
LINE
  5
18E4
330
188F
100
AcDbEntity
  8
0
  6
Dash
 62
     8
 48
0.1
370
    18
100
AcDbLine
 10
2.618048341416397
 20
5.569324604104168
 30
0.0
 11
2.618048341416397
 21
0.7372192214475035
 31
0.0
1001
REVIT
1002
{
1070
     3
1000
162980
1002
}
  0
ENDBLK
  5
18E5
330
188F
100
AcDbEntity
  8
_lines
100
AcDbBlockEnd
  0
BLOCK
  5
1B9F
330
1B9E
100
AcDbEntity
  8
GE FLASHING
100
AcDbBlockBegin
  2
G$CFFEEE416
 70
     0
 10
0.0
 20
0.0
 30
0.0
  3
G$CFFEEE416
  1

  0
LWPOLYLINE
  5
1BA0
330
1B9E
100
AcDbEntity
  8
GE FLASHING
 62
     1
 48
0.5
370
    -3
100
AcDbPolyline
 90
        8
 70
     0
 43
1.0
 10
120.2506355166174
 20
102.3073795712119
 10
120.2506355166174
 20
127.2726251936328
 42
0.4261215697160685
 10
11.90508573276247
 20
109.1114543666113
 42
0.1263024924240355
 10
0.4987492207874311
 20
74.9233762122708
 42
0.1378201073506474
 10
8.421211949048484
 20
36.46658780623329
 42
0.0596632094150468
 10
18.01550678228477
 20
22.32968965646114
 42
0.0456468013572097
 10
26.30985579481467
 20
14.38111016126413
 10
42.66844770816624
 20
0.3798622972080921
  0
ENDBLK
  5
1BA1
330
1B9E
100
AcDbEntity
  8
GE FLASHING
100
AcDbBlockEnd
  0
BLOCK
  5
1D08
330
1D07
100
AcDbEntity
  8
GE FLASHING
100
AcDbBlockBegin
  2
G$C71E0D0B6
 70
     0
 10
0.0
 20
0.0
 30
0.0
  3
G$C71E0D0B6
  1

  0
LWPOLYLINE
  5
1D09
330
1D07
100
AcDbEntity
  8
GE FLASHING
 62
     1
 48
0.5
370
    -3
100
AcDbPolyline
 90
        6
 70
     0
 10
84.8906824743417
 20
0.1303657658017983
 40
1.0
 41
1.0
 10
82.21464028448554
 20
10.03895441472287
 40
1.0
 41
1.0
 10
82.21464028448554
 20
132.2328268406391
 40
1.0
 41
1.0
 42
0.397073853822023
 10
81.43768398112206
 20
133.0638825915184
 40
1.0
 41
1.0
 10
5.255401401899704
 20
133.0638825915184
 40
1.0
 41
1.0
 10
4.46406023068225
 20
102.3833992841342
 40
1.0
 41
0.0
  0
ENDBLK
  5
1D0A
330
1D07
100
AcDbEntity
  8
GE FLASHING
100
AcDbBlockEnd
  0
BLOCK
  5
1F7F
330
1F7C
100
AcDbEntity
  8
GE FLASHING
100
AcDbBlockBegin
  2
G$CD8E13982
 70
     0
 10
0.0
 20
0.0
 30
0.0
  3
G$CD8E13982
  1

  0
LWPOLYLINE
  5
1F80
330
1F7C
100
AcDbEntity
  8
GE FLASHING
 62
     1
 48
0.5
370
    -3
100
AcDbPolyline
 90
        5
 70
     0
 43
1.0
 10
90.3716796521282
 20
102.0890183531688
 10
90.3716796521282
 20
137.7740636299386
 10
0.5
 20
137.7740636299386
 10
0.5
 20
44.19081537009652
 10
9.5
 20
0.0999999999999091
  0
ENDBLK
  5
1F81
330
1F7C
100
AcDbEntity
  8
GE FLASHING
100
AcDbBlockEnd
  0
BLOCK
  5
2169
330
2168
100
AcDbEntity
  8
DEFPOINTS
100
AcDbBlockBegin
  2
G$C453E252E
 70
     0
 10
0.0
 20
0.0
 30
0.0
  3
G$C453E252E
  1

  0
LWPOLYLINE
  5
216A
330
2168
100
AcDbEntity
  8
0
 62
     1
 48
0.5
370
    -3
100
AcDbPolyline
 90
       98
 70
     0
 43
0.55
 10
0.5
 20
166.1106642134437
 10
0.5
 20
126.1106642134437
 10
22.02312594964496
 20
118.6255800442577
 42
0.3144374898271473
 10
25.12528432434829
 20
119.5010886588498
 42
-0.0952816377930046
 10
30.81299492805829
 20
124.2373921770413
 42
-0.1507717279415002
 10
36.54814827388236
 20
125.4304525161251
 42
-0.0890307948874332
 10
39.67443872233434
 20
124.559225961787
 42
-0.1464817733278774
 10
43.93328675721204
 20
120.6684076561032
 42
-0.0085850172702223
 10
45.36580605647578
 20
118.1806848346077
 42
0.1851250302374373
 10
48.89007182185287
 20
115.2158579567167
 42
0.0161362627762171
 10
52.04569498363981
 20
114.2361690877551
 42
0.1680002659188674
 10
55.99459588555328
 20
114.4897917569624
 42
-0.0485798954908245
 10
61.51884086103746
 20
116.1983170767799
 42
-0.1983824016748921
 10
66.42038571826015
 20
115.2616676094322
 42
-0.047523137941845
 10
69.83042668281723
 20
112.5295519981837
 42
-0.1630622330458971
 10
71.47831087985833
 20
109.3415045516294
 42
0.0298243649624302
 10
72.55264691199591
 20
104.3843442757052
 42
-0.0554847166023468
 10
72.97288900448893
 20
101.8161971691543
 42
0.3144581315813627
 10
73.70769723363901
 20
100.8707326562289
 42
-0.1075480814737937
 10
74.58922572250958
 20
100.3717753404399
 10
85.05247246159706
 20
96.74501989411965
 42
0.2677971490740892
 10
88.09539067171227
 20
97.32914746538972
 10
92.6278224178227
 20
101.9811841682367
 42
-0.2909805391793188
 10
97.3006729976496
 20
103.0856405879858
 10
111.6329235114986
 20
98.15296824369034
 10
117.2100212751839
 20
96.93059740718854
 10
120.4621871855052
 20
95.75874603424836
 10
124.0223379080671
 20
93.92247937233424
 10
127.7979355302332
 20
91.30208897451848
 10
130.2919066896525
 20
89.02768394314717
 10
132.668010892045
 20
86.5253835389758
 10
134.5892993910675
 20
85.15877973963325
 10
136.6978135855152
 20
84.35644151244469
 10
138.8382282491766
 20
84.09805634147506
 10
140.6858550277871
 20
84.2857376870561
 10
144.3639631342262
 20
84.93578306011841
 42
-0.2343085133768697
 10
159.1435541811957
 20
78.51996758138466
 42
-0.0369830761216474
 10
160.6560290981815
 20
76.43243261199314
 42
0.0452840395304961
 10
162.2884987569992
 20
74.25612651468145
 42
0.0839199469717881
 10
164.529813391528
 20
72.48309420676651
 42
0.0577814066399808
 10
167.5016539546159
 20
71.27403115437392
 42
0.0817118573763595
 10
170.2498351544114
 20
70.9763659473092
 42
0.060460522145006
 10
173.5204849444876
 20
71.55782469231508
 42
-0.0175628328589988
 10
176.5656328960322
 20
72.37310104678818
 42
-0.1193038223792303
 10
179.7101921324925
 20
72.33846963497217
 42
-0.0466804696993966
 10
183.8134474489921
 20
70.87872297427657
 42
-0.1224255899562275
 10
186.3692897707069
 20
68.81730439706098
 42
-0.0021976574366095
 10
187.7817157249392
 20
66.9361794008837
 42
0.0598692057381186
 10
189.6949583765413
 20
64.92012839859854
 42
0.0805518231819641
 10
195.326551026611
 20
61.61136351863024
 42
0.1085830654256639
 10
201.2339584046185
 20
60.69357931000559
 42
0.0431621048222569
 10
205.2670358421597
 20
61.29676763988755
 42
-0.073120503309113
 10
213.3841783468383
 20
62.0190562300395
 42
-0.2135351777441864
 10
218.3940902408526
 20
59.42367137106794
 42
0.0277003729638193
 10
220.5147825783447
 20
57.0417624169977
 42
0.0666138996187925
 10
223.6128186410219
 20
54.66243114936333
 42
0.1383936215819727
 10
229.4297437736118
 20
53.19657600923711
 42
0.071769835774096
 10
233.548625897045
 20
53.90986896988852
 42
-0.0511818591444494
 10
237.0719040026443
 20
54.67002450581549
 42
-0.1776902975007202
 10
240.2445093092924
 20
53.88862637640341
 42
-0.2052507455354989
 10
241.8154037958761
 20
51.45241993762465
 10
242.5945433755633
 20
43.92933609552801
 42
0.2911769892817301
 10
244.6611305053079
 20
41.32022495346155
 10
255.3549358027376
 20
37.64745181595845
 42
0.2667636498253825
 10
258.2419635365877
 20
38.67765162791784
 10
264.3601998182708
 20
44.59027878911002
 42
-0.1913380611813692
 10
267.0785426506113
 20
44.70963481481522
 10
275.9867713133722
 20
41.59098407405418
 42
-0.1941050331233009
 10
279.197081221851
 20
38.27057742300804
 42
0.0713673250360073
 10
280.2546019079532
 20
36.45567619474514
 42
0.1305424751270063
 10
284.3178145591905
 20
33.42352268993272
 42
0.1537998043526602
 10
289.3682064088403
 20
33.03758655785532
 42
-0.0342019839470086
 10
292.1523430241359
 20
33.48849445486303
 42
-0.1759827198152869
 10
294.4100892652473
 20
32.89703029549128
 42
-0.0245861296963565
 10
296.2505755042871
 20
31.48689332938648
 42
-0.1390652413202865
 10
297.0937823088648
 20
30.23162312605291
 42
0.1892836867809608
 10
298.1725472104567
 20
28.92265654193034
 42
-0.0012892425160863
 10
299.7446583843575
 20
28.0433881336503
 42
0.22312029341888
 10
302.3723808448917
 20
27.84995985360638
 42
-0.0259294320993023
 10
303.7010168155466
 20
28.28102034215317
 42
-0.0668917843344885
 10
308.0934838137873
 20
28.8476509588063
 42
-0.2028112030561561
 10
311.6220431038864
 20
27.33292512411299
 42
0.0033231228805357
 10
313.0900863962893
 20
25.82428678313227
 42
0.0339765351938608
 10
316.9471917091246
 20
22.41077530119219
 42
0.174403570499621
 10
322.2635551519579
 20
20.70075445461225
 42
-0.0142766282042484
 10
324.9192275910646
 20
20.71557694172498
 42
0.1273253406553399
 10
328.2063991200912
 20
21.48634860503989
 42
-0.2836931045728486
 10
332.8854379625404
 20
21.16178565795417
 42
-0.0046855754428039
 10
336.2127067987499
 20
18.72824650365146
 42
-0.195884940313394
 10
337.5325457073159
 20
16.54166466127026
 42
0.2728160678700086
 10
338.9729704788197
 20
14.79237108640791
 42
-0.0576703196817088
 10
341.1706721630449
 20
13.6912505804903
 42
0.2597477929231045
 10
343.5095777461311
 20
13.52391458390866
 42
-0.0797956924462406
 10
345.3610609986713
 20
14.051482481118
 42
0.1930007918767561
 10
347.5129816439303
 20
15.22609317261504
 42
-0.3447979284179001
 10
349.4711990277619
 20
15.65760512016095
 42
0.1498657568152403
 10
351.4027832807506
 20
15.36635558821854
 10
358.7209800373239
 20
12.81779899982166
 42
-0.4664497104991921
  0
ENDBLK
  5
216B
330
2168
100
AcDbEntity
  8
DEFPOINTS
100
AcDbBlockEnd
  0
BLOCK
  5
2192
330
218F
100
AcDbEntity
  8
_lines
100
AcDbBlockBegin
  2
G$C34E990A1
 70
     0
 10
0.0
 20
0.0
 30
0.0
  3
G$C34E990A1
  1

  0
LINE
  5
2193
330
218F
100
AcDbEntity
  8
0
  6
Dash
 62
     8
 48
0.1
370
    18
100
AcDbLine
 10
6.387056972178183
 20
7.540172313074436
 30
0.0
 11
19.46220542609397
 21
7.211774602193145
 31
0.0
  0
LINE
  5
2194
330
218F
100
AcDbEntity
  8
0
  6
Dash
 62
     8
 48
0.1
370
    18
100
AcDbLine
 10
23.39934705136364
 20
2.311529939132015
 30
0.0
 11
23.4369132631431
 21
6.173179565977989
 31
0.0
  0
LINE
  5
2195
330
218F
100
AcDbEntity
  8
0
  6
Dash
 62
     8
 48
0.1
370
    18
100
AcDbLine
 10
6.350990872779274
 20
10.54203421581769
 30
0.0
 11
0.0
 21
9.20163850382778
 31
0.0
  0
LINE
  5
2196
330
218F
100
AcDbEntity
  8
0
  6
Dash
 62
     8
 48
0.1
370
    18
100
AcDbLine
 10
0.0
 20
9.20163850382778
 30
0.0
 11
6.387056972178183
 21
7.540172313074436
 31
0.0
  0
LINE
  5
2197
330
218F
100
AcDbEntity
  8
0
  6
Dash
 62
     8
 48
0.1
370
    18
100
AcDbLine
 10
20.03134322612171
 20
10.1984330665282
 30
0.0
 11
6.350990872779274
 21
10.54203421581769
 31
0.0
  0
LINE
  5
2198
330
218F
100
AcDbEntity
  8
0
  6
Dash
 62
     8
 48
0.1
370
    18
100
AcDbLine
 10
20.43704985802329
 20
6.202362524075397
 30
0.0
 11
20.39948449607834
 21
2.340712335273565
 31
0.0
  0
ARC
  5
2199
330
218F
100
AcDbEntity
  8
0
  6
Dash
 62
     8
 48
0.1
370
    18
100
AcDbCircle
 10
19.43709716971503
 20
6.212089864156951
 30
0.0
 40
1.0
100
AcDbArc
 50
359.4426556777765
 51
88.56125168117025
  0
ARC
  5
219A
330
218F
100
AcDbEntity
  8
0
  6
Dash
 62
     8
 48
0.1
370
    18
100
AcDbCircle
 10
19.43709716971503
 20
6.212089864156951
 30
0.0
 40
4.0
100
AcDbArc
 50
359.4426556777374
 51
88.56125168116938
  0
ARC
  5
219B
330
218F
100
AcDbEntity
  8
0
  6
Dash
 62
     8
 48
0.1
370
    18
100
AcDbCircle
 10
21.89941577533669
 20
2.326121303293803
 30
0.0
 40
1.500002246902295
100
AcDbArc
 50
179.4426556777365
 51
359.4426429887364
  0
ARC
  5
219C
330
218F
100
AcDbEntity
  8
0
  6
Dash
 62
     8
 48
0.1
370
    18
100
AcDbCircle
 10
21.89941577533669
 20
2.326121303293803
 30
0.0
 40
2.326121303293777
100
AcDbArc
 50
129.5971798420052
 51
49.28811882450213
  0
ENDBLK
  5
219D
330
218F
100
AcDbEntity
  8
_lines
100
AcDbBlockEnd
  0
BLOCK
  5
2322
330
2321
100
AcDbEntity
  8
DEFPOINTS
100
AcDbBlockBegin
  2
G$CC91778B9
 70
     0
 10
0.0
 20
0.0
 30
0.0
  3
G$CC91778B9
  1

  0
SPLINE
  5
2323
330
2321
100
AcDbEntity
  8
0
 62
   253
 48
0.5
370
    25
100
AcDbSpline
210
0.0
220
0.0
230
1.0
 70
    12
 71
     3
 72
    11
 73
     7
 74
     0
 42
0.0
 43
0.0
 40
0.0
 40
0.0
 40
0.0
 40
0.0
 40
1.0
 40
1.0
 40
1.0
 40
2.0
 40
2.0
 40
2.0
 40
2.0
 10
145.0614020853754
 20
27.56350566559877
 30
0.0
 41
1.0
 10
145.0614020853754
 20
67.58890670406481
 30
0.0
 41
1.0
 10
112.5867973686545
 20
100.0635056655979
 30
0.0
 41
1.0
 10
72.56139019132388
 20
100.0635056655979
 30
0.0
 41
1.0
 10
32.47460510040037
 20
100.0635056655979
 30
0.0
 41
1.0
 10
0.0614020853754482
 20
67.58890670406481
 30
0.0
 41
1.0
 10
0.0614020853754482
 20
27.56350566559877
 30
0.0
 41
1.0
  0
SPLINE
  5
2324
330
2321
100
AcDbEntity
  8
0
  6
PHANTOM
 62
   253
 48
2.0
370
    25
100
AcDbSpline
210
0.0
220
0.0
230
1.0
 70
    12
 71
     3
 72
    11
 73
     7
 74
     0
 42
0.000000001
 43
0.0
 40
0.0395325300710462
 40
0.0395325300710462
 40
0.0395325300710462
 40
0.0395325300710462
 40
1.0
 40
1.0
 40
1.0
 40
1.962280804529156
 40
1.962280804529156
 40
1.962280804529156
 40
1.962280804529156
 10
144.910685958139
 20
27.43048775926983
 30
0.0
 41
1.0
 10
142.4819949582047
 20
65.31268931277147
 30
0.0
 41
1.0
 10
111.0044917558108
 20
95.21380217730757
 30
0.0
 41
1.0
 10
72.56139019132388
 20
95.21380217730757
 30
0.0
 41
1.0
 10
33.98664638304261
 20
95.21380217730757
 30
0.0
 41
1.0
 10
2.517519460662063
 20
65.19967787237762
 30
0.0
 41
1.0
 10
0.1984209038506081
 20
27.21584108406187
 30
0.0
 41
1.0
  0
LWPOLYLINE
  5
2325
330
2321
100
AcDbEntity
  8
0
 62
   253
 48
0.5
370
    25
100
AcDbPolyline
 90
        2
 70
     0
 43
0.0
 10
0.0614020853754482
 20
27.56350566559877
 10
8.02958532874161
 20
7.345442747353901
  0
SPLINE
  5
2326
330
2321
100
AcDbEntity
  8
0
  6
PHANTOM
 62
   253
 48
2.0
370
    25
100
AcDbSpline
210
0.0
220
0.0
230
1.0
 70
    12
 71
     3
 72
    11
 73
     7
 74
     0
 42
0.000000001
 43
0.0
 40
0.0404789136530578
 40
0.0404789136530578
 40
0.0404789136530578
 40
0.0404789136530578
 40
1.0
 40
1.0
 40
1.0
 40
1.940506743829165
 40
1.940506743829165
 40
1.940506743829165
 40
1.940506743829165
 10
143.7794202889968
 20
24.5521973549576
 30
0.0
 41
1.0
 10
132.4899536236396
 20
61.75429359618732
 30
0.0
 41
1.0
 10
94.08473180061324
 20
84.3411146015617
 30
0.0
 41
1.0
 10
55.67950962434224
 20
75.44665321507091
 30
0.0
 41
1.0
 10
28.83207580272765
 20
69.15337956933995
 30
0.0
 41
1.0
 10
8.772310827306173
 20
49.12182397407415
 30
0.0
 41
1.0
 10
1.271255763118209
 20
24.49368447406959
 30
0.0
 41
1.0
  0
LWPOLYLINE
  5
2327
330
2321
100
AcDbEntity
  8
0
 62
   253
 48
0.5
370
    25
100
AcDbPolyline
 90
        2
 70
     0
 43
0.0
 10
144.9895561603271
 20
27.6311579929175
 10
137.0402519312767
 20
7.405664806347967
  0
ENDBLK
  5
2328
330
2321
100
AcDbEntity
  8
DEFPOINTS
100
AcDbBlockEnd
  0
BLOCK
  5
237D
330
237A
100
AcDbEntity
  8
GE FLASHING
100
AcDbBlockBegin
  2
G$CBE61CC38
 70
     0
 10
0.0
 20
0.0
 30
0.0
  3
G$CBE61CC38
  1

  0
INSERT
  5
237E
330
237A
100
AcDbEntity
  8
GE FLASHING
 62
     1
 48
0.5
370
    -3
100
AcDbBlockReference
  2
G$CC91778B9
 10
0.2341937276260069
 20
-7.198113014906085
 30
0.0
  0
LWPOLYLINE
  5
237F
330
237A
100
AcDbEntity
  8
GE FLASHING
 62
     1
 48
0.5
370
    -3
100
AcDbPolyline
 90
        5
 70
     0
 10
137.2744456589026
 20
0.2075517914418015
 40
0.55
 41
0.55
 10
145.111790591819
 20
20.72271966905009
 40
0.55
 41
0.55
 10
144.2728895898535
 20
32.56263202062382
 40
0.55
 41
0.55
 42
0.9187922265646195
 10
0.2955958130014551
 20
20.36539265069314
 40
0.5500000000000002
 41
0.55
 10
8.282104181509567
 20
0.1008324918866492
 40
0.55
 41
0.0
  0
ENDBLK
  5
2380
330
237A
100
AcDbEntity
  8
GE FLASHING
100
AcDbBlockEnd
  0
BLOCK
  5
2383
330
2382
100
AcDbEntity
  8
DEFPOINTS
100
AcDbBlockBegin
  2
G$CB27C112C
 70
     0
 10
0.0
 20
0.0
 30
0.0
  3
G$CB27C112C
  1

  0
LWPOLYLINE
  5
2384
330
2382
100
AcDbEntity
  8
0
 62
     1
 48
0.5
370
    -3
100
AcDbPolyline
 90
      100
 70
     0
 43
0.55
 10
0.5
 20
33.56416563160383
 10
0.5
 20
0.506401914597518
 10
14.1725153997686
 20
0.500118431415558
 42
0.3144374898271473
 10
16.81581283750165
 20
2.344808262156221
 42
-0.0952816377930046
 10
20.63509879313187
 20
8.684814391263444
 42
-0.1507717279415002
 10
25.66152323887854
 20
11.69320834219798
 42
-0.0890307948874332
 10
28.90061418777259
 20
11.89573612264667
 42
-0.1464817733278774
 10
34.20013489598841
 20
9.617286225188764
 42
-0.0085850172702223
 10
36.36945415475475
 20
7.737145184496057
 42
0.1851250302374373
 10
40.67128017781943
 20
6.092474862468862
 42
0.0161362627762171
 10
43.97366053396672
 20
6.202164435833765
 42
0.1680002659188674
 10
47.62084806579151
 20
7.737145184629753
 42
-0.0485798954908245
 10
52.27894242697039
 20
11.16329436993465
 42
-0.1983824016748921
 10
57.21651403806118
 20
11.88637168073956
 42
-0.047523137941845
 10
61.33409766229579
 20
10.42406521811972
 42
-0.1630622330458971
 10
63.93659805260813
 20
7.953000555517974
 42
0.0298243649624302
 10
66.57762552654731
 20
3.622572194136865
 42
-0.0554847166023468
 10
67.81706495662638
 20
1.33439106573951
 42
0.3144581315813627
 10
68.82136102408822
 20
0.6822900860524896
 42
-0.1075480814737937
 10
69.8177868205812
 20
0.500118431415558
 10
80.89175846141552
 20
0.5064024137050183
 42
0.2677971490740892
 10
83.57467810244816
 20
2.056401914584967
 10
86.33025617792191
 20
7.937827973607455
 42
-0.2909805391793188
 10
90.38222667345235
 20
10.51404450718292
 10
105.539499278756
 20
10.55585857672531
 10
111.2089692617174
 20
11.23063264256552
 10
114.6655868486605
 20
11.19046292570647
 10
118.6311006377946
 20
10.62367477374619
 10
123.0573623773744
 20
9.386827873678612
 10
126.1594207850212
 20
8.056397858123091
 10
129.2248930004716
 20
6.47201829828191
 10
131.4881645881032
 20
5.811293573851344
 10
133.7432006337431
 20
5.74502765606303
 10
135.8499342378982
 20
6.203079345412789
 10
137.5337544901186
 20
6.986468366736517
 10
140.7950917390208
 20
8.807104952828468
 42
-0.2343085133768697
 10
156.8614793675533
 20
7.594591718855554
 42
-0.0369830761216474
 10
158.9750527230408
 20
6.11872238388105
 42
0.0452840395304961
 10
161.2311011927886
 20
4.59835705992009
 42
0.0839199469717881
 10
163.9300143321916
 20
3.658674814784263
 42
0.0577814066399808
 10
167.1340254517172
 20
3.491394980279438
 42
0.0817118573763595
 10
169.8277797613273
 20
4.111711191467748
 42
0.060460522145006
 10
172.7267047677788
 20
5.73389432799695
 42
-0.0175628328589988
 10
175.3359050103627
 20
7.502983267269883
 42
-0.1193038223792303
 10
178.3178182144256
 20
8.501805458517993
 42
-0.0466804696993966
 10
182.6728703623321
 20
8.468861645591005
 42
-0.1224255899562275
 10
185.7635084384356
 20
7.359928461627078
 42
-0.0021976574366095
 10
187.7148586459762
 20
6.046227317925513
 42
0.0598692057381186
 10
190.1835734509341
 20
4.769353675192178
 42
0.0805518231819641
 10
196.5889408784378
 20
3.491062266356948
 42
0.1085830654256639
 10
202.470526338966
 20
4.561922786614105
 42
0.0431621048222569
 10
206.0825613577226
 20
6.454738890144654
 42
-0.073120503309113
 10
213.5135972274193
 20
9.799796311475802
 42
-0.2135351777441864
 10
219.0976687736083
 20
8.991474148594534
 42
0.0277003729638193
 10
221.8823694662906
 20
7.437039103971074
 42
0.0666138996187925
 10
225.5894862758341
 20
6.205645711431771
 42
0.1383936215819727
 10
231.5653848895408
 20
6.729081522864362
 42
0.071769835774096
 10
235.2223579450556
 20
8.754056798192778
 42
-0.0511818591444494
 10
238.3013124250056
 20
10.62792028270633
 42
-0.1776902975007202
 10
241.5546881623677
 20
10.93049883443064
 42
-0.2052507455354989
 10
243.8378261473599
 20
9.144415901918364
 10
247.0417144123421
 20
2.293215352718562
 42
0.2911769892817301
 10
249.8498349677729
 20
0.506401914597518
 10
261.1567026265111
 20
0.5448467670753416
 42
0.2667636498253825
 10
263.5460291287709
 20
2.465096660755535
 10
267.3861375849601
 20
10.05756280756714
 42
-0.1913380611813692
 10
269.9149055353237
 20
11.06203593723512
 10
279.353229131154
 20
11.03820211102266
 42
-0.1941050331233009
 10
283.4751162140983
 20
8.954638598132533
 42
0.0713673250360073
 10
285.0694761338123
 20
7.587074005034992
 42
0.1305424751270063
 10
289.9025117658671
 20
6.055598081225071
 42
0.1537998043526602
 10
294.8000385041751
 20
7.347742183331775
 42
-0.0342019839470086
 10
297.2821976325763
 20
8.687003429507058
 42
-0.1759827198152869
 10
299.609032997389
 20
8.86889660181123
 42
-0.0245861296963565
 10
301.8102541421395
 20
8.140541378602848
 42
-0.1390652413202865
 10
303.0185787390719
 20
7.231336964232469
 42
0.1892836867809608
 10
304.4670411471247
 20
6.348679678694225
 42
-0.0012892425160863
 10
306.240592503932
 20
6.033779596651584
 42
0.22312029341888
 10
308.7863599962434
 20
6.713049575530476
 42
-0.0259294320993023
 10
309.90007038779
 20
7.556101087043771
 42
-0.0668917843344885
 10
313.8636002301564
 20
9.532276123581596
 42
-0.2028112030561561
 10
317.6937928740622
 20
9.258872889142367
 42
0.0033231228805357
 10
319.5754927409284
 20
8.31529122162192
 42
0.0339765351938608
 10
324.3389263245299
 20
6.355948850759432
 42
0.174403570499621
 10
329.9220580049969
 20
6.484526417232246
 42
-0.0142766282042484
 10
332.4259145242595
 20
7.369692131039301
 42
0.1273253406553399
 10
335.278345056076
 20
9.176132187994881
 42
-0.2836931045728486
 10
339.8049350942242
 20
10.40443517272979
 42
-0.0046855754428039
 10
343.7463822015347
 20
9.197030756550248
 42
-0.195884940313394
 10
345.7104704139006
 20
7.564403306076656
 42
0.2728160678700086
 10
347.6450242904602
 20
6.384423292642623
 42
-0.0576703196817088
 10
350.0823247332728
 20
6.065165383007297
 42
0.2597477929231045
 10
352.3466979607565
 20
6.674340685362495
 42
-0.0797956924462406
 10
353.9226653300943
 20
7.780073461120082
 42
0.1930007918767561
 10
355.5701900673371
 20
9.595599550231327
 42
-0.3447979284179001
 10
357.2784954296867
 20
10.64560463221051
 42
0.1498657568152403
 10
359.1987351896905
 20
11.00410606923788
 10
374.6972637832068
 20
10.99034944575214
 42
-0.3059463717492144
 10
377.8929074820962
 20
8.552612251653045
 10
380.8102808585181
 20
2.296285237615848
  0
ENDBLK
  5
2385
330
2382
100
AcDbEntity
  8
DEFPOINTS
100
AcDbBlockEnd
  0
BLOCK
  5
24C5
330
24C2
100
AcDbEntity
  8
DEFPOINTS
100
AcDbBlockBegin
  2
G$C56DAE06E
 70
     0
 10
0.0
 20
0.0
 30
0.0
  3
G$C56DAE06E
  1

  0
LWPOLYLINE
  5
24C6
330
24C2
100
AcDbEntity
  8
0
 62
     1
 48
0.5
370
    25
100
AcDbPolyline
 90
        2
 70
     0
 43
0.0
 10
8.676479720583757
 20
0.0
 10
0.0
 20
44.15561911759687
  0
LWPOLYLINE
  5
24C7
330
24C2
100
AcDbEntity
  8
0
 62
     1
 48
0.5
370
    25
100
AcDbPolyline
 90
        2
 70
     0
 43
0.0
 10
0.0
 20
44.15561911759687
 10
88.16312269611262
 20
75.54173310664282
  0
LWPOLYLINE
  5
24C8
330
24C2
100
AcDbEntity
  8
0
 62
     1
 48
0.5
370
    25
100
AcDbPolyline
 90
        2
 70
     0
 43
0.0
 10
167.6497656716415
 20
0.0
 10
176.3262453922252
 20
44.15561911759687
  0
LWPOLYLINE
  5
24C9
330
24C2
100
AcDbEntity
  8
0
 62
     1
 48
0.5
370
    25
100
AcDbPolyline
 90
        2
 70
     0
 43
0.0
 10
176.3262453922252
 20
44.15561911759687
 10
88.16312269611262
 20
75.54173310664282
  0
ENDBLK
  5
24CA
330
24C2
100
AcDbEntity
  8
DEFPOINTS
100
AcDbBlockEnd
  0
BLOCK
  5
24FF
330
24FE
100
AcDbEntity
  8
GE FLASHING
100
AcDbBlockBegin
  2
G$C83A38C16
 70
     0
 10
0.0
 20
0.0
 30
0.0
  3
G$C83A38C16
  1

  0
LWPOLYLINE
  5
2500
330
24FE
100
AcDbEntity
  8
GE FLASHING
  6
PHANTOM
 62
   253
 48
2.0
370
    25
284
     3
100
AcDbPolyline
 90
        2
 70
     0
 43
0.0
 10
82.77500000000009
 20
68.14953201398657
 10
5.327276129679831
 20
26.9919478836855
  0
LWPOLYLINE
  5
2501
330
24FE
100
AcDbEntity
  8
GE FLASHING
  6
PHANTOM
 62
   253
 48
2.0
370
    25
284
     3
100
AcDbPolyline
 90
        2
 70
     0
 43
0.0
 10
82.77500000000009
 20
68.14953201398657
 10
160.1611211205259
 20
26.9919478836855
  0
LWPOLYLINE
  5
2502
330
24FE
100
AcDbEntity
  8
GE FLASHING
  6
PHANTOM
 62
   253
 48
2.0
370
    25
284
     3
100
AcDbPolyline
 90
        2
 70
     0
 43
0.0
 10
82.77500000000009
 20
79.7944160293373
 10
0.2750000000000909
 20
35.67940084239672
  0
LWPOLYLINE
  5
2503
330
24FE
100
AcDbEntity
  8
GE FLASHING
 62
     1
 48
0.5
370
    25
100
AcDbPolyline
 90
        2
 70
     0
 43
0.0
 10
0.2750000000000909
 20
42.9497541153778
 10
82.77500000000009
 20
87.12638090900327
  0
LWPOLYLINE
  5
2504
330
24FE
100
AcDbEntity
  8
GE FLASHING
  6
PHANTOM
 62
   253
 48
2.0
370
    25
284
     3
100
AcDbPolyline
 90
        2
 70
     0
 43
0.0
 10
82.77500000000009
 20
79.7944160293373
 10
165.2750000000001
 20
35.67940084239672
  0
LWPOLYLINE
  5
2505
330
24FE
100
AcDbEntity
  8
GE FLASHING
 62
     1
 48
0.5
370
    -3
100
AcDbPolyline
 90
        2
 70
     0
 43
0.55
 10
82.77500000000009
 20
87.12638090900327
 10
165.2750000000001
 20
42.9497541153778
  0
LWPOLYLINE
  5
2506
330
24FE
100
AcDbEntity
  8
GE FLASHING
 62
     1
 48
0.5
370
    -3
100
AcDbPolyline
 90
        7
 70
     0
 43
0.55
 10
12.80558552290086
 20
0.0913316534270052
 10
0.2750000000000909
 20
35.67940084239672
 10
0.2750000000000909
 20
42.9497541153778
 10
82.77500000000009
 20
87.12638090900327
 10
165.2750000000001
 20
42.9497541153778
 10
165.1430072284843
 20
35.67940084239672
 10
152.6124217055835
 20
0.0913316534270052
  0
ENDBLK
  5
2507
330
24FE
100
AcDbEntity
  8
GE FLASHING
100
AcDbBlockEnd
  0
BLOCK
  5
26E3
330
26E0
100
AcDbEntity
  8
_lines
100
AcDbBlockBegin
  2
G$C2E32D176
 70
     0
 10
0.0
 20
0.0
 30
0.0
  3
G$C2E32D176
  1

  0
LINE
  5
26E4
330
26E0
100
AcDbEntity
  8
_lines
100
AcDbLine
 10
0.0
 20
34.59574063353011
 30
0.0
 11
22.81445918237296
 21
0.0
 31
0.0
  0
LINE
  5
26E5
330
26E0
100
AcDbEntity
  8
_lines
100
AcDbLine
 10
44.6333521152701
 20
49.31266490453982
 30
0.0
 11
0.0
 21
34.59574063353011
 31
0.0
  0
LINE
  5
26E6
330
26E0
100
AcDbEntity
  8
_lines
100
AcDbLine
 10
67.44781129764306
 20
14.7169242710097
 30
0.0
 11
44.6333521152701
 21
49.31266490453982
 31
0.0
  0
LINE
  5
26E7
330
26E0
100
AcDbEntity
  8
_lines
100
AcDbLine
 10
22.81445918237296
 20
0.0
 30
0.0
 11
67.44781129764306
 21
14.7169242710097
 31
0.0
  0
LINE
  5
26E8
330
26E0
100
AcDbEntity
  8
_lines
 62
     1
 48
0.5
370
    -3
100
AcDbLine
 10
0.0
 20
34.59574063353011
 30
0.0
 11
67.44781129764306
 21
14.7169242710097
 31
0.0
  0
LINE
  5
26E9
330
26E0
100
AcDbEntity
  8
_lines
 62
     1
 48
0.5
370
    -3
100
AcDbLine
 10
22.81445918237296
 20
0.0
 30
0.0
 11
44.6333521152701
 21
49.31266490453982
 31
0.0
  0
ENDBLK
  5
26EA
330
26E0
100
AcDbEntity
  8
_lines
100
AcDbBlockEnd
  0
BLOCK
  5
29A3
330
29A2
100
AcDbEntity
  8
0
100
AcDbBlockBegin
  2
*D249
 70
     1
 10
0.0
 20
0.0
 30
0.0
  3
*D249
  1

  0
LINE
  5
29A5
330
29A2
100
AcDbEntity
  8
0
  6
XAR-1873-FP03-17_off$0$HIDDEN
 62
     8
370
    -2
100
AcDbLine
 10
595.967202800683
 20
767.4443420380845
 30
0.0
 11
595.967202800683
 21
799.4443420380845
 31
0.0
  0
LINE
  5
29A6
330
29A2
100
AcDbEntity
  8
0
  6
XAR-1873-FP03-17_off$0$HIDDEN
 62
     8
370
    -2
100
AcDbLine
 10
735.8469787421714
 20
767.4443420380845
 30
0.0
 11
735.8469787421714
 21
799.4443420380845
 31
0.0
  0
LINE
  5
29A7
330
29A2
100
AcDbEntity
  8
0
 62
    24
370
    -2
100
AcDbLine
 10
588.967202800683
 20
792.4443420380845
 30
0.0
 11
742.8469787421714
 21
792.4443420380845
 31
0.0
  0
INSERT
  5
29A8
330
29A2
100
AcDbEntity
  8
0
  6
ByBlock
 62
    24
370
    -2
100
AcDbBlockReference
  2
_OBLIQUE
 10
595.967202800683
 20
792.4443420380845
 30
0.0
 41
5.0
 42
5.0
 43
5.0
 50
180.0
  0
INSERT
  5
29A9
330
29A2
100
AcDbEntity
  8
0
  6
ByBlock
 62
    24
370
    -2
100
AcDbBlockReference
  2
_OBLIQUE
 10
735.8469787421714
 20
792.4443420380845
 30
0.0
 41
5.0
 42
5.0
 43
5.0
  0
MTEXT
  5
29AA
330
29A2
100
AcDbEntity
  8
0
 62
     4
100
AcDbMText
 10
665.9070907714272
 20
798.4443420380845
 30
0.0
 40
10.0
 41
0.0
 46
0.0
 71
     5
 72
     1
  1
\A1;140
  7
RS
 73
     1
 44
1.0
  0
POINT
  5
29AB
330
29A2
100
AcDbEntity
  8
DEFPOINTS
 62
     0
100
AcDbPoint
 10
595.967202800683
 20
767.4443420380845
 30
0.0
  0
POINT
  5
29AC
330
29A2
100
AcDbEntity
  8
DEFPOINTS
 62
     0
100
AcDbPoint
 10
735.8469787421714
 20
767.4443420380845
 30
0.0
  0
POINT
  5
29AD
330
29A2
100
AcDbEntity
  8
DEFPOINTS
 62
     0
100
AcDbPoint
 10
735.8469787421714
 20
792.4443420380845
 30
0.0
  0
ENDBLK
  5
29A4
330
29A2
100
AcDbEntity
  8
0
100
AcDbBlockEnd
  0
ENDSEC
  0
SECTION
  2
ENTITIES
  0
LWPOLYLINE
  5
999
330
1F
100
AcDbEntity
  8
DEFPOINTS
370
    -3
100
AcDbPolyline
 90
        4
 70
     1
 43
0.0
 10
2.121518365837346
 20
939.834999082144
 10
1272.136314479726
 20
939.834999082144
 10
1272.136314479726
 20
1.490733711909002
 10
2.121518365837346
 20
1.490733711909002
  0
MTEXT
  5
99A
330
1F
100
AcDbEntity
  8
DEFPOINTS
100
AcDbMText
 10
32.48274051299677
 20
58.96253598197438
 30
0.0
 40
25.0
 41
1072.461752324541
 46
74.31942797098108
 71
     1
 72
     1
  1
HIP DETAIL BARREL TRIM
  7
Arial
 73
     2
 44
0.9385317878468564
1001
REVIT
1002
{
1070
     1
1000
266659
1002
}
1002
{
1070
     5
1000
190735
1002
}
1002
{
1070
     2
1000
-2005028
1002
}
1001
AcadAnnotative
1000
AnnotativeData
1002
{
1070
     1
1070
     0
1002
}
  0
MULTILEADER
  5
2937
330
1F
100
AcDbEntity
  8
0
370
    -3
160
              1101
310
4D040000160000000C00000013000000993A00000C0000000E000000F1000000100100002600000094C455DC85B455400DEE17DF0D9C8640000000000000000000000000000000000000000000000000000000000000F03F000000000000F03F00000000000000000000000000000000520069006400670065002000740069
310
006C0065002000630075007400200061006E0064002000620065006E007400200074006F00200066006F0072006D002000750070007300740061006E00640000002700000001000000FFFFFFFFFFFF2840000000000000F03F0000000000000000000000000000F03F00000000000000000000000000000000000000000000
310
000000000000000000002200000041007200690061006C00000061007200690061006C002E007400740066000000000000000C000000130000009A3A00000C0000000E00000003000000540000002000000002000000F80605F241687840B898C289B87A864000000000000000001C80E989610C5640B898C289B87A864000
310
0000000000000000000000000000000000000000000000000000000000F03F0C00000013000000112700000C0000001300000001000000880000001D0000001A2F8AE2244908403D30C0D5A0C80F400000000000000000A4A12D098CBA82403D30C0D5A0C80FC01A2F8AE2244908400000000000000000D5E1E02956F88440
310
0000000000000000000000000000000000000000000014400000000000000000000000000000000000000000000000000000000000000000000000000000F03F0C00000012000000FE7F00000C000000140000000100000035000000210000002600000005008000000000000E03F40902000000000000D0BF000000000000
310
0000C00000000000340FC50000000C0000001400000002000000540000002000000002000000000000000000E0BF00000000000000000000000000000000000000000000F0BF0000000000000000000000000000000000000000000000000000000000000000000000000000F03F080000001F000000880000001D00000000
310
0000000000F03F0000000000000000000000000000000000000000000000000000000000000000000000000000F03F0000000000000000000000000000000000000000000000000000000000000000000000000000F03F0000000000000000000000000000000000000000000000000000000000000000000000000000F03F
310
080000001F0000000C00000013000000891300000C00000012000000FF7F000054000000200000000200000075174BE442A2824005A2B6CA1E1885400000000000000000A060AA3650938140B898C289B87A8640000000000000000000000000000000000000000000000000000000000000F03F0C00000013000000112700
310
00540000002000000002000000A060AA3650938140B898C289B87A86400000000000000000F80605F241687840B898C289B87A8640000000000000000000000000000000000000000000000000000000000000F03F
100
AcDbMLeader
270
     2
300
CONTEXT_DATA{
 40
1.0
 10
83.19345329096586
 20
719.34010650662
 30
0.0
 41
12.5
140
5.0
145
5.0
174
     5
175
     5
176
     0
177
     0
290
     1
304
{\C241;Ridge tile cut and bent to form upstand}
 11
0.0
 21
0.0
 31
1.0
340
537
 12
88.19345329096586
 22
736.0067731732867
 32
0.0
 13
1.0
 23
0.0
 33
0.0
 42
0.0
 43
0.0
 44
0.0
 45
0.9600000000000001
170
     2
 90
-1023409921
171
     1
172
     5
 91
-939524096
141
1.5
 92
        0
291
     0
292
     0
173
     0
293
     0
142
0.0
143
0.0
294
     0
295
     0
296
     0
110
603.1721043472248
120
702.3051465101549
130
0.0
111
1.0
121
0.0
131
0.0
112
0.0
122
1.0
132
0.0
297
     0
302
LEADER{
290
     1
291
     1
 10
562.414166766237
 20
719.34010650662
 30
0.0
 11
-1.0
 21
0.0
 31
0.0
 90
        0
 40
171.8980668176996
304
LEADER_LINE{
 10
599.3183768811182
 20
671.0420720642966
 30
0.0
 91
        0
 92
-1056964608
305
}
271
     0
303
}
272
     9
273
     9
301
}
340
D8
 90
856161279
170
     1
 91
-1023410173
341
14
171
    -2
290
     1
291
     1
 41
171.8980668176996
342
639
 42
5.0
172
     2
343
537
173
     5
 95
        5
174
     1
175
     0
 92
-1023409921
292
     0
 93
-1056964608
 10
1.0
 20
1.0
 30
1.0
 43
0.0
176
     0
293
     0
294
     0
178
     0
179
     1
 45
1.0
271
     0
272
     9
273
     9
295
     1
  0
MULTILEADER
  5
2938
330
1F
100
AcDbEntity
  8
0
370
    -3
160
              1081
310
39040000160000000C00000013000000993A00000C0000000E000000F1000000FC00000026000000CC5C3E45A70D56408DB260D11A968540000000000000000000000000000000000000000000000000000000000000F03F000000000000F03F000000000000000000000000000000004D0069006E0069006D0075006D0020
310
00750070007300740061006E0064002000610074002000720069006400670065002000340030006D006D0000001D00000001000000FFFFFFFFFFFF2840000000000000F03F0000000000000000000000000000F03F000000000000000000000000000000000000000000000000000000000000000022000000410072006900
310
61006C00000061007200690061006C002E007400740066000000000000000C000000130000009A3A00000C0000000E000000030000005400000020000000020000004291140EE4A57540385D0B7CC5748540000000000000000020C355A699605640385D0B7CC5748540000000000000000000000000000000000000000000
310
000000000000000000F03F0C00000013000000112700000C0000001300000001000000880000001D00000060F61B150F0109404DA8FEDFBF380F4000000000000000008401B4F5A7A980404DA8FEDFBF380FC060F61B150F0109400000000000000000CDBAD1D62BF883400000000000000000000000000000000000000000
310
000014400000000000000000000000000000000000000000000000000000000000000000000000000000F03F0C00000012000000FE7F00000C000000140000000100000035000000210000002600000005008000000000000E03F40902000000000000D0BF0000000000000000C00000000000340FC50000000C0000001400
310
000002000000540000002000000002000000000000000000E0BF00000000000000000000000000000000000000000000F0BF0000000000000000000000000000000000000000000000000000000000000000000000000000F03F080000001F000000880000001D000000000000000000F03F00000000000000000000000000
310
00000000000000000000000000000000000000000000000000F03F0000000000000000000000000000000000000000000000000000000000000000000000000000F03F0000000000000000000000000000000000000000000000000000000000000000000000000000F03F080000001F0000000C0000001300000089130000
310
0C00000012000000FF7F00005400000020000000020000008EE59EE6A690804075B9B196641784400000000000000000AA7B80DAB2F17E40385D0B7CC5748540000000000000000000000000000000000000000000000000000000000000F03F0C0000001300000011270000540000002000000002000000AA7B80DAB2F17E
310
40385D0B7CC574854000000000000000004291140EE4A57540385D0B7CC5748540000000000000000000000000000000000000000000000000000000000000F03F
100
AcDbMLeader
270
     2
300
CONTEXT_DATA{
 40
1.0
 10
84.50937803626266
 20
686.5964280021499
 30
0.0
 41
12.5
140
5.0
145
5.0
174
     5
175
     5
176
     0
177
     0
290
     1
304
{\C241;Minimum upstand at ridge 40mm}
 11
0.0
 21
0.0
 31
1.0
340
537
 12
89.50937803626266
 22
703.2630946688165
 32
0.0
 13
1.0
 23
0.0
 33
0.0
 42
0.0
 43
0.0
 44
0.0
 45
0.9600000000000001
170
     2
 90
-1023409921
171
     1
172
     5
 91
-939524096
141
1.5
 92
        0
291
     0
292
     0
173
     0
293
     0
142
0.0
143
0.0
294
     0
295
     0
296
     0
110
531.5585695614541
120
669.5614680056848
130
0.0
111
1.0
121
0.0
131
0.0
112
0.0
122
1.0
132
0.0
297
     0
302
LEADER{
290
     1
291
     1
 10
495.1061654108877
 20
686.5964280021499
 30
0.0
 11
-1.0
 21
0.0
 31
0.0
 90
        0
 40
148.7379879203277
304
LEADER_LINE{
 10
533.2070116103137
 20
639.0214058289654
 30
0.0
 91
        0
 92
-1056964608
305
}
271
     0
303
}
272
     9
273
     9
301
}
340
D8
 90
856161279
170
     1
 91
-1023410173
341
14
171
    -2
290
     1
291
     1
 41
148.7379879203277
342
639
 42
5.0
172
     2
343
537
173
     5
 95
        5
174
     1
175
     0
 92
-1023409921
292
     0
 93
-1056964608
 10
1.0
 20
1.0
 30
1.0
 43
0.0
176
     0
293
     0
294
     0
178
     0
179
     1
 45
1.0
271
     0
272
     9
273
     9
295
     1
  0
MULTILEADER
  5
2939
330
1F
100
AcDbEntity
  8
0
370
    -3
160
              1057
310
21040000160000000C00000013000000993A00000C0000000E000000F1000000E400000026000000AA3A27FC3E495640755E9B9A83368440000000000000000000000000000000000000000000000000000000000000F03F000000000000F03F00000000000000000000000000000000470065007200610072006400200052
310
006F006F0066002000540069006C006500000000001000000001000000FFFFFFFFFFFF2840000000000000F03F0000000000000000000000000000F03F00000000000000000000000000000000000000000000000000000000000000002200000041007200690061006C00000061007200690061006C002E00740074006600
310
0000000000000C000000130000009A3A00000C0000000E00000003000000540000002000000002000000908C0384DACF6B40200946452E1584400000000000000000A07B2545BA845640200946452E158440000000000000000000000000000000000000000000000000000000000000F03F0C00000013000000112700000C
310
0000001300000001000000880000001D0000002188AD9035430C4003118F57554E0C4000000000000000008478EBC2B450804003118F57554E0CC02188AD9035430C400000000000000000C56F0483B1A283400000000000000000000000000000000000000000000014400000000000000000000000000000000000000000
310
000000000000000000000000000000000000F03F0C00000012000000FE7F00000C000000140000000100000035000000210000002600000005008000000000000E03F40902000000000000D0BF0000000000000000C00000000000340FC50000000C0000001400000002000000540000002000000002000000000000000000
310
E0BF00000000000000000000000000000000000000000000F0BF0000000000000000000000000000000000000000000000000000000000000000000000000000F03F080000001F000000880000001D000000000000000000F03F00000000000000000000000000000000000000000000000000000000000000000000000000
310
00F03F0000000000000000000000000000000000000000000000000000000000000000000000000000F03F0000000000000000000000000000000000000000000000000000000000000000000000000000F03F080000001F0000000C00000013000000891300000C00000012000000FF7F0000540000002000000002000000
310
FCCA5A8D71348040D6FE5BD8FFBE834000000000000000004069C0FDC9BC7F40200946452E158440000000000000000000000000000000000000000000000000000000000000F03F0C00000013000000112700005400000020000000020000004069C0FDC9BC7F40200946452E1584400000000000000000908C0384DACF6B
310
40200946452E158440000000000000000000000000000000000000000000000000000000000000F03F
100
AcDbMLeader
270
     2
300
CONTEXT_DATA{
 40
1.0
 10
85.07386902485314
 20
642.6475930663619
 30
0.0
 41
12.5
140
5.0
145
5.0
174
     5
175
     5
176
     0
177
     0
290
     1
304
{\C241;Gerard Roof Tile}
 11
0.0
 21
0.0
 31
1.0
340
537
 12
90.07386902485314
 22
659.3142597330285
 32
0.0
 13
1.0
 23
0.0
 33
0.0
 42
0.0
 43
0.0
 44
0.0
 45
0.9600000000000001
170
     2
 90
-1023409921
171
     1
172
     5
 91
-939524096
141
1.5
 92
        0
291
     0
292
     0
173
     0
293
     0
142
0.0
143
0.0
294
     0
295
     0
296
     0
110
551.063255298352
120
625.6126330698968
130
0.0
111
1.0
121
0.0
131
0.0
112
0.0
122
1.0
132
0.0
297
     0
302
LEADER{
290
     1
291
     1
 10
507.7993142620144
 20
642.6475930663619
 30
0.0
 11
-1.0
 21
0.0
 31
0.0
 90
        0
 40
285.3038899847738
304
LEADER_LINE{
 10
522.0882624050287
 20
628.3366756769761
 30
0.0
 91
        0
 92
-1056964608
305
}
271
     0
303
}
272
     9
273
     9
301
}
340
D8
 90
856161279
170
     1
 91
-1023410173
341
14
171
    -2
290
     1
291
     1
 41
285.3038899847738
342
639
 42
5.0
172
     2
343
537
173
     5
 95
        5
174
     1
175
     0
 92
-1023409921
292
     0
 93
-1056964608
 10
1.0
 20
1.0
 30
1.0
 43
0.0
176
     0
293
     0
294
     0
178
     0
179
     1
 45
1.0
271
     0
272
     9
273
     9
295
     1
  0
MULTILEADER
  5
293A
330
1F
100
AcDbEntity
  8
0
370
    -3
160
              1069
310
2D040000160000000C00000013000000993A00000C0000000E000000F1000000F000000026000000BEEAD1E4EDDA55409D65AF6005218340000000000000000000000000000000000000000000000000000000000000F03F000000000000F03F0000000000000000000000000000000053007500700070006F007200740020
310
00620061007400740065006E002000350030007800340030006D006D00000000001600000001000000FFFFFFFFFFFF2840000000000000F03F0000000000000000000000000000F03F00000000000000000000000000000000000000000000000000000000000000002200000041007200690061006C000000610072006900
310
61006C002E007400740066000000000000000C000000130000009A3A00000C0000000E000000030000005400000020000000020000005FAE90D11AF6714048105A0BB0FF82400000000000000000A0C30148220D564048105A0BB0FF8240000000000000000000000000000000000000000000000000000000000000F03F0C
310
00000013000000112700000C0000001300000001000000880000001D000000CFC6D6E5912F0A40435A4CEDC83C0E400000000000000000C867CAA274517F40435A4CEDC83C0EC0CFC6D6E5912F0A400000000000000000ED761849338D82400000000000000000000000000000000000000000000014400000000000000000
310
000000000000000000000000000000000000000000000000000000000000F03F0C00000012000000FE7F00000C000000140000000100000035000000210000002600000005008000000000000E03F40902000000000000D0BF0000000000000000C00000000000340FC50000000C0000001400000002000000540000002000
310
000002000000000000000000E0BF00000000000000000000000000000000000000000000F0BF0000000000000000000000000000000000000000000000000000000000000000000000000000F03F080000001F000000880000001D000000000000000000F03F00000000000000000000000000000000000000000000000000
310
00000000000000000000000000F03F0000000000000000000000000000000000000000000000000000000000000000000000000000F03F0000000000000000000000000000000000000000000000000000000000000000000000000000F03F080000001F0000000C00000013000000891300000C00000012000000FF7F0000
310
5400000020000000020000003ABAFE7E151D7F4047C3051270AB824000000000000000002FD0417C298B7E4048105A0BB0FF8240000000000000000000000000000000000000000000000000000000000000F03F0C00000013000000112700005400000020000000020000002FD0417C298B7E4048105A0BB0FF8240000000
310
00000000005FAE90D11AF6714048105A0BB0FF8240000000000000000000000000000000000000000000000000000000000000F03F
100
AcDbMLeader
270
     2
300
CONTEXT_DATA{
 40
1.0
 10
83.2052173630932
 20
607.9609591518611
 30
0.0
 41
12.5
140
5.0
145
5.0
174
     5
175
     5
176
     0
177
     0
290
     1
304
{\C241;Support batten 50x40mm}
 11
0.0
 21
0.0
 31
1.0
340
537
 12
88.2052173630932
 22
624.6276258185277
 32
0.0
 13
1.0
 23
0.0
 33
0.0
 42
0.0
 43
0.0
 44
0.0
 45
0.9600000000000001
170
     2
 90
-1023409921
171
     1
172
     5
 91
-939524096
141
1.5
 92
        0
291
     0
292
     0
173
     0
293
     0
142
0.0
143
0.0
294
     0
295
     0
296
     0
110
530.0659684550815
120
590.925999155396
130
0.0
111
1.0
121
0.0
131
0.0
112
0.0
122
1.0
132
0.0
297
     0
302
LEADER{
290
     1
291
     1
 10
488.6976282664136
 20
607.9609591518611
 30
0.0
 11
-1.0
 21
0.0
 31
0.0
 90
        0
 40
201.3160807532522
304
LEADER_LINE{
 10
501.0909755617581
 20
593.6500417624753
 30
0.0
 91
        0
 92
-1056964608
305
}
271
     0
303
}
272
     9
273
     9
301
}
340
D8
 90
856161279
170
     1
 91
-1023410173
341
14
171
    -2
290
     1
291
     1
 41
201.3160807532522
342
639
 42
5.0
172
     2
343
537
173
     5
 95
        5
174
     1
175
     0
 92
-1023409921
292
     0
 93
-1056964608
 10
1.0
 20
1.0
 30
1.0
 43
0.0
176
     0
293
     0
294
     0
178
     0
179
     1
 45
1.0
271
     0
272
     9
273
     9
295
     1
  0
MULTILEADER
  5
293B
330
1F
100
AcDbEntity
  8
0
370
    -3
160
              1073
310
31040000160000000C00000013000000993A00000C0000000E000000F1000000F4000000260000009407C2F8BD0856408DD606E34C1C8240000000000000000000000000000000000000000000000000000000000000F03F000000000000F03F0000000000000000000000000000000055006E006400650072006C00610079
310
002000280055006E006400650072002000420061007400740065006E0073002900000000001800000001000000FFFFFFFFFFFF2840000000000000F03F0000000000000000000000000000F03F00000000000000000000000000000000000000000000000000000000000000002200000041007200690061006C0000006100
310
7200690061006C002E007400740066000000000000000C000000130000009A3A00000C0000000E00000003000000540000002000000002000000C7FBAFAD072872403881B18DF7FA8140000000000000000020C355A6996056403881B18DF7FA81400000000000000000000000000000000000000000000000000000000000
310
00F03F0C00000013000000112700000C0000001300000001000000880000001D000000C7C7C3FF2CB809404858F53997A20E4000000000000000008855488A40FF7C404858F53997A20EC0C7C7C3FF2CB809400000000000000000BDB3907CAB37814000000000000000000000000000000000000000000000144000000000
310
00000000000000000000000000000000000000000000000000000000000000000000F03F0C00000012000000FE7F00000C000000140000000100000035000000210000002600000005008000000000000E03F40902000000000000D0BF0000000000000000C00000000000340FC50000000C00000014000000020000005400
310
00002000000002000000000000000000E0BF00000000000000000000000000000000000000000000F0BF0000000000000000000000000000000000000000000000000000000000000000000000000000F03F080000001F000000880000001D000000000000000000F03F000000000000000000000000000000000000000000
310
0000000000000000000000000000000000F03F0000000000000000000000000000000000000000000000000000000000000000000000000000F03F0000000000000000000000000000000000000000000000000000000000000000000000000000F03F080000001F0000000C00000013000000891300000C00000012000000
310
FF7F0000540000002000000002000000F8CD4830D0CB7C4015A9CA134E568140000000000000000037C8890D55B77B403881B18DF7FA8140000000000000000000000000000000000000000000000000000000000000F03F0C000000130000001127000054000000200000000200000037C8890D55B77B403881B18DF7FA81
310
400000000000000000C7FBAFAD072872403881B18DF7FA8140000000000000000000000000000000000000000000000000000000000000F03F
100
AcDbMLeader
270
     2
300
CONTEXT_DATA{
 40
1.0
 10
84.50937803626266
 20
575.3708757274208
 30
0.0
 41
12.5
140
5.0
145
5.0
174
     5
175
     5
176
     0
177
     0
290
     1
304
{\C241;Underlay (Under Battens)}
 11
0.0
 21
0.0
 31
1.0
340
537
 12
89.50937803626266
 22
592.0375423940874
 32
0.0
 13
1.0
 23
0.0
 33
0.0
 42
0.0
 43
0.0
 44
0.0
 45
0.9600000000000001
170
     2
 90
-1023409921
171
     1
172
     5
 91
-939524096
141
1.5
 92
        0
291
     0
292
     0
173
     0
293
     0
142
0.0
143
0.0
294
     0
295
     0
296
     0
110
486.3124895888836
120
558.3359157309557
130
0.0
111
1.0
121
0.0
131
0.0
112
0.0
122
1.0
132
0.0
297
     0
302
LEADER{
290
     1
291
     1
 10
443.4582648641694
 20
575.3708757274208
 30
0.0
 11
-1.0
 21
0.0
 31
0.0
 90
        0
 40
152.956390238548
304
LEADER_LINE{
 10
463.9532568765212
 20
550.9587336830951
 30
0.0
 91
        0
 92
-1056964608
305
}
271
     0
303
}
272
     9
273
     9
301
}
340
D8
 90
856161279
170
     1
 91
-1023410173
341
14
171
    -2
290
     1
291
     1
 41
152.956390238548
342
639
 42
5.0
172
     2
343
537
173
     5
 95
        5
174
     1
175
     0
 92
-1023409921
292
     0
 93
-1056964608
 10
1.0
 20
1.0
 30
1.0
 43
0.0
176
     0
293
     0
294
     0
178
     0
179
     1
 45
1.0
271
     0
272
     9
273
     9
295
     1
  0
MULTILEADER
  5
293C
330
1F
100
AcDbEntity
  8
0
370
    -3
160
              1061
310
25040000160000000C00000013000000993A00000C0000000E000000F1000000E800000026000000F3A8A6D394C08E40E58AF5068EBD8740000000000000000000000000000000000000000000000000000000000000F03F000000000000F03F00000000000000000000000000000000540069006C00650020004200610074
310
00740065006E002000350030007800340030006D006D0000001300000001000000FFFFFFFFFFFF2840000000000000F03F0000000000000000000000000000F03F00000000000000000000000000000000000000000000000000000000000000002200000041007200690061006C00000061007200690061006C002E007400
310
740066000000000000000C000000130000009A3A00000C0000000E000000030000005400000020000000020000001837A406DB9B8E409035A0B1389C874000000000000000003290AC24C8EF91409035A0B1389C8740000000000000000000000000000000000000000000000000000000000000F03F0C0000001300000011
310
2700000C0000001300000001000000880000001D000000AA33F23DAFE204C0212F18A9A60E1140000000000000000024A174AFE0D98540212F18A9A60E11C0AA33F23DAFE204C00000000000000000758D930C645B854000000000000000000000000000000000000000000000144000000000000000000000000000000000
310
00000000000000000000000000000000000000000000F03F0C00000012000000FE7F00000C000000140000000100000035000000210000002600000005008000000000000E03F40902000000000000D0BF0000000000000000C00000000000340FC50000000C00000014000000020000005400000020000000020000000000
310
00000000E0BF00000000000000000000000000000000000000000000F0BF0000000000000000000000000000000000000000000000000000000000000000000000000000F03F080000001F000000880000001D000000000000000000F03F000000000000000000000000000000000000000000000000000000000000000000
310
0000000000F03F0000000000000000000000000000000000000000000000000000000000000000000000000000F03F0000000000000000000000000000000000000000000000000000000000000000000000000000F03F080000001F0000000C00000013000000891300000C00000012000000FF7F00005400000020000000
310
020000005893B25EC3EE8540D3BDE559817D85400000000000000000E499BB15063B87409035A0B1389C8740000000000000000000000000000000000000000000000000000000000000F03F0C0000001300000011270000540000002000000002000000E499BB15063B87409035A0B1389C874000000000000000001837A4
310
06DB9B8E409035A0B1389C8740000000000000000000000000000000000000000000000000000000000000F03F
100
AcDbMLeader
270
     2
300
CONTEXT_DATA{
 40
1.0
 10
979.4819462613405
 20
755.5276825443598
 30
0.0
 41
12.5
140
5.0
145
5.0
174
     5
175
     5
176
     2
177
     0
290
     1
304
{\C241;Tile Batten 50x40mm }
 11
0.0
 21
0.0
 31
1.0
340
537
 12
1147.945452400495
 22
772.1943492110264
 32
0.0
 13
1.0
 23
0.0
 33
0.0
 42
0.0
 43
0.0
 44
0.0
 45
0.9600000000000001
170
     2
 90
-1023409921
171
     3
172
     5
 91
-939524096
141
1.5
 92
        0
291
     0
292
     0
173
     0
293
     0
142
0.0
143
0.0
294
     0
295
     0
296
     0
110
703.8251950913477
120
738.4927225478947
130
0.0
111
1.0
121
0.0
131
0.0
112
0.0
122
1.0
132
0.0
297
     0
302
LEADER{
290
     1
291
     1
 10
743.3779711395587
 20
755.5276825443598
 30
0.0
 11
1.0
 21
0.0
 31
0.0
 90
        0
 40
236.1039751217818
304
LEADER_LINE{
 10
699.2347096549679
 20
683.4238521125359
 30
0.0
 91
        0
 92
-1056964608
305
}
271
     0
303
}
272
     9
273
     9
301
}
340
D8
 90
856161279
170
     1
 91
-1023410173
341
14
171
    -2
290
     1
291
     1
 41
236.1039751217818
342
639
 42
5.0
172
     2
343
537
173
     5
 95
        5
174
     1
175
     2
 92
-1023409921
292
     0
 93
-1056964608
 10
1.0
 20
1.0
 30
1.0
 43
0.0
176
     0
293
     0
294
     0
178
     0
179
     1
 45
1.0
271
     0
272
     9
273
     9
295
     1
  0
HATCH
  5
2944
330
1F
100
AcDbEntity
  8
_hatch
100
AcDbHatch
 10
0.0
 20
0.0
 30
0.0
210
0.0
220
0.0
230
1.0
  2
SOLID
 70
     1
 71
     0
 91
        2
 92
        0
 93
        4
 72
     1
 10
609.6928092839667
 20
645.825144206479
 11
657.1816746400232
 21
661.4714749966166
 72
     1
 10
657.1816746400223
 20
661.4714749966166
 11
644.664610007912
 21
699.4625672814615
 72
     1
 10
644.6646100079092
 20
699.4625672814615
 11
597.1757446518527
 21
683.8162364913238
 72
     1
 10
597.1757446518536
 20
683.8162364913238
 11
609.6928092839639
 21
645.825144206479
 97
        0
 92
        0
 93
        4
 72
     1
 10
610.6480853209437
 20
647.7192000908614
 11
599.0698005362406
 21
682.8609604543459
 72
     1
 10
599.0698005362433
 20
682.8609604543459
 11
643.709333970935
 21
697.5685113970745
 72
     1
 10
643.7093339709322
 20
697.5685113970745
 11
655.2876187556353
 21
662.42675103359
 72
     1
 10
655.2876187556326
 20
662.42675103359
 11
610.6480853209409
 21
647.7192000908614
 97
        0
 75
     0
 76
     1
 98
        1
 10
627.1787096459379
 20
672.6438557439693
  0
HATCH
  5
2945
330
1F
100
AcDbEntity
  8
_hatch
100
AcDbHatch
 10
0.0
 20
0.0
 30
0.0
210
0.0
220
0.0
230
1.0
  2
SOLID
 70
     1
 71
     0
 91
        2
 92
        0
 93
        4
 72
     1
 10
683.4070907714272
 20
467.6957616816459
 11
683.4070907714272
 21
607.6957616816459
 72
     1
 10
683.4070907714272
 20
607.6957616816468
 11
648.4070907714272
 21
607.6957616816468
 72
     1
 10
648.4070907714272
 20
607.6957616816468
 11
648.4070907714272
 21
467.6957616816468
 72
     1
 10
648.4070907714272
 20
467.6957616816459
 11
683.4070907714272
 21
467.6957616816459
 97
        0
 92
        0
 93
        5
 72
     1
 10
653.6729326674108
 20
469.6957616816431
 11
650.4070907714272
 21
469.6957616816431
 72
     1
 10
650.4070907714272
 20
469.6957616816431
 11
650.4070907714272
 21
605.6957616816468
 72
     1
 10
650.4070907714272
 20
605.6957616816459
 11
681.4070907714272
 21
605.6957616816459
 72
     1
 10
681.4070907714272
 20
605.6957616816459
 11
681.4070907714272
 21
469.6957616816422
 72
     1
 10
681.4070907714272
 20
469.6957616816431
 11
653.6729326674108
 21
469.6957616816431
 97
        0
 75
     0
 76
     1
 98
        1
 10
665.9070907714272
 20
537.6957616816459
  0
LINE
  5
2946
330
1F
100
AcDbEntity
  8
_lines
100
AcDbLine
 10
1083.86436158144
 20
525.400749816257
 30
0.0
 11
665.8410943856693
 21
663.1632635136835
 31
0.0
  0
LINE
  5
2947
330
1F
100
AcDbEntity
  8
_lines
100
AcDbLine
 10
665.9070907714272
 20
621.0253346729411
 30
0.0
 11
1071.347296913926
 21
487.4096574239626
 31
0.0
  0
LINE
  5
2948
330
1F
100
AcDbEntity
  8
_lines
100
AcDbLine
 10
665.9070907714272
 20
663.1632635136845
 30
0.0
 11
665.9070907714272
 21
621.0470842469737
 31
0.0
1001
REVIT
1002
{
1070
     3
1000
156458
1002
}
  0
LINE
  5
2949
330
1F
100
AcDbEntity
  8
_lines
100
AcDbLine
 10
247.94335591768
 20
525.420369119122
 30
0.0
 11
665.9070907714272
 21
663.1632635136835
 31
0.0
  0
LINE
  5
294A
330
1F
100
AcDbEntity
  8
_lines
100
AcDbLine
 10
665.9070907714272
 20
621.0470842469737
 30
0.0
 11
260.4604205851906
 21
487.4292767268277
 31
0.0
  0
LINE
  5
294B
330
1F
100
AcDbEntity
  8
_lines
  6
Dash
100
AcDbLine
 10
261.5427390574991
 20
484.14428442459
 30
0.0
 11
665.7511550282475
 21
617.3203149955003
 31
0.0
1001
REVIT
1002
{
1070
     3
1000
191813
1002
}
  0
LINE
  5
294C
330
1F
100
AcDbEntity
  8
_lines
  6
Dash
100
AcDbLine
 10
1070.271442485352
 20
484.14428442459
 30
0.0
 11
666.0630265146069
 21
617.3203149955003
 31
0.0
1001
REVIT
1002
{
1070
     3
1000
191813
1002
}
  0
LINE
  5
294D
330
1F
100
AcDbEntity
  8
_lines
100
AcDbLine
 10
599.3338208663522
 20
682.9536475649644
 30
0.0
 11
655.5516390857451
 21
662.5194381442085
 31
0.0
1001
REVIT
1002
{
1070
     3
1000
156446
1002
}
  0
LINE
  5
294E
330
1F
100
AcDbEntity
  8
_lines
100
AcDbLine
 10
643.9733543010448
 20
697.661198507693
 30
0.0
 11
610.9121056510562
 21
647.8118872014799
 31
0.0
1001
REVIT
1002
{
1070
     3
1000
156446
1002
}
  0
LINE
  5
294F
330
1F
100
AcDbEntity
  8
_lines
100
AcDbLine
 10
1068.939988881692
 20
480.103131149736
 30
0.0
 11
683.4070907714272
 21
607.1582147411715
 31
0.0
  0
LINE
  5
2950
330
1F
100
AcDbEntity
  8
_lines
100
AcDbLine
 10
1037.640184086864
 20
385.1277542365293
 30
0.0
 11
681.4070907714272
 21
502.5268806692717
 31
0.0
  0
LINE
  5
2951
330
1F
100
AcDbEntity
  8
_lines
100
AcDbLine
 10
650.4070907714272
 20
605.6957616816459
 30
0.0
 11
681.4070907714272
 21
469.6957616816431
 31
0.0
1001
REVIT
1002
{
1070
     3
1000
156446
1002
}
  0
LINE
  5
2952
330
1F
100
AcDbEntity
  8
_lines
100
AcDbLine
 10
681.4070907714272
 20
605.6957616816459
 30
0.0
 11
650.4070907714272
 21
469.6957616816431
 31
0.0
1001
REVIT
1002
{
1070
     3
1000
156446
1002
}
  0
LINE
  5
2953
330
1F
100
AcDbEntity
  8
_lines
100
AcDbLine
 10
648.4070907714272
 20
607.5186232325392
 30
0.0
 11
648.4070907714272
 21
467.9603663741269
 31
0.0
1001
REVIT
1002
{
1070
     3
1000
156458
1002
}
  0
LINE
  5
2954
330
1F
100
AcDbEntity
  8
_lines
100
AcDbLine
 10
262.7670780920857
 20
480.4282392799811
 30
0.0
 11
648.4070907714272
 21
607.5186232325392
 31
0.0
  0
LINE
  5
2955
330
1F
100
AcDbEntity
  8
_lines
100
AcDbLine
 10
294.0668828869134
 20
385.4528623667744
 30
0.0
 11
650.4070907714272
 21
502.8872891606394
 31
0.0
  0
LINE
  5
2956
330
1F
100
AcDbEntity
  8
_lines
100
AcDbLine
 10
967.0815765989287
 20
563.9090892007104
 30
0.0
 11
1031.170497265532
 21
542.7881337323184
 31
0.0
  0
LINE
  5
2957
330
1F
100
AcDbEntity
  8
_lines
100
AcDbLine
 10
1008.361413702813
 20
508.1888486993081
 30
0.0
 11
944.2724930362097
 21
529.3098041677
 31
0.0
  0
LINE
  5
2958
330
1F
100
AcDbEntity
  8
_lines
100
AcDbLine
 10
294.0859830569439
 20
385.3708561194095
 30
0.0
 11
273.0321582418369
 21
449.2722439454134
 31
0.0
  0
LINE
  5
2959
330
1F
100
AcDbEntity
  8
_lines
100
AcDbLine
 10
273.0321582418369
 20
449.2722439454134
 30
0.0
 11
282.2533533306782
 21
454.2240033762579
 31
0.0
  0
LINE
  5
295A
330
1F
100
AcDbEntity
  8
_lines
100
AcDbLine
 10
282.2533533306782
 20
454.2240033762579
 30
0.0
 11
261.586685060222
 21
451.0714885856811
 31
0.0
  0
LINE
  5
295B
330
1F
100
AcDbEntity
  8
_lines
100
AcDbLine
 10
261.586685060222
 20
451.0714885856811
 30
0.0
 11
270.8078801490633
 21
456.0232480165256
 31
0.0
  0
DIMENSION
  5
295C
330
1F
100
AcDbEntity
  8
0
 62
     1
100
AcDbDimension
280
     0
  2
*D249
 10
735.8469787421714
 20
792.4443420380845
 30
0.0
 11
665.9070907714272
 21
798.4443420380845
 31
0.0
 70
    32
 71
     5
 42
139.8797759414883
 73
     0
 74
     0
 75
     0
  3
DIM150
100
AcDbAlignedDimension
 13
595.967202800683
 23
767.4443420380845
 33
0.0
 14
735.8469787421714
 24
767.4443420380845
 34
0.0
100
AcDbRotatedDimension
1001
REVIT
1002
{
1070
     1
1000
689125
1002
}
1002
{
1070
     5
1000
91566
1002
}
1002
{
1070
     2
1000
-2000260
1002
}
1001
ACAD
1000
DSTYLE
1002
{
1070
   347
1005
51D
1070
   346
1005
51D
1070
   345
1005
0
1070
   340
1005
521
1070
   341
1005
522
1070
   140
1040
10.0
1002
}
  0
LINE
  5
295D
330
1F
100
AcDbEntity
  8
0
  6
XAR-1873-FP03-17_off$0$HIDDEN
 62
     8
100
AcDbLine
 10
638.4729280640026
 20
693.3029190497015
 30
0.0
 11
520.7350793329902
 21
654.5015812502112
 31
0.0
1001
ACAD
1000
DSTYLE
1002
{
1070
   347
1005
51D
1070
   346
1005
51D
1070
   345
1005
0
1070
   340
1005
521
1070
   341
1005
522
1070
   140
1040
10.0
1002
}
  0
LINE
  5
295E
330
1F
100
AcDbEntity
  8
0
  6
XAR-1873-FP03-17_off$0$HIDDEN
 62
     8
100
AcDbLine
 10
648.7045713176308
 20
660.266660601958
 30
0.0
 11
531.4791500267643
 21
621.634196876667
 31
0.0
1001
ACAD
1000
DSTYLE
1002
{
1070
   347
1005
51D
1070
   346
1005
51D
1070
   345
1005
0
1070
   340
1005
521
1070
   341
1005
522
1070
   140
1040
10.0
1002
}
  0
LINE
  5
295F
330
1F
100
AcDbEntity
  8
0
 62
    24
100
AcDbLine
 10
525.1923693812791
 20
663.3408439697729
 30
0.0
 11
541.2216538393482
 21
614.701967688157
 31
0.0
1001
ACAD
1000
DSTYLE
1002
{
1070
   347
1005
51D
1070
   346
1005
51D
1070
   345
1005
0
1070
   340
1005
521
1070
   341
1005
522
1070
   140
1040
10.0
1002
}
  0
INSERT
  5
2960
330
1F
100
AcDbEntity
  8
0
 62
    24
100
AcDbBlockReference
  2
_OBLIQUE
 10
527.3833557169169
 20
656.6925675858489
 30
0.0
 41
5.0
 42
5.0
 43
5.0
 50
108.2399999999982
1001
ACAD
1000
DSTYLE
1002
{
1070
   347
1005
51D
1070
   346
1005
51D
1070
   345
1005
0
1070
   340
1005
521
1070
   341
1005
522
1070
   140
1040
10.0
1002
}
  0
INSERT
  5
2961
330
1F
100
AcDbEntity
  8
0
 62
    24
100
AcDbBlockReference
  2
_OBLIQUE
 10
538.1274264106873
 20
623.8251832123048
 30
0.0
 41
5.0
 42
5.0
 43
5.0
 50
288.2399999999982
1001
ACAD
1000
DSTYLE
1002
{
1070
   347
1005
51D
1070
   346
1005
51D
1070
   345
1005
0
1070
   340
1005
521
1070
   341
1005
522
1070
   140
1040
10.0
1002
}
  0
LINE
  5
2962
330
1F
100
AcDbEntity
  8
_lines
100
AcDbLine
 10
244.8170618954723
 20
534.9091213304451
 30
0.0
 11
270.8078801490633
 21
456.0232480165256
 31
0.0
  0
HATCH
  5
2963
330
1F
100
AcDbEntity
  8
_hatch
100
AcDbHatch
 10
0.0
 20
0.0
 30
0.0
210
0.0
220
0.0
230
1.0
  2
SOLID
 70
     1
 71
     0
 91
        2
 92
        0
 93
        4
 72
     1
 10
721.9893794873719
 20
645.825144206479
 11
674.5005141313154
 21
661.4714749966166
 72
     1
 10
674.5005141313163
 20
661.4714749966166
 11
687.0175787634266
 21
699.4625672814615
 72
     1
 10
687.0175787634257
 20
699.4625672814615
 11
734.5064441194822
 21
683.8162364913238
 72
     1
 10
734.5064441194813
 20
683.8162364913238
 11
721.989379487371
 21
645.825144206479
 97
        0
 92
        0
 93
        4
 72
     1
 10
721.0341034503949
 20
647.7192000908614
 11
732.612388235098
 21
682.8609604543459
 72
     1
 10
732.6123882350953
 20
682.8609604543459
 11
687.9728548004036
 21
697.5685113970745
 72
     1
 10
687.9728548004064
 20
697.5685113970745
 11
676.3945700157033
 21
662.42675103359
 72
     1
 10
676.3945700157024
 20
662.42675103359
 11
721.034103450394
 21
647.7192000908614
 97
        0
 75
     0
 76
     1
 98
        1
 10
704.5034791254006
 20
672.6438557439693
  0
LINE
  5
2964
330
1F
100
AcDbEntity
  8
_lines
100
AcDbLine
 10
732.3483679049828
 20
682.9536475649644
 30
0.0
 11
676.1305496855898
 21
662.5194381442085
 31
0.0
1001
REVIT
1002
{
1070
     3
1000
156446
1002
}
  0
LINE
  5
2965
330
1F
100
AcDbEntity
  8
_lines
100
AcDbLine
 10
687.7088344702938
 20
697.661198507693
 30
0.0
 11
720.7700831202824
 21
647.8118872014799
 31
0.0
1001
REVIT
1002
{
1070
     3
1000
156446
1002
}
  0
LINE
  5
2966
330
1F
100
AcDbEntity
  8
_lines
100
AcDbLine
 10
1037.72819848591
 20
385.3708561194095
 30
0.0
 11
1058.782023301014
 21
449.2722439454134
 31
0.0
  0
LINE
  5
2967
330
1F
100
AcDbEntity
  8
_lines
100
AcDbLine
 10
1058.782023301014
 20
449.2722439454134
 30
0.0
 11
1049.560828212176
 21
454.2240033762579
 31
0.0
  0
LINE
  5
2968
330
1F
100
AcDbEntity
  8
_lines
100
AcDbLine
 10
1049.560828212176
 20
454.2240033762579
 30
0.0
 11
1070.227496482629
 21
451.0714885856811
 31
0.0
  0
LINE
  5
2969
330
1F
100
AcDbEntity
  8
_lines
100
AcDbLine
 10
1070.227496482629
 20
451.0714885856811
 30
0.0
 11
1061.006301393791
 21
456.0232480165256
 31
0.0
  0
LINE
  5
296A
330
1F
100
AcDbEntity
  8
_lines
100
AcDbLine
 10
1086.997119647378
 20
534.9091213304451
 30
0.0
 11
1061.006301393791
 21
456.0232480165256
 31
0.0
  0
INSERT
  5
296B
330
1F
100
AcDbEntity
  8
GE FLASHING
 62
     1
 48
0.5
370
    -3
100
AcDbBlockReference
  2
G$CBE61CC38
 10
592.2634437249294
 20
653.3636997262644
 30
0.0
  0
MULTILEADER
  5
296C
330
1F
100
AcDbEntity
  8
0
370
    -3
160
              1045
310
15040000160000000C00000013000000993A00000C0000000E000000F1000000D8000000260000007723F9757C4455409A1C3B3025B37D40000000000000000000000000000000000000000000000000000000000000F03F000000000000F03F000000000000000000000000000000004A00610063006B0020005200610066
310
0074006500720000000B00000001000000FFFFFFFFFFFF2840000000000000F03F0000000000000000000000000000F03F00000000000000000000000000000000000000000000000000000000000000002200000041007200690061006C00000061007200690061006C002E007400740066000000000000000C0000001300
310
00009A3A00000C0000000E00000003000000540000002000000002000000B682A3C5CD536640EF7190857A707D40000000000000000020650DF47F625540EF7190857A707D40000000000000000000000000000000000000000000000000000000000000F03F0C00000013000000112700000C000000130000000100000088
310
0000001D0000003AC1D8A79EC60740CD5397855C1510C0000000000000000008DEDEE256DD7340CD5397855C1510403AC1D8A79EC6074000000000000000009AA4130A74557E400000000000000000000000000000000000000000000014400000000000000000000000000000000000000000000000000000000000000000
310
000000000000F03F0C00000012000000FE7F00000C000000140000000100000035000000210000002600000005008000000000000E03F40902000000000000D0BF0000000000000000C00000000000340FC50000000C0000001400000002000000540000002000000002000000000000000000E0BF00000000000000000000
310
000000000000000000000000F0BF0000000000000000000000000000000000000000000000000000000000000000000000000000F03F080000001F000000880000001D000000000000000000F03F0000000000000000000000000000000000000000000000000000000000000000000000000000F03F000000000000000000
310
0000000000000000000000000000000000000000000000000000000000F03F0000000000000000000000000000000000000000000000000000000000000000000000000000F03F080000001F0000000C00000013000000891300000C00000012000000FF7F0000540000002000000002000000862C8FA5C9AD73404B47FD97
310
1E157E400000000000000000FB36524918347340EF7190857A707D40000000000000000000000000000000000000000000000000000000000000F03F0C0000001300000011270000540000002000000002000000FB36524918347340EF7190857A707D400000000000000000B682A3C5CD536640EF7190857A707D40000000
310
000000000000000000000000000000000000000000000000000000F03F
100
AcDbMLeader
270
     2
300
CONTEXT_DATA{
 40
1.0
 10
80.53905965145213
 20
471.0299125330338
 30
0.0
 41
12.5
140
5.0
145
5.0
174
     5
175
     5
176
     0
177
     0
290
     1
304
{\C241;Jack Rafter}
 11
0.0
 21
0.0
 31
1.0
340
537
 12
85.53905965145213
 22
487.6965791997005
 32
0.0
 13
1.0
 23
0.0
 33
0.0
 42
0.0
 43
0.0
 44
0.0
 45
0.9600000000000001
170
     2
 90
-1023409921
171
     1
172
     5
 91
-939524096
141
1.5
 92
        0
291
     0
292
     0
173
     0
293
     0
142
0.0
143
0.0
294
     0
295
     0
296
     0
110
346.8087053477143
120
488.0648725294983
130
0.0
111
1.0
121
0.0
131
0.0
112
0.0
122
1.0
132
0.0
297
     0
302
LEADER{
290
     1
291
     1
 10
307.255929299499
 20
471.0299125330338
 30
0.0
 11
-1.0
 21
0.0
 31
0.0
 90
        0
 40
128.6370606439541
304
LEADER_LINE{
 10
317.8337124543909
 20
485.3408299224189
 30
0.0
 91
        0
 92
-1056964608
305
}
271
     0
303
}
272
     9
273
     9
301
}
340
D8
 90
856161279
170
     1
 91
-1023410173
341
14
171
    -2
290
     1
291
     1
 41
128.6370606439541
342
639
 42
5.0
172
     2
343
537
173
     5
 95
        5
174
     1
175
     0
 92
-1023409921
292
     0
 93
-1056964608
 10
1.0
 20
1.0
 30
1.0
 43
0.0
176
     0
293
     0
294
     0
178
     0
179
     1
 45
1.0
271
     0
272
     9
273
     9
295
     1
  0
MULTILEADER
  5
296D
330
1F
100
AcDbEntity
  8
0
370
    -3
160
              1057
310
21040000160000000C00000013000000993A00000C0000000E000000F1000000E40000002600000070D1240D3C3A8F408A61E5F5A4227540000000000000000000000000000000000000000000000000000000000000F03F000000000000F03F0000000000000000000000000000000048006900700020004200650061006D
310
0020002F00200052006100660074006500720000001100000001000000FFFFFFFFFFFF2840000000000000F03F0000000000000000000000000000F03F00000000000000000000000000000000000000000000000000000000000000002200000041007200690061006C00000061007200690061006C002E00740074006600
310
0000000000000C000000130000009A3A00000C0000000E00000003000000540000002000000002000000C42107E66B1D8F40DFB63A4BFADF74400000000000000000F28AC82F30C99140DFB63A4BFADF7440000000000000000000000000000000000000000000000000000000000000F03F0C00000013000000112700000C
310
0000001300000001000000880000001D0000009D3479D1D6FBFEBF5E9444F5687012C0000000000000000044723B1028C984405E9444F5687012409D3479D1D6FBFEBF00000000000000001A8F50D6228A7D400000000000000000000000000000000000000000000014400000000000000000000000000000000000000000
310
000000000000000000000000000000000000F03F0C00000012000000FE7F00000C000000140000000100000035000000210000002600000005008000000000000E03F40902000000000000D0BF0000000000000000C00000000000340FC50000000C0000001400000002000000540000002000000002000000000000000000
310
E0BF00000000000000000000000000000000000000000000F0BF0000000000000000000000000000000000000000000000000000000000000000000000000000F03F080000001F000000880000001D000000000000000000F03F00000000000000000000000000000000000000000000000000000000000000000000000000
310
00F03F0000000000000000000000000000000000000000000000000000000000000000000000000000F03F0000000000000000000000000000000000000000000000000000000000000000000000000000F03F080000001F0000000C00000013000000891300000C00000012000000FF7F0000540000002000000002000000
310
DE2EA4FBA5D88440C97C7B3261407D4000000000000000009C17F5910F9B8640DFB63A4BFADF7440000000000000000000000000000000000000000000000000000000000000F03F0C00000013000000112700005400000020000000020000009C17F5910F9B8640DFB63A4BFADF74400000000000000000C42107E66B1D8F
310
40DFB63A4BFADF7440000000000000000000000000000000000000000000000000000000000000F03F
100
AcDbMLeader
270
     2
300
CONTEXT_DATA{
 40
1.0
 10
995.6776848370723
 20
333.9986069005517
 30
0.0
 41
12.5
140
5.0
145
5.0
174
     5
175
     5
176
     2
177
     0
290
     1
304
{\C241;Hip Beam / Rafter}
 11
0.0
 21
0.0
 31
1.0
340
537
 12
1138.297057279091
 22
350.6652735672184
 32
0.0
 13
1.0
 23
0.0
 33
0.0
 42
0.0
 43
0.0
 44
0.0
 45
0.9600000000000001
170
     2
 90
-1023409921
171
     3
172
     5
 91
-939524096
141
1.5
 92
        0
291
     0
292
     0
173
     0
293
     0
142
0.0
143
0.0
294
     0
295
     0
296
     0
110
683.8298265621711
120
351.0335668970162
130
0.0
111
1.0
121
0.0
131
0.0
112
0.0
122
1.0
132
0.0
297
     0
302
LEADER{
290
     1
291
     1
 10
723.3826026103811
 20
333.9986069005517
 30
0.0
 11
1.0
 21
0.0
 31
0.0
 90
        0
 40
272.2950822266912
304
LEADER_LINE{
 10
665.144562210488
 20
472.6335051676593
 30
0.0
 91
        0
 92
-1056964608
305
}
271
     0
303
}
272
     9
273
     9
301
}
340
D8
 90
856161279
170
     1
 91
-1023410173
341
14
171
    -2
290
     1
291
     1
 41
272.2950822266912
342
639
 42
5.0
172
     2
343
537
173
     5
 95
        5
174
     1
175
     2
 92
-1023409921
292
     0
 93
-1056964608
 10
1.0
 20
1.0
 30
1.0
 43
0.0
176
     0
293
     0
294
     0
178
     0
179
     1
 45
1.0
271
     0
272
     9
273
     9
295
     1
  0
LWPOLYLINE
  5
296E
330
1F
100
AcDbEntity
  8
_lines
100
AcDbPolyline
 90
        4
 70
     1
 43
0.0
 10
293.5417745293057
 20
490.4819565306267
 10
324.5417745293057
 20
500.6982250012048
 10
324.5417745293057
 20
395.4077768344283
 10
293.5417745293057
 20
385.1915083638502
  0
LINE
  5
296F
330
1F
100
AcDbEntity
  8
_lines
 62
     1
 48
0.5
370
    -3
100
AcDbLine
 10
293.5417745293057
 20
490.4819565306267
 30
0.0
 11
324.5417745293057
 21
395.4077768344283
 31
0.0
  0
LINE
  5
2970
330
1F
100
AcDbEntity
  8
_lines
 62
     1
 48
0.5
370
    -3
100
AcDbLine
 10
293.5417745293057
 20
385.1915083638502
 30
0.0
 11
324.5417745293057
 21
500.6982250012048
 31
0.0
  0
LWPOLYLINE
  5
2971
330
1F
100
AcDbEntity
  8
_lines
100
AcDbPolyline
 90
        4
 70
     1
 43
0.0
 10
1038.272407013549
 20
490.4819565306267
 10
1007.272407013549
 20
500.6982250012048
 10
1007.272407013549
 20
395.4077768344283
 10
1038.272407013549
 20
385.1915083638502
  0
LINE
  5
2972
330
1F
100
AcDbEntity
  8
_lines
 62
     1
 48
0.5
370
    -3
100
AcDbLine
 10
1038.272407013549
 20
490.4819565306267
 30
0.0
 11
1007.272407013549
 21
395.4077768344283
 31
0.0
  0
LINE
  5
2973
330
1F
100
AcDbEntity
  8
_lines
 62
     1
 48
0.5
370
    -3
100
AcDbLine
 10
1038.272407013549
 20
385.1915083638502
 30
0.0
 11
1007.272407013549
 21
500.6982250012048
 31
0.0
  0
INSERT
  5
2974
330
1F
100
AcDbEntity
  8
_lines
 62
     1
 48
0.5
370
    -3
100
AcDbBlockReference
  2
G$C2E32D176
 10
577.5940453317739
 20
599.4538750180205
 30
0.0
  0
INSERT
  5
2975
330
1F
100
AcDbEntity
  8
_lines
 62
     1
 48
0.5
370
    -3
100
AcDbBlockReference
  2
G$C2E32D176
 10
469.5319109050665
 20
563.1701942360365
 30
0.0
  0
INSERT
  5
2976
330
1F
100
AcDbEntity
  8
_lines
 62
     1
 48
0.5
370
    -3
100
AcDbBlockReference
  2
G$C2E32D176
 10
293.7429283947954
 20
505.9087390082901
 30
0.0
  0
LWPOLYLINE
  5
2977
330
1F
100
AcDbEntity
  8
GE TILES
 62
     1
 48
0.5
370
    -3
100
AcDbPolyline
 90
       21
 70
     0
 43
1.0
 10
247.171114071482
 20
527.764234243045
 10
247.5396240499408
 20
527.8829356010207
 42
0.3819451371642268
 10
249.5599072375749
 20
531.3350584814685
 10
249.1592044432123
 20
533.3097246062122
 42
-0.3800397211332229
 10
251.1605030446804
 20
536.7556625235699
 10
319.1952434731188
 20
559.1713181932361
 42
-0.2976584121281118
 10
321.9537356413161
 20
558.4367132925314
 10
324.5675110310526
 20
554.5352234672879
 42
0.3095728670390916
 10
327.8235231316171
 20
553.5915927086186
 10
456.9848625413792
 20
596.1576223676362
 42
0.33945425886368
 10
459.0410730478611
 20
599.1764392784786
 10
458.8162702920667
 20
603.1475864766995
 42
-0.339454258863313
 10
460.6051734327061
 20
605.7739571891321
 10
561.3824546017963
 20
638.985820420046
 42
-0.2804275266383763
 10
563.9901092157957
 20
638.4149609778957
 10
566.5625946014566
 20
634.6109144577218
 42
0.3394542588629146
 10
570.0107342602928
 20
633.4060949354276
 10
603.2495295838194
 20
644.3601741826448
 42
0.414213562373171
 10
605.1597967473676
 20
648.1484296338855
 10
605.4044466199425
 20
651.8851649090653
 10
595.6491011582689
 20
679.1900250946534
  0
INSERT
  5
2978
330
1F
100
AcDbEntity
  8
_lines
 62
     1
 48
0.5
370
    -3
100
AcDbBlockReference
  2
G$C2E32D176
 10
754.2201362110804
 20
599.4538750180205
 30
0.0
 41
-1.0
  0
INSERT
  5
2979
330
1F
100
AcDbEntity
  8
_lines
 62
     1
 48
0.5
370
    -3
100
AcDbBlockReference
  2
G$C2E32D176
 10
862.2822706377879
 20
563.1701942360365
 30
0.0
 41
-1.0
  0
INSERT
  5
297A
330
1F
100
AcDbEntity
  8
_lines
 62
     1
 48
0.5
370
    -3
100
AcDbBlockReference
  2
G$C2E32D176
 10
1038.071253148059
 20
505.9087390082901
 30
0.0
 41
-1.0
  0
LWPOLYLINE
  5
297B
330
1F
100
AcDbEntity
  8
GE TILES
 62
     1
 48
0.5
370
    -3
100
AcDbPolyline
 90
       21
 70
     0
 43
1.0
 10
1084.643067471372
 20
527.764234243045
 10
1084.274557492914
 20
527.8829356010207
 42
-0.3819451371642268
 10
1082.25427430528
 20
531.3350584814685
 10
1082.654977099642
 20
533.3097246062122
 42
0.3800397211332229
 10
1080.653678498174
 20
536.7556625235699
 10
1012.618938069736
 20
559.1713181932361
 42
0.2976584121281118
 10
1009.860445901538
 20
558.4367132925314
 10
1007.246670511802
 20
554.5352234672879
 42
-0.3095728670390916
 10
1003.990658411237
 20
553.5915927086186
 10
874.8293190014751
 20
596.1576223676362
 42
-0.33945425886368
 10
872.7731084949933
 20
599.1764392784786
 10
872.9979112507876
 20
603.1475864766995
 42
0.339454258863313
 10
871.2090081101483
 20
605.7739571891321
 10
770.4317269410581
 20
638.985820420046
 42
0.2804275266383763
 10
767.8240723270587
 20
638.4149609778957
 10
765.2515869413978
 20
634.6109144577218
 42
-0.3394542588629146
 10
761.8034472825616
 20
633.4060949354276
 10
728.564651959035
 20
644.3601741826448
 42
-0.414213562373171
 10
726.6543847954867
 20
648.1484296338855
 10
726.4097349229119
 20
651.8851649090653
 10
736.1650803845855
 20
679.1900250946534
  0
MULTILEADER
  5
297C
330
1F
100
AcDbEntity
  8
0
370
    -3
160
              1061
310
25040000160000000C00000013000000993A00000C0000000E000000F1000000E800000026000000B8DC689B89F955400D114D77CB218140000000000000000000000000000000000000000000000000000000000000F03F000000000000F03F00000000000000000000000000000000540069006C00650020006200610074
310
00740065006E002000350030007800340030006D006D0000001300000001000000FFFFFFFFFFFF2840000000000000F03F0000000000000000000000000000F03F00000000000000000000000000000000000000000000000000000000000000002200000041007200690061006C00000061007200690061006C002E007400
310
740066000000000000000C000000130000009A3A00000C0000000E0000000300000054000000200000000200000090E041B5C2DA6F40B8BBF721760081400000000000000000E24D5533BB135640B8BBF72176008140000000000000000000000000000000000000000000000000000000000000F03F0C0000001300000011
310
2700000C0000001300000001000000880000001D00000058C7D6E5912F0A40CE594CEDC83C0E400000000000000000B8B982C259687440CE594CEDC83C0EC058C7D6E5912F0A4000000000000000005D22B65FF98D804000000000000000000000000000000000000000000000144000000000000000000000000000000000
310
00000000000000000000000000000000000000000000F03F0C00000012000000FE7F00000C000000140000000100000035000000210000002600000005008000000000000E03F40902000000000000D0BF0000000000000000C00000000000340FC50000000C00000014000000020000005400000020000000020000000000
310
00000000E0BF00000000000000000000000000000000000000000000F0BF0000000000000000000000000000000000000000000000000000000000000000000000000000F03F080000001F000000880000001D000000000000000000F03F000000000000000000000000000000000000000000000000000000000000000000
310
0000000000F03F0000000000000000000000000000000000000000000000000000000000000000000000000000F03F0000000000000000000000000000000000000000000000000000000000000000000000000000F03F080000001F0000000C00000013000000891300000C00000012000000FF7F00005400000020000000
310
02000000290CB79EFA337440B76EA32836AC804000000000000000001822FA9B0EA27340B8BBF72176008140000000000000000000000000000000000000000000000000000000000000F03F0C00000013000000112700005400000020000000020000001822FA9B0EA27340B8BBF72176008140000000000000000090E041
310
B5C2DA6F40B8BBF72176008140000000000000000000000000000000000000000000000000000000000000F03F
100
AcDbMLeader
270
     2
300
CONTEXT_DATA{
 40
1.0
 10
83.30830081301201
 20
544.0576819757616
 30
0.0
 41
12.5
140
5.0
145
5.0
174
     5
175
     5
176
     0
177
     0
290
     1
304
{\C241;Tile batten 50x40mm}
 11
0.0
 21
0.0
 31
1.0
340
537
 12
88.30830081301201
 22
560.7243486424283
 32
0.0
 13
1.0
 23
0.0
 33
0.0
 42
0.0
 43
0.0
 44
0.0
 45
0.9600000000000001
170
     2
 90
-1023409921
171
     1
172
     5
 91
-939524096
141
1.5
 92
        0
291
     0
292
     0
173
     0
293
     0
142
0.0
143
0.0
294
     0
295
     0
296
     0
110
355.496906908756
120
527.0227219792965
130
0.0
111
1.0
121
0.0
131
0.0
112
0.0
122
1.0
132
0.0
297
     0
302
LEADER{
290
     1
291
     1
 10
314.1285667200877
 20
544.0576819757616
 30
0.0
 11
-1.0
 21
0.0
 31
0.0
 90
        0
 40
59.29229864923127
304
LEADER_LINE{
 10
326.5219140154327
 20
529.7467645863759
 30
0.0
 91
        0
 92
-1056964608
305
}
271
     0
303
}
272
     9
273
     9
301
}
340
D8
 90
856161279
170
     1
 91
-1023410173
341
14
171
    -2
290
     1
291
     1
 41
59.29229864923127
342
639
 42
5.0
172
     2
343
537
173
     5
 95
        5
174
     1
175
     0
 92
-1023409921
292
     0
 93
-1056964608
 10
1.0
 20
1.0
 30
1.0
 43
0.0
176
     0
293
     0
294
     0
178
     0
179
     1
 45
1.0
271
     0
272
     9
273
     9
295
     1
  0
LWPOLYLINE
  5
297D
330
1F
100
AcDbEntity
  8
0
  6
Dash
 62
     8
 48
0.1
370
    18
100
AcDbPolyline
 90
        9
 70
     1
 43
0.0
 10
638.5952078450741
 20
677.1973145718708
 10
594.9201466086674
 20
665.6747633318943
 10
595.5553050639196
 20
663.2697063876991
 10
594.5884533853082
 20
663.0143677271604
 10
592.5584384423296
 20
670.7011134440132
 10
593.5252901209428
 20
670.956452104551
 10
594.1541306170661
 20
668.5753184055662
 10
637.9376569216679
 20
680.1264957594727
 10
644.4265523463914
 20
680.2876847723197
  0
LWPOLYLINE
  5
297E
330
1F
100
AcDbEntity
  8
0
  6
Dash
 62
     8
 48
0.1
370
    18
100
AcDbPolyline
 90
        9
 70
     1
 43
0.0
 10
638.5952078450741
 20
677.1973145718708
 10
594.9201466086674
 20
665.6747633318943
 10
595.5553050639196
 20
663.2697063876991
 10
594.5884533853082
 20
663.0143677271604
 10
592.5584384423296
 20
670.7011134440132
 10
593.5252901209428
 20
670.956452104551
 10
594.1541306170661
 20
668.5753184055662
 10
637.9376569216679
 20
680.1264957594727
 10
644.4265523463914
 20
680.2876847723197
  0
LWPOLYLINE
  5
297F
330
1F
100
AcDbEntity
  8
0
  6
Dash
 62
     8
 48
0.1
370
    18
100
AcDbPolyline
 90
        9
 70
     1
 43
0.0
 10
646.1940543812984
 20
673.0598300450253
 10
603.2951754440824
 20
658.9188842841592
 10
604.0745199912712
 20
656.5566084228618
 10
603.1248666421675
 20
656.2433058270586
 10
600.6340219349308
 20
663.7933199349069
 10
601.5836752840355
 20
664.1066225307092
 10
602.3552676444192
 20
661.7678443686333
 10
645.3606834088955
 20
675.9439188905759
 10
651.8279771445327
 20
676.4969627114748
  0
LWPOLYLINE
  5
2980
330
1F
100
AcDbEntity
  8
0
  6
Dash
 62
     8
 48
0.1
370
    18
100
AcDbPolyline
 90
        9
 70
     1
 43
0.0
 10
646.1940543812984
 20
673.0598300450253
 10
603.2951754440824
 20
658.9188842841592
 10
604.0745199912712
 20
656.5566084228618
 10
603.1248666421675
 20
656.2433058270586
 10
600.6340219349308
 20
663.7933199349069
 10
601.5836752840355
 20
664.1066225307092
 10
602.3552676444192
 20
661.7678443686333
 10
645.3606834088955
 20
675.9439188905759
 10
651.8279771445327
 20
676.4969627114748
  0
LWPOLYLINE
  5
2981
330
1F
100
AcDbEntity
  8
0
  6
Dash
 62
     8
 48
0.1
370
    18
100
AcDbPolyline
 90
        9
 70
     1
 43
0.0
 10
693.0869809262645
 20
677.1973145718708
 10
736.7620421626712
 20
665.6747633318943
 10
736.126883707419
 20
663.2697063876991
 10
737.0937353860304
 20
663.0143677271604
 10
739.123750329009
 20
670.7011134440132
 10
738.1568986503958
 20
670.956452104551
 10
737.5280581542725
 20
668.5753184055662
 10
693.7445318496707
 20
680.1264957594727
 10
687.2556364249472
 20
680.2876847723197
  0
LWPOLYLINE
  5
2982
330
1F
100
AcDbEntity
  8
0
  6
Dash
 62
     8
 48
0.1
370
    18
100
AcDbPolyline
 90
        9
 70
     1
 43
0.0
 10
693.0869809262645
 20
677.1973145718708
 10
736.7620421626712
 20
665.6747633318943
 10
736.126883707419
 20
663.2697063876991
 10
737.0937353860304
 20
663.0143677271604
 10
739.123750329009
 20
670.7011134440132
 10
738.1568986503958
 20
670.956452104551
 10
737.5280581542725
 20
668.5753184055662
 10
693.7445318496707
 20
680.1264957594727
 10
687.2556364249472
 20
680.2876847723197
  0
LWPOLYLINE
  5
2983
330
1F
100
AcDbEntity
  8
0
  6
Dash
 62
     8
 48
0.1
370
    18
100
AcDbPolyline
 90
        9
 70
     1
 43
0.0
 10
685.4881343900402
 20
673.0598300450253
 10
728.3870133272562
 20
658.9188842841592
 10
727.6076687800673
 20
656.5566084228618
 10
728.5573221291711
 20
656.2433058270586
 10
731.0481668364077
 20
663.7933199349069
 10
730.0985134873031
 20
664.1066225307092
 10
729.3269211269194
 20
661.7678443686333
 10
686.3215053624431
 20
675.9439188905759
 10
679.8542116268059
 20
676.4969627114748
  0
LWPOLYLINE
  5
2984
330
1F
100
AcDbEntity
  8
0
  6
Dash
 62
     8
 48
0.1
370
    18
100
AcDbPolyline
 90
        9
 70
     1
 43
0.0
 10
685.4881343900402
 20
673.0598300450253
 10
728.3870133272562
 20
658.9188842841592
 10
727.6076687800673
 20
656.5566084228618
 10
728.5573221291711
 20
656.2433058270586
 10
731.0481668364077
 20
663.7933199349069
 10
730.0985134873031
 20
664.1066225307092
 10
729.3269211269194
 20
661.7678443686333
 10
686.3215053624431
 20
675.9439188905759
 10
679.8542116268059
 20
676.4969627114748
  0
LWPOLYLINE
  5
2985
330
1F
100
AcDbEntity
  8
0
  6
Dash
 62
     8
 48
0.1
370
    18
100
AcDbPolyline
 90
        9
 70
     1
 43
0.0
 10
629.3083000041274
 20
620.8816810854674
 10
607.7282943001187
 20
687.6503598830228
 10
605.3614620494386
 20
686.8849643870532
 10
605.0537670811905
 20
687.83644944028
 10
612.618343757566
 20
690.2827119142472
 10
612.9260387258105
 20
689.3312268610204
 10
610.5827494970322
 20
688.573444799809
 10
632.1972548709568
 20
621.6980237978856
 10
632.7121373392297
 20
615.2275800901667
  0
LWPOLYLINE
  5
2986
330
1F
100
AcDbEntity
  8
0
  6
Dash
 62
     8
 48
0.1
370
    18
100
AcDbPolyline
 90
        9
 70
     1
 43
0.0
 10
656.6535307997842
 20
629.8934946079977
 10
634.3084521390851
 20
696.4100382208723
 10
636.6665976816298
 20
697.2017924556473
 10
636.3483062944802
 20
698.1497853843481
 10
628.8114930008855
 20
695.6192783676012
 10
629.1297843880388
 20
694.671285438903
 10
631.4644733158871
 20
695.4551640469696
 10
653.8452747585238
 20
628.832281314914
 10
657.2782275963705
 20
623.3235082624084
  0
LWPOLYLINE
  5
2987
330
1F
100
AcDbEntity
  8
0
  6
Dash
 62
     8
 48
0.1
370
    18
100
AcDbPolyline
 90
        9
 70
     1
 43
0.0
 10
702.3738887672112
 20
620.8816810854674
 10
723.9538944712199
 20
687.6503598830228
 10
726.3207267219
 20
686.8849643870532
 10
726.6284216901481
 20
687.83644944028
 10
719.0638450137726
 20
690.2827119142472
 10
718.7561500455281
 20
689.3312268610204
 10
721.0994392743064
 20
688.573444799809
 10
699.4849339003817
 20
621.6980237978856
 10
698.9700514321089
 20
615.2275800901667
  0
LWPOLYLINE
  5
2988
330
1F
100
AcDbEntity
  8
0
  6
Dash
 62
     8
 48
0.1
370
    18
100
AcDbPolyline
 90
        9
 70
     1
 43
0.0
 10
675.0286579715544
 20
629.8934946079977
 10
697.3737366322534
 20
696.4100382208723
 10
695.0155910897088
 20
697.2017924556473
 10
695.3338824768584
 20
698.1497853843481
 10
702.870695770453
 20
695.6192783676012
 10
702.5524043832997
 20
694.671285438903
 10
700.2177154554515
 20
695.4551640469696
 10
677.8369140128148
 20
628.832281314914
 10
674.4039611749681
 20
623.3235082624084
  0
MULTILEADER
  5
2989
330
1F
100
AcDbEntity
  8
0
370
    -3
160
              1325
310
2D050000170000000C00000013000000993A00000C0000000E000000F1000000E000000026000000EB6E883CB39655400543F81DBC9A8840000000000000000000000000000000000000000000000000000000000000F03F000000000000F03F00000000000000000000000000000000310033003100200042006100720072
310
0065006C0020005400720069006D0000000F00000001000000FFFFFFFFFFFF2840000000000000F03F0000000000000000000000000000F03F00000000000000000000000000000000000000000000000000000000000000002200000041007200690061006C00000061007200690061006C002E0074007400660000000000
310
000010010000260000004E18E085B9CC55400543F81DBCFA8740000000000000000000000000000000000000000000000000000000000000F03F000000000000F03F0000000000000000000000000000000028004D0069006E002E00200063006F0076006500720020006F0066002000740069006C0065002000330035006D
310
006D00200061007400200061006E007900200070006F0069006E0074002900000000002600000001000000FFFFFFFFFFFF2840000000000000F03F0000000000000000000000000000F03F00000000000000000000000000000000000000000000000000000000000000002200000041007200690061006C00000061007200
310
690061006C002E007400740066000000000000000C000000130000009A3A00000C0000000E000000030000005400000020000000020000008CFA8CF566AD7740B0EDA2C866D987400000000000000000A03C584E64105640B0EDA2C866D98740000000000000000000000000000000000000000000000000000000000000F0
310
3F0C00000013000000112700000C0000001300000001000000880000001D000000E2005A25EACD054017D065236EC410400000000000000000D4742BF363AC834017D065236EC410C0E2005A25EACD05400000000000000000B50A26EAA20C8740000000000000000000000000000000000000000000001440000000000000
310
0000000000000000000000000000000000000000000000000000000000000000F03F0C00000012000000FE7F00000C000000140000000100000035000000210000002600000005008000000000000E03F40902000000000000D0BF0000000000000000C00000000000340FC50000000C000000140000000200000054000000
310
2000000002000000000000000000E0BF00000000000000000000000000000000000000000000F0BF0000000000000000000000000000000000000000000000000000000000000000000000000000F03F080000001F000000880000001D000000000000000000F03F0000000000000000000000000000000000000000000000
310
000000000000000000000000000000F03F0000000000000000000000000000000000000000000000000000000000000000000000000000F03F0000000000000000000000000000000000000000000000000000000000000000000000000000F03F080000001F0000000C00000013000000891300000C00000012000000FF7F
310
0000540000002000000002000000D31A06099696834055D66CC62B2E874000000000000000007EF1155140278340B0EDA2C866D98740000000000000000000000000000000000000000000000000000000000000F03F0C00000013000000112700005400000020000000020000007EF1155140278340B0EDA2C866D9874000
310
000000000000008CFA8CF566AD7740B0EDA2C866D98740000000000000000000000000000000000000000000000000000000000000F03F
100
AcDbMLeader
270
     2
300
CONTEXT_DATA{
 40
1.0
 10
83.25612219445111
 20
763.1751873711382
 30
0.0
 41
12.5
140
5.0
145
5.0
174
     5
175
     5
176
     0
177
     0
290
     1
304
{\C241;131 Barrel Trim \P(Min. cover of tile 35mm at any point)}
 11
0.0
 21
0.0
 31
1.0
340
537
 12
88.25612219445111
 22
799.8418540378049
 32
0.0
 13
1.0
 23
0.0
 33
0.0
 42
0.0
 43
0.0
 44
0.0
 45
0.9600000000000001
170
     2
 90
-1023409921
171
     1
172
     5
 91
-939524096
141
1.5
 92
        0
291
     0
292
     0
173
     0
293
     0
142
0.0
143
0.0
294
     0
295
     0
296
     0
110
652.4591807069396
120
746.1402273746731
130
0.0
111
1.0
121
0.0
131
0.0
112
0.0
122
1.0
132
0.0
297
     0
302
LEADER{
290
     1
291
     1
 10
612.9064046587298
 20
763.1751873711382
 30
0.0
 11
-1.0
 21
0.0
 31
0.0
 90
        0
 40
234.0687681395857
304
LEADER_LINE{
 10
629.5488036532429
 20
737.5795481655138
 30
0.0
 91
        0
 92
-1056964608
305
}
271
     0
303
}
272
     9
273
     9
301
}
340
D8
 90
856161279
170
     1
 91
-1023410173
341
14
171
    -2
290
     1
291
     1
 41
234.0687681395857
342
639
 42
5.0
172
     2
343
537
173
     5
 95
        5
174
     1
175
     0
 92
-1023409921
292
     0
 93
-1056964608
 10
1.0
 20
1.0
 30
1.0
 43
0.0
176
     0
293
     0
294
     0
178
     0
179
     1
 45
1.0
271
     0
272
     9
273
     9
295
     1
  0
ENDSEC
  0
SECTION
  2
OBJECTS
  0
DICTIONARY
  5
C
330
0
100
AcDbDictionary
281
     1
  3
ACAD_CIP_PREVIOUS_PRODUCT_INFO
350
1A5
  3
ACAD_COLOR
350
73
  3
ACAD_DETAILVIEWSTYLE
350
1AB
  3
ACAD_DGNDEFINITIONS
350
50A
  3
ACAD_DWFDEFINITIONS
350
509
  3
ACAD_GROUP
350
D
  3
ACAD_LAYOUT
350
1A
  3
ACAD_MATERIAL
350
72
  3
ACAD_MLEADERSTYLE
350
D7
  3
ACAD_MLINESTYLE
350
17
  3
ACAD_PDFDEFINITIONS
350
508
  3
ACAD_PLOTSETTINGS
350
19
  3
ACAD_PLOTSTYLENAME
350
E
  3
ACAD_SCALELIST
350
B6
  3
ACAD_SECTIONVIEWSTYLE
350
1A8
  3
ACAD_TABLESTYLE
350
86
  3
ACAD_VISUALSTYLE
350
99
  3
ACDB_RECOMPOSE_DATA
350
29B0
  3
AcDbVariableDictionary
350
66
  0
SUN
  5
20C
330
94
100
AcDbSun
 90
        1
290
     0
 63
     7
421
 16777215
 40
1.0
291
     1
 91
  2455826
 92
 54000000
292
     0
 70
     2
 71
   256
280
     1
  0
DICTIONARY
  5
18E
330
2
100
AcDbDictionary
280
     1
281
     1
  3
ACAD_LAYERSTATES
360
18F
  0
DICTIONARY
  5
50C
330
50B
100
AcDbDictionary
280
     1
281
     1
  3
ADSK_XREC_LAYER_RECONCILED
360
50D
  0
DICTIONARY
  5
511
330
510
100
AcDbDictionary
280
     1
281
     1
  3
ADSK_XREC_LAYER_RECONCILED
360
512
  0
DICTIONARY
  5
514
330
513
100
AcDbDictionary
280
     1
281
     1
  3
ADSK_XREC_LAYER_RECONCILED
360
515
  0
DICTIONARY
  5
517
330
516
100
AcDbDictionary
280
     1
281
     1
  3
ADSK_XREC_LAYER_RECONCILED
360
518
  0
DICTIONARY
  5
51A
330
519
100
AcDbDictionary
280
     1
281
     1
  3
ADSK_XREC_LAYER_RECONCILED
360
51B
  0
DICTIONARY
  5
80B
330
80A
100
AcDbDictionary
280
     1
281
     1
  3
ADSK_XREC_LAYER_RECONCILED
360
80C
  0
DICTIONARY
  5
811
330
810
100
AcDbDictionary
280
     1
281
     1
  3
ADSK_XREC_LAYER_RECONCILED
360
812
  0
DICTIONARY
  5
1767
330
1766
100
AcDbDictionary
280
     1
281
     1
  3
ADSK_XREC_LAYER_RECONCILED
360
1768
  0
DICTIONARY
  5
607
330
606
100
AcDbDictionary
280
     1
281
     1
  3
ACAD_SORTENTS
360
608
  0
DICTIONARY
  5
615
330
614
100
AcDbDictionary
280
     1
281
     1
  3
ACAD_SORTENTS
360
616
  0
DICTIONARY
  5
64B
330
64A
100
AcDbDictionary
280
     1
281
     1
  3
ACAD_SORTENTS
360
64C
  0
DICTIONARY
  5
187C
330
187B
100
AcDbDictionary
280
     1
281
     1
  3
ACAD_SORTENTS
360
187D
  0
DICTIONARY
  5
1883
330
1882
100
AcDbDictionary
280
     1
281
     1
  3
ACAD_SORTENTS
360
1884
  0
DICTIONARY
  5
1890
330
188F
100
AcDbDictionary
280
     1
281
     1
  3
ACAD_SORTENTS
360
1891
  0
DICTIONARY
  5
1F7D
330
1F7C
100
AcDbDictionary
280
     1
281
     1
  3
ACAD_SORTENTS
360
1F7E
  0
DICTIONARY
  5
2190
330
218F
100
AcDbDictionary
280
     1
281
     1
  3
ACAD_SORTENTS
360
2191
  0
DICTIONARY
  5
237B
330
237A
100
AcDbDictionary
280
     1
281
     1
  3
ACAD_SORTENTS
360
237C
  0
DICTIONARY
  5
24C3
330
24C2
100
AcDbDictionary
280
     1
281
     1
  3
ACAD_SORTENTS
360
24C4
  0
DICTIONARY
  5
26E1
330
26E0
100
AcDbDictionary
280
     1
281
     1
  3
ACAD_SORTENTS
360
26E2
  0
XRECORD
  5
1A5
102
{ACAD_REACTORS
330
C
102
}
330
C
100
AcDbXrecord
280
     1
300
ACD
300
2019
300

  0
DICTIONARY
  5
73
102
{ACAD_REACTORS
330
C
102
}
330
C
100
AcDbDictionary
281
     1
  0
DICTIONARY
  5
1AB
102
{ACAD_REACTORS
330
C
102
}
330
C
100
AcDbDictionary
281
     1
  3
Imperial24
350
1AC
  0
DICTIONARY
  5
50A
102
{ACAD_REACTORS
330
C
102
}
330
C
100
AcDbDictionary
281
     1
  0
DICTIONARY
  5
509
102
{ACAD_REACTORS
330
C
102
}
330
C
100
AcDbDictionary
281
     1
  0
DICTIONARY
  5
D
102
{ACAD_REACTORS
330
C
102
}
330
C
100
AcDbDictionary
281
     1
  0
DICTIONARY
  5
1A
102
{ACAD_REACTORS
330
C
102
}
330
C
100
AcDbDictionary
281
     1
  3
Layout1
350
59
  3
Layout2
350
5E
  3
Model
350
22
  0
DICTIONARY
  5
72
102
{ACAD_REACTORS
330
C
102
}
330
C
100
AcDbDictionary
281
     1
  3
ByBlock
350
97
  3
ByLayer
350
96
  3
Global
350
98
  0
DICTIONARY
  5
D7
102
{ACAD_REACTORS
330
C
102
}
330
C
100
AcDbDictionary
281
     1
  3
Annotative
350
E5
  3
Standard
350
D8
  0
DICTIONARY
  5
17
102
{ACAD_REACTORS
330
C
102
}
330
C
100
AcDbDictionary
281
     1
  3
Standard
350
18
  0
DICTIONARY
  5
508
102
{ACAD_REACTORS
330
C
102
}
330
C
100
AcDbDictionary
281
     1
  0
DICTIONARY
  5
19
102
{ACAD_REACTORS
330
C
102
}
330
C
100
AcDbDictionary
281
     1
  0
ACDBDICTIONARYWDFLT
  5
E
102
{ACAD_REACTORS
330
C
102
}
330
C
100
AcDbDictionary
281
     1
  3
Normal
350
F
100
AcDbDictionaryWithDefault
340
F
  0
DICTIONARY
  5
B6
102
{ACAD_REACTORS
330
C
102
}
330
C
100
AcDbDictionary
281
     1
  3
A0
350
B7
  3
A1
350
124
  3
A2
350
125
  3
A3
350
126
  3
A4
350
127
  3
A5
350
128
  3
A6
350
129
  3
A7
350
12A
  3
A8
350
12B
  3
A9
350
12C
  3
B0
350
12D
  3
B1
350
12E
  3
B2
350
12F
  3
B3
350
130
  3
B4
350
131
  3
B5
350
132
  3
B6
350
133
  3
B7
350
134
  3
B8
350
135
  3
B9
350
136
  3
C0
350
137
  3
C1
350
138
  3
C2
350
139
  3
C3
350
13A
  3
C4
350
13B
  3
C5
350
13C
  3
C6
350
13D
  3
C7
350
13E
  3
C8
350
13F
  3
C9
350
140
  3
D0
350
141
  3
D1
350
142
  3
D2
350
143
  0
DICTIONARY
  5
1A8
102
{ACAD_REACTORS
330
C
102
}
330
C
100
AcDbDictionary
281
     1
  3
Imperial24
350
1AA
  0
DICTIONARY
  5
86
102
{ACAD_REACTORS
330
C
102
}
330
C
100
AcDbDictionary
281
     1
  3
Standard
350
87
  0
DICTIONARY
  5
99
102
{ACAD_REACTORS
330
C
102
}
330
C
100
AcDbDictionary
281
     1
  3
2dWireframe
350
9F
  3
Basic
350
9E
  3
Brighten
350
A5
  3
ColorChange
350
A9
  3
Conceptual
350
A2
  3
Dim
350
A4
  3
EdgeColorOff
350
175
  3
Facepattern
350
A8
  3
Flat
350
9A
  3
FlatWithEdges
350
9B
  3
Gouraud
350
9C
  3
GouraudWithEdges
350
9D
  3
Hidden
350
A1
  3
JitterOff
350
173
  3
Linepattern
350
A7
  3
OverhangOff
350
174
  3
Realistic
350
A3
  3
Shaded
350
182
  3
Shaded with edges
350
181
  3
Shades of Gray
350
17E
  3
Sketchy
350
17F
  3
Thicken
350
A6
  3
Wireframe
350
A0
  3
X-Ray
350
180
  0
XRECORD
  5
29B0
102
{ACAD_REACTORS
330
C
102
}
330
C
100
AcDbXrecord
280
     1
 90
        1
330
87
  0
DICTIONARY
  5
66
102
{ACAD_REACTORS
330
C
102
}
330
C
100
AcDbDictionary
281
     1
  3
CANNOSCALE
350
F0
  3
CMLEADERSTYLE
350
EF
  3
CTABLESTYLE
350
89
  3
CVIEWDETAILSTYLE
350
1B7
  3
CVIEWSECTIONSTYLE
350
1B8
  3
DIMASSOC
350
67
  3
HIDETEXT
350
6B
  3
LAYEREVAL
350
14D
  3
LAYERNOTIFY
350
14E
  0
DICTIONARY
  5
18F
102
{ACAD_REACTORS
330
18E
102
}
330
18E
100
AcDbDictionary
281
     1
  0
XRECORD
  5
50D
102
{ACAD_REACTORS
330
50C
102
}
330
50C
100
AcDbXrecord
280
     1
290
     0
  0
XRECORD
  5
512
102
{ACAD_REACTORS
330
511
102
}
330
511
100
AcDbXrecord
280
     1
290
     1
  0
XRECORD
  5
515
102
{ACAD_REACTORS
330
514
102
}
330
514
100
AcDbXrecord
280
     1
290
     0
  0
XRECORD
  5
518
102
{ACAD_REACTORS
330
517
102
}
330
517
100
AcDbXrecord
280
     1
290
     0
  0
XRECORD
  5
51B
102
{ACAD_REACTORS
330
51A
102
}
330
51A
100
AcDbXrecord
280
     1
290
     0
  0
XRECORD
  5
80C
102
{ACAD_REACTORS
330
80B
102
}
330
80B
100
AcDbXrecord
280
     1
290
     0
  0
XRECORD
  5
812
102
{ACAD_REACTORS
330
811
102
}
330
811
100
AcDbXrecord
280
     1
290
     0
  0
XRECORD
  5
1768
102
{ACAD_REACTORS
330
1767
102
}
330
1767
100
AcDbXrecord
280
     1
290
     0
  0
SORTENTSTABLE
  5
608
102
{ACAD_REACTORS
330
607
102
}
330
607
100
AcDbSortentsTable
330
606
  0
SORTENTSTABLE
  5
616
102
{ACAD_REACTORS
330
615
102
}
330
615
100
AcDbSortentsTable
330
614
  0
SORTENTSTABLE
  5
64C
102
{ACAD_REACTORS
330
64B
102
}
330
64B
100
AcDbSortentsTable
330
64A
  0
SORTENTSTABLE
  5
187D
102
{ACAD_REACTORS
330
187C
102
}
330
187C
100
AcDbSortentsTable
330
187B
  0
SORTENTSTABLE
  5
1884
102
{ACAD_REACTORS
330
1883
102
}
330
1883
100
AcDbSortentsTable
330
1882
  0
SORTENTSTABLE
  5
1891
102
{ACAD_REACTORS
330
1890
102
}
330
1890
100
AcDbSortentsTable
330
188F
  0
SORTENTSTABLE
  5
1F7E
102
{ACAD_REACTORS
330
1F7D
102
}
330
1F7D
100
AcDbSortentsTable
330
1F7C
  0
SORTENTSTABLE
  5
2191
102
{ACAD_REACTORS
330
2190
102
}
330
2190
100
AcDbSortentsTable
330
218F
  0
SORTENTSTABLE
  5
237C
102
{ACAD_REACTORS
330
237B
102
}
330
237B
100
AcDbSortentsTable
330
237A
  0
SORTENTSTABLE
  5
24C4
102
{ACAD_REACTORS
330
24C3
102
}
330
24C3
100
AcDbSortentsTable
330
24C2
  0
SORTENTSTABLE
  5
26E2
102
{ACAD_REACTORS
330
26E1
102
}
330
26E1
100
AcDbSortentsTable
330
26E0
  0
ACDBDETAILVIEWSTYLE
  5
1AC
102
{ACAD_REACTORS
330
1AB
102
}
330
1AB
100
AcDbModelDocViewStyle
 70
     0
  3
Imperial24
290
     0
300
Imperial24
 90
        0
100
AcDbDetailViewStyle
 70
     0
 71
     0
 90
        3
 71
     1
340
11
 62
   256
 40
0.24
340
0
 62
   256
 40
0.24
300

 40
0.36
280
     3
 71
     2
340
16
 90
       25
 62
   256
 71
     3
340
11
 62
   256
 40
0.24
 90
        1
 40
0.75
 90
        1
300
%<\AcVar ViewType \f "%tc1">% %<\AcVar ViewDetailId>%\PSCALE %<\AcVar ViewScale \f "%sn">%
 71
     4
340
16
 90
       25
 62
   256
340
16
 90
       25
 62
   256
280
     0
  0
LAYOUT
  5
59
102
{ACAD_REACTORS
330
1A
102
}
330
1A
100
AcDbPlotSettings
  1

  2
None
  4

  6

 40
0.0
 41
0.0
 42
0.0
 43
0.0
 44
0.0
 45
0.0
 46
0.0
 47
0.0
 48
0.0
 49
0.0
140
0.0
141
0.0
142
1.0
143
1.0
 70
   688
 72
     0
 73
     0
 74
     5
  7

 75
    16
 76
     0
 77
     2
 78
   300
147
1.0
148
0.0
149
0.0
100
AcDbLayout
  1
Layout1
 70
     1
 71
     1
 10
0.0
 20
0.0
 11
12.0
 21
9.0
 12
0.0
 22
0.0
 32
0.0
 14
2.121518365837346
 24
1.490733711909002
 34
0.0
 15
1272.136314479726
 25
939.834999082144
 35
0.0
146
0.0
 13
0.0
 23
0.0
 33
0.0
 16
1.0
 26
0.0
 36
0.0
 17
0.0
 27
1.0
 37
0.0
 76
     0
330
58
  0
LAYOUT
  5
5E
102
{ACAD_REACTORS
330
1A
102
}
330
1A
100
AcDbPlotSettings
  1

  2
None
  4

  6

 40
0.0
 41
0.0
 42
0.0
 43
0.0
 44
0.0
 45
0.0
 46
0.0
 47
0.0
 48
0.0
 49
0.0
140
0.0
141
0.0
142
1.0
143
1.0
 70
   688
 72
     0
 73
     0
 74
     5
  7

 75
    16
 76
     0
 77
     2
 78
   300
147
1.0
148
0.0
149
0.0
100
AcDbLayout
  1
Layout2
 70
     1
 71
     2
 10
0.0
 20
0.0
 11
12.0
 21
9.0
 12
0.0
 22
0.0
 32
0.0
 14
0.0
 24
0.0
 34
0.0
 15
0.0
 25
0.0
 35
0.0
146
0.0
 13
0.0
 23
0.0
 33
0.0
 16
1.0
 26
0.0
 36
0.0
 17
0.0
 27
1.0
 37
0.0
 76
     0
330
5D
  0
LAYOUT
  5
22
102
{ACAD_REACTORS
330
1A
102
}
330
1A
100
AcDbPlotSettings
  1

  2
none_device
  4
ANSI_A_(8.50_x_11.00_Inches)
  6

 40
6.349999904632568
 41
19.04999923706055
 42
6.350006103515625
 43
19.04998779296875
 44
215.8999938964844
 45
279.3999938964844
 46
0.0
 47
0.0
 48
0.0
 49
0.0
140
0.0
141
0.0
142
1.0
143
2.584895464708374
 70
 11952
 72
     0
 73
     1
 74
     0
  7

 75
     0
 76
     0
 77
     2
 78
   300
147
0.3868628397755418
148
0.0
149
0.0
100
AcDbLayout
  1
Model
 70
     1
 71
     0
 10
0.0
 20
0.0
 11
12.0
 21
9.0
 12
0.0
 22
0.0
 32
0.0
 14
0.0
 24
0.0
 34
0.0
 15
0.0
 25
0.0
 35
0.0
146
0.0
 13
0.0
 23
0.0
 33
0.0
 16
1.0
 26
0.0
 36
0.0
 17
0.0
 27
1.0
 37
0.0
 76
     0
330
1F
331
94
  0
MATERIAL
  5
97
102
{ACAD_REACTORS
330
72
102
}
102
{ACAD_XDICTIONARY
360
188
102
}
330
72
100
AcDbMaterial
  1
ByBlock
 72
     1
 73
     2
 78
     2
172
     2
176
     2
270
     2
274
     2
 94
       63
  0
MATERIAL
  5
96
102
{ACAD_REACTORS
330
72
102
}
102
{ACAD_XDICTIONARY
360
186
102
}
330
72
100
AcDbMaterial
  1
ByLayer
 72
     1
 73
     2
 78
     2
172
     2
176
     2
270
     2
274
     2
 94
       63
  0
MATERIAL
  5
98
102
{ACAD_REACTORS
330
72
102
}
102
{ACAD_XDICTIONARY
360
110
102
}
330
72
100
AcDbMaterial
  1
Global
 72
     1
 73
     2
 43
0.0208000000566244
 43
0.0
 43
0.0
 43
0.0
 43
0.0
 43
0.0208000000566244
 43
0.0
 43
0.0
 43
0.0
 43
0.0
 43
1.0
 43
0.0
 43
0.0
 43
0.0
 43
0.0
 43
1.0
 78
     2
172
     2
 49
0.0208000000566244
 49
0.0
 49
0.0
 49
0.0
 49
0.0
 49
0.0208000000566244
 49
0.0
 49
0.0
 49
0.0
 49
0.0
 49
1.0
 49
0.0
 49
0.0
 49
0.0
 49
0.0
 49
1.0
176
     2
142
0.0208000000566244
142
0.0
142
0.0
142
0.0
142
0.0
142
0.0208000000566244
142
0.0
142
0.0
142
0.0
142
0.0
142
1.0
142
0.0
142
0.0
142
0.0
142
0.0
142
1.0
270
     2
144
0.0208000000566244
144
0.0
144
0.0
144
0.0
144
0.0
144
0.0208000000566244
144
0.0
144
0.0
144
0.0
144
0.0
144
1.0
144
0.0
144
0.0
144
0.0
144
0.0
144
1.0
274
     2
 94
       63
1001
ACAD
1070
    -1
1070
     3
1070
     0
1000

1071
        0
1070
     0
  0
MLEADERSTYLE
  5
E5
102
{ACAD_REACTORS
330
D7
102
}
330
D7
100
AcDbMLeaderStyle
179
     2
170
     2
171
     1
172
     0
 90
        2
 40
0.0
 41
0.0
173
     1
 91
-1056964608
340
14
 92
       -2
290
     1
 42
0.09
291
     1
 43
0.36
  3
Standard
341
0
 44
0.18
300

342
11
174
     1
178
     1
175
     1
176
     0
 93
-1056964608
 45
0.18
292
     0
297
     0
 46
0.18
343
0
 94
-1056964608
 47
1.0
 49
1.0
140
1.0
293
     1
141
0.0
294
     1
177
     0
142
1.0
295
     0
296
     1
143
0.125
271
     0
272
     9
273
     9
298
     0
  0
MLEADERSTYLE
  5
D8
102
{ACAD_REACTORS
330
293A
330
2939
330
293C
330
2938
330
293B
330
2937
330
296C
330
296D
330
297C
330
2989
330
D7
102
}
330
D7
100
AcDbMLeaderStyle
179
     2
170
     2
171
     1
172
     0
 90
        2
 40
0.0
 41
0.0
173
     1
 91
-1056964608
340
14
 92
       -2
290
     1
 42
0.09
291
     1
 43
0.36
  3
Standard
341
0
 44
0.18
300

342
11
174
     1
178
     1
175
     1
176
     0
 93
-1056964608
 45
0.18
292
     0
297
     0
 46
0.18
343
0
 94
-1056964608
 47
1.0
 49
1.0
140
1.0
293
     1
141
0.0
294
     1
177
     0
142
1.0
295
     0
296
     0
143
0.125
271
     0
272
     9
273
     9
298
     0
  0
MLINESTYLE
  5
18
102
{ACAD_REACTORS
330
17
102
}
330
17
100
AcDbMlineStyle
  2
STANDARD
 70
     0
  3

 62
   256
 51
90.0
 52
90.0
 71
     2
 49
0.5
 62
   256
  6
BYLAYER
 49
-0.5
 62
   256
  6
BYLAYER
  0
ACDBPLACEHOLDER
  5
F
102
{ACAD_REACTORS
330
E
102
}
330
E
  0
SCALE
  5
B7
102
{ACAD_REACTORS
330
B6
102
}
330
B6
100
AcDbScale
 70
     0
300
1:1
140
1.0
141
1.0
290
     1
  0
SCALE
  5
124
102
{ACAD_REACTORS
330
B6
102
}
330
B6
100
AcDbScale
 70
     0
300
1:2
140
1.0
141
2.0
290
     0
  0
SCALE
  5
125
102
{ACAD_REACTORS
330
B6
102
}
330
B6
100
AcDbScale
 70
     0
300
1:4
140
1.0
141
4.0
290
     0
  0
SCALE
  5
126
102
{ACAD_REACTORS
330
B6
102
}
330
B6
100
AcDbScale
 70
     0
300
1:5
140
1.0
141
5.0
290
     0
  0
SCALE
  5
127
102
{ACAD_REACTORS
330
B6
102
}
330
B6
100
AcDbScale
 70
     0
300
1:8
140
1.0
141
8.0
290
     0
  0
SCALE
  5
128
102
{ACAD_REACTORS
330
B6
102
}
330
B6
100
AcDbScale
 70
     0
300
1:10
140
1.0
141
10.0
290
     0
  0
SCALE
  5
129
102
{ACAD_REACTORS
330
B6
102
}
330
B6
100
AcDbScale
 70
     0
300
1:16
140
1.0
141
16.0
290
     0
  0
SCALE
  5
12A
102
{ACAD_REACTORS
330
B6
102
}
330
B6
100
AcDbScale
 70
     0
300
1:20
140
1.0
141
20.0
290
     0
  0
SCALE
  5
12B
102
{ACAD_REACTORS
330
B6
102
}
330
B6
100
AcDbScale
 70
     0
300
1:30
140
1.0
141
30.0
290
     0
  0
SCALE
  5
12C
102
{ACAD_REACTORS
330
B6
102
}
330
B6
100
AcDbScale
 70
     0
300
1:40
140
1.0
141
40.0
290
     0
  0
SCALE
  5
12D
102
{ACAD_REACTORS
330
B6
102
}
330
B6
100
AcDbScale
 70
     0
300
1:50
140
1.0
141
50.0
290
     0
  0
SCALE
  5
12E
102
{ACAD_REACTORS
330
B6
102
}
330
B6
100
AcDbScale
 70
     0
300
1:100
140
1.0
141
100.0
290
     0
  0
SCALE
  5
12F
102
{ACAD_REACTORS
330
B6
102
}
330
B6
100
AcDbScale
 70
     0
300
2:1
140
2.0
141
1.0
290
     0
  0
SCALE
  5
130
102
{ACAD_REACTORS
330
B6
102
}
330
B6
100
AcDbScale
 70
     0
300
4:1
140
4.0
141
1.0
290
     0
  0
SCALE
  5
131
102
{ACAD_REACTORS
330
B6
102
}
330
B6
100
AcDbScale
 70
     0
300
8:1
140
8.0
141
1.0
290
     0
  0
SCALE
  5
132
102
{ACAD_REACTORS
330
B6
102
}
330
B6
100
AcDbScale
 70
     0
300
10:1
140
10.0
141
1.0
290
     0
  0
SCALE
  5
133
102
{ACAD_REACTORS
330
B6
102
}
330
B6
100
AcDbScale
 70
     0
300
100:1
140
100.0
141
1.0
290
     0
  0
SCALE
  5
134
102
{ACAD_REACTORS
330
B6
102
}
330
B6
100
AcDbScale
 70
     0
300
1/128" = 1'-0"
140
0.0078125
141
12.0
290
     0
  0
SCALE
  5
135
102
{ACAD_REACTORS
330
B6
102
}
330
B6
100
AcDbScale
 70
     0
300
1/64" = 1'-0"
140
0.015625
141
12.0
290
     0
  0
SCALE
  5
136
102
{ACAD_REACTORS
330
B6
102
}
330
B6
100
AcDbScale
 70
     0
300
1/32" = 1'-0"
140
0.03125
141
12.0
290
     0
  0
SCALE
  5
137
102
{ACAD_REACTORS
330
B6
102
}
330
B6
100
AcDbScale
 70
     0
300
1/16" = 1'-0"
140
0.0625
141
12.0
290
     0
  0
SCALE
  5
138
102
{ACAD_REACTORS
330
B6
102
}
330
B6
100
AcDbScale
 70
     0
300
3/32" = 1'-0"
140
0.09375
141
12.0
290
     0
  0
SCALE
  5
139
102
{ACAD_REACTORS
330
B6
102
}
330
B6
100
AcDbScale
 70
     0
300
1/8" = 1'-0"
140
0.125
141
12.0
290
     0
  0
SCALE
  5
13A
102
{ACAD_REACTORS
330
B6
102
}
330
B6
100
AcDbScale
 70
     0
300
3/16" = 1'-0"
140
0.1875
141
12.0
290
     0
  0
SCALE
  5
13B
102
{ACAD_REACTORS
330
B6
102
}
330
B6
100
AcDbScale
 70
     0
300
1/4" = 1'-0"
140
0.25
141
12.0
290
     0
  0
SCALE
  5
13C
102
{ACAD_REACTORS
330
B6
102
}
330
B6
100
AcDbScale
 70
     0
300
3/8" = 1'-0"
140
0.375
141
12.0
290
     0
  0
SCALE
  5
13D
102
{ACAD_REACTORS
330
B6
102
}
330
B6
100
AcDbScale
 70
     0
300
1/2" = 1'-0"
140
0.5
141
12.0
290
     0
  0
SCALE
  5
13E
102
{ACAD_REACTORS
330
B6
102
}
330
B6
100
AcDbScale
 70
     0
300
3/4" = 1'-0"
140
0.75
141
12.0
290
     0
  0
SCALE
  5
13F
102
{ACAD_REACTORS
330
B6
102
}
330
B6
100
AcDbScale
 70
     0
300
1" = 1'-0"
140
1.0
141
12.0
290
     0
  0
SCALE
  5
140
102
{ACAD_REACTORS
330
B6
102
}
330
B6
100
AcDbScale
 70
     0
300
1-1/2" = 1'-0"
140
1.5
141
12.0
290
     0
  0
SCALE
  5
141
102
{ACAD_REACTORS
330
B6
102
}
330
B6
100
AcDbScale
 70
     0
300
3" = 1'-0"
140
3.0
141
12.0
290
     0
  0
SCALE
  5
142
102
{ACAD_REACTORS
330
B6
102
}
330
B6
100
AcDbScale
 70
     0
300
6" = 1'-0"
140
6.0
141
12.0
290
     0
  0
SCALE
  5
143
102
{ACAD_REACTORS
330
B6
102
}
330
B6
100
AcDbScale
 70
     0
300
1'-0" = 1'-0"
140
12.0
141
12.0
290
     0
  0
ACDBSECTIONVIEWSTYLE
  5
1AA
102
{ACAD_REACTORS
330
1A8
102
}
330
1A8
100
AcDbModelDocViewStyle
 70
     0
  3
Imperial24
290
     0
300
Imperial24
 90
        0
100
AcDbSectionViewStyle
 70
     0
 71
     0
 90
       78
 71
     1
340
11
 62
   256
 40
0.24
340
0
340
0
 62
   256
 40
0.24
300
I, O, Q, S, X, Z
 40
0.48
 90
        3
 40
0.18
 90
        1
 71
     2
340
16
 90
       25
 62
   256
340
16
 90
       50
 62
   256
 40
0.24
 40
0.0
 40
0.24
 71
     3
340
11
 62
   256
 40
0.24
 90
        1
 40
0.75
 90
        1
300
%<\AcVar ViewType \f "%tc1">% %<\AcVar ViewSectionStartId>%-%<\AcVar ViewSectionEndId>%\PSCALE %<\AcVar ViewScale \f "%sn">%
 71
     4
 62
   256
 62
   257
300
ANSI31
 40
1.0
 90
        0
290
     0
290
     0
 90
        6
 40
0.0
 40
1.570796326794897
 40
0.2617993877991494
 40
1.308996938995747
 40
-0.2617993877991494
 40
1.832595714594046
  0
TABLESTYLE
  5
87
102
{ACAD_REACTORS
330
86
102
}
102
{ACAD_XDICTIONARY
360
29AE
102
}
330
86
100
AcDbTableStyle
  3
Standard
 70
     0
 71
     0
 40
0.06
 41
0.06
280
     0
281
     0
  7
Standard
140
0.18
170
     2
 62
     0
 63
   257
283
     0
 90
      512
 91
        0
  1

274
    -2
284
     1
 64
     0
275
    -2
285
     1
 65
     0
276
    -2
286
     1
 66
     0
277
    -2
287
     1
 67
     0
278
    -2
288
     1
 68
     0
279
    -2
289
     1
 69
     0
  7
Standard
140
0.25
170
     5
 62
     0
 63
   257
283
     0
 90
      512
 91
        0
  1

274
    -2
284
     1
 64
     0
275
    -2
285
     1
 65
     0
276
    -2
286
     1
 66
     0
277
    -2
287
     1
 67
     0
278
    -2
288
     1
 68
     0
279
    -2
289
     1
 69
     0
  7
Standard
140
0.18
170
     5
 62
     0
 63
   257
283
     0
 90
      512
 91
        0
  1

274
    -2
284
     1
 64
     0
275
    -2
285
     1
 65
     0
276
    -2
286
     1
 66
     0
277
    -2
287
     1
 67
     0
278
    -2
288
     1
 68
     0
279
    -2
289
     1
 69
     0
  0
VISUALSTYLE
  5
9F
102
{ACAD_REACTORS
330
99
102
}
330
99
100
AcDbVisualStyle
  2
2dWireframe
 70
     4
177
     3
291
     0
 70
    58
 90
        0
176
     1
 90
        2
176
     1
 90
        1
176
     1
 90
        0
176
     1
 40
0.6
176
     1
 40
30.0
176
     1
 62
     7
420
 16777215
176
     1
 90
        1
176
     1
 90
        4
176
     1
 62
     7
176
     1
 62
   257
176
     1
 90
        1
176
     1
 90
        1
176
     1
 40
1.0
176
     1
 90
        0
176
     1
 62
   257
176
     1
 40
1.0
176
     1
 90
        1
176
     1
 90
        6
176
     1
 90
        2
176
     1
 62
     7
176
     1
 90
        5
176
     1
 90
        0
176
     1
 90
        0
176
     1
290
     0
176
     1
 90
        1
176
     1
 40
0.0
176
     1
 90
        0
176
     1
290
     1
176
     1
290
     1
176
     1
290
     0
176
     1
290
     0
176
     1
290
     0
176
     1
290
     0
176
     1
290
     0
176
     1
290
     0
176
     1
290
     0
176
     1
 90
       50
176
     1
 40
0.0
176
     1
 40
1.0
176
     1
 90
        0
176
     1
 62
    18
420
        0
176
     1
 90
       50
176
     1
 90
        3
176
     1
 62
     5
420
      255
176
     1
290
     0
176
     1
 90
       50
176
     1
 90
       50
176
     1
 90
       50
176
     1
290
     0
176
     1
 90
       50
176
     1
 62
   256
176
     0
 40
1.0
176
     0
 90
        2
176
     1
  1
strokes_ogs.tif
176
     1
290
     0
176
     1
 40
1.0
176
     1
 40
1.0
176
     1
  0
VISUALSTYLE
  5
9E
102
{ACAD_REACTORS
330
99
102
}
330
99
100
AcDbVisualStyle
  2
Basic
 70
     7
177
     3
291
     1
 70
    58
 90
        1
176
     1
 90
        0
176
     1
 90
        1
176
     1
 90
        0
176
     1
 40
0.6
176
     1
 40
30.0
176
     1
 62
     7
420
 16777215
176
     1
 90
        0
176
     1
 90
        4
176
     1
 62
     7
176
     1
 62
   257
176
     1
 90
        1
176
     1
 90
        1
176
     1
 40
1.0
176
     1
 90
        8
176
     1
 62
     7
176
     1
 40
1.0
176
     1
 90
        1
176
     1
 90
        6
176
     1
 90
        2
176
     1
 62
     7
176
     1
 90
        5
176
     1
 90
        0
176
     1
 90
        0
176
     1
290
     0
176
     1
 90
        1
176
     1
 40
0.0
176
     1
 90
        0
176
     1
290
     0
176
     1
290
     1
176
     1
290
     1
176
     1
290
     0
176
     1
290
     0
176
     1
290
     0
176
     1
290
     0
176
     1
290
     0
176
     1
290
     0
176
     1
 90
       50
176
     1
 40
0.0
176
     1
 40
1.0
176
     1
 90
        0
176
     1
 62
    18
420
        0
176
     1
 90
       50
176
     1
 90
        3
176
     1
 62
     5
420
      255
176
     1
290
     0
176
     1
 90
       50
176
     1
 90
       50
176
     1
 90
       50
176
     1
290
     0
176
     1
 90
       50
176
     1
 62
   256
176
     0
 40
1.0
176
     0
 90
        2
176
     1
  1
strokes_ogs.tif
176
     1
290
     0
176
     1
 40
1.0
176
     1
 40
1.0
176
     1
  0
VISUALSTYLE
  5
A5
102
{ACAD_REACTORS
330
99
102
}
330
99
100
AcDbVisualStyle
  2
Brighten
 70
    12
177
     3
291
     1
 70
    58
 90
        2
176
     1
 90
        2
176
     1
 90
        1
176
     1
 90
        0
176
     1
 40
0.6
176
     1
 40
30.0
176
     1
 62
     7
420
 16777215
176
     1
 90
        1
176
     1
 90
        4
176
     1
 62
     7
176
     1
 62
   257
176
     1
 90
        1
176
     1
 90
        1
176
     1
 40
1.0
176
     1
 90
        8
176
     1
 62
     7
176
     1
 40
1.0
176
     1
 90
        1
176
     1
 90
        6
176
     1
 90
        2
176
     1
 62
     7
176
     1
 90
        5
176
     1
 90
        0
176
     1
 90
        0
176
     1
290
     0
176
     1
 90
        1
176
     1
 40
50.0
176
     1
 90
        0
176
     1
290
     0
176
     1
290
     1
176
     1
290
     1
176
     1
290
     0
176
     1
290
     0
176
     1
290
     0
176
     1
290
     0
176
     1
290
     0
176
     1
290
     0
176
     1
 90
       50
176
     1
 40
0.0
176
     1
 40
1.0
176
     1
 90
        0
176
     1
 62
    18
420
        0
176
     1
 90
       50
176
     1
 90
        3
176
     1
 62
     5
420
      255
176
     1
290
     0
176
     1
 90
       50
176
     1
 90
       50
176
     1
 90
       50
176
     1
290
     0
176
     1
 90
       50
176
     1
 62
   256
176
     0
 40
1.0
176
     0
 90
        2
176
     1
  1
strokes_ogs.tif
176
     1
290
     0
176
     1
 40
1.0
176
     1
 40
1.0
176
     1
  0
VISUALSTYLE
  5
A9
102
{ACAD_REACTORS
330
99
102
}
330
99
100
AcDbVisualStyle
  2
ColorChange
 70
    16
177
     3
291
     1
 70
    58
 90
        2
176
     1
 90
        2
176
     1
 90
        3
176
     1
 90
        0
176
     1
 40
0.6
176
     1
 40
30.0
176
     1
 62
     8
420
  8421504
176
     1
 90
        1
176
     1
 90
        4
176
     1
 62
     7
176
     1
 62
   257
176
     1
 90
        1
176
     1
 90
        1
176
     1
 40
1.0
176
     1
 90
        8
176
     1
 62
     8
420
  8421504
176
     1
 40
1.0
176
     1
 90
        1
176
     1
 90
        6
176
     1
 90
        2
176
     1
 62
     7
176
     1
 90
        5
176
     1
 90
        0
176
     1
 90
        0
176
     1
290
     0
176
     1
 90
        1
176
     1
 40
0.0
176
     1
 90
        0
176
     1
290
     0
176
     1
290
     1
176
     1
290
     1
176
     1
290
     0
176
     1
290
     0
176
     1
290
     0
176
     1
290
     0
176
     1
290
     0
176
     1
290
     0
176
     1
 90
       50
176
     1
 40
0.0
176
     1
 40
1.0
176
     1
 90
        0
176
     1
 62
    18
420
        0
176
     1
 90
       50
176
     1
 90
        3
176
     1
 62
     5
420
      255
176
     1
290
     0
176
     1
 90
       50
176
     1
 90
       50
176
     1
 90
       50
176
     1
290
     0
176
     1
 90
       50
176
     1
 62
   256
176
     0
 40
1.0
176
     0
 90
        2
176
     1
  1
strokes_ogs.tif
176
     1
290
     0
176
     1
 40
1.0
176
     1
 40
1.0
176
     1
  0
VISUALSTYLE
  5
A2
102
{ACAD_REACTORS
330
99
102
}
330
99
100
AcDbVisualStyle
  2
Conceptual
 70
     9
177
     3
291
     0
 70
    58
 90
        3
176
     1
 90
        2
176
     1
 90
        1
176
     1
 90
        0
176
     1
 40
0.6
176
     1
 40
30.0
176
     1
 62
     7
420
 16777215
176
     1
 90
        2
176
     1
 90
        2
176
     1
 62
     7
176
     1
 62
   257
176
     1
 90
        1
176
     1
 90
        1
176
     1
 40
40.0
176
     1
 90
        8
176
     1
 62
     7
176
     1
 40
1.0
176
     1
 90
        1
176
     1
 90
        6
176
     1
 90
        2
176
     1
 62
     7
176
     1
 90
        3
176
     1
 90
        0
176
     1
 90
        0
176
     1
290
     0
176
     1
 90
        1
176
     1
 40
0.0
176
     1
 90
        0
176
     1
290
     0
176
     1
290
     1
176
     1
290
     1
176
     1
290
     0
176
     1
290
     0
176
     1
290
     0
176
     1
290
     0
176
     1
290
     0
176
     1
290
     0
176
     1
 90
       50
176
     1
 40
0.0
176
     1
 40
1.0
176
     1
 90
        0
176
     1
 62
    18
420
        0
176
     1
 90
       50
176
     1
 90
        3
176
     1
 62
     5
420
      255
176
     1
290
     0
176
     1
 90
       50
176
     1
 90
       50
176
     1
 90
       50
176
     1
290
     0
176
     1
 90
       50
176
     1
 62
   256
176
     0
 40
1.0
176
     0
 90
        2
176
     1
  1
strokes_ogs.tif
176
     1
290
     0
176
     1
 40
1.0
176
     1
 40
1.0
176
     1
  0
VISUALSTYLE
  5
A4
102
{ACAD_REACTORS
330
99
102
}
330
99
100
AcDbVisualStyle
  2
Dim
 70
    11
177
     3
291
     1
 70
    58
 90
        2
176
     1
 90
        2
176
     1
 90
        1
176
     1
 90
        0
176
     1
 40
0.6
176
     1
 40
30.0
176
     1
 62
     7
420
 16777215
176
     1
 90
        1
176
     1
 90
        4
176
     1
 62
     7
176
     1
 62
   257
176
     1
 90
        1
176
     1
 90
        1
176
     1
 40
1.0
176
     1
 90
        8
176
     1
 62
     7
176
     1
 40
1.0
176
     1
 90
        1
176
     1
 90
        6
176
     1
 90
        2
176
     1
 62
     7
176
     1
 90
        5
176
     1
 90
        0
176
     1
 90
        0
176
     1
290
     0
176
     1
 90
        1
176
     1
 40
-50.0
176
     1
 90
        0
176
     1
290
     0
176
     1
290
     1
176
     1
290
     1
176
     1
290
     0
176
     1
290
     0
176
     1
290
     0
176
     1
290
     0
176
     1
290
     0
176
     1
290
     0
176
     1
 90
       50
176
     1
 40
0.0
176
     1
 40
1.0
176
     1
 90
        0
176
     1
 62
    18
420
        0
176
     1
 90
       50
176
     1
 90
        3
176
     1
 62
     5
420
      255
176
     1
290
     0
176
     1
 90
       50
176
     1
 90
       50
176
     1
 90
       50
176
     1
290
     0
176
     1
 90
       50
176
     1
 62
   256
176
     0
 40
1.0
176
     0
 90
        2
176
     1
  1
strokes_ogs.tif
176
     1
290
     0
176
     1
 40
1.0
176
     1
 40
1.0
176
     1
  0
VISUALSTYLE
  5
175
102
{ACAD_REACTORS
330
99
102
}
330
99
100
AcDbVisualStyle
  2
EdgeColorOff
 70
    22
177
     3
291
     1
 70
    58
 90
        2
176
     0
 90
        2
176
     0
 90
        0
176
     0
 90
        0
176
     0
 40
0.6
176
     0
 40
30.0
176
     0
 62
     7
420
 16777215
176
     0
 90
        1
176
     0
 90
        4
176
     0
 62
     7
176
     0
 62
   257
176
     0
 90
        1
176
     0
 90
        1
176
     0
 40
1.0
176
     0
 90
        8
176
     2
 62
     7
176
     0
 40
1.0
176
     0
 90
        1
176
     0
 90
        6
176
     0
 90
        2
176
     0
 62
     7
176
     0
 90
        5
176
     0
 90
        0
176
     0
 90
        0
176
     0
290
     0
176
     0
 90
        1
176
     0
 40
0.0
176
     0
 90
        0
176
     0
290
     0
176
     1
290
     1
176
     1
290
     1
176
     1
290
     0
176
     1
290
     0
176
     1
290
     0
176
     1
290
     0
176
     1
290
     0
176
     1
290
     0
176
     1
 90
       50
176
     1
 40
0.0
176
     1
 40
1.0
176
     1
 90
        0
176
     1
 62
    18
420
        0
176
     1
 90
       50
176
     1
 90
        3
176
     1
 62
     5
420
      255
176
     1
290
     0
176
     1
 90
       50
176
     1
 90
       50
176
     1
 90
       50
176
     1
290
     0
176
     1
 90
       50
176
     1
 62
   256
176
     0
 40
1.0
176
     0
 90
        2
176
     1
  1
strokes_ogs.tif
176
     1
290
     0
176
     1
 40
1.0
176
     1
 40
1.0
176
     1
  0
VISUALSTYLE
  5
A8
102
{ACAD_REACTORS
330
99
102
}
330
99
100
AcDbVisualStyle
  2
Facepattern
 70
    15
177
     3
291
     1
 70
    58
 90
        2
176
     1
 90
        2
176
     1
 90
        1
176
     1
 90
        0
176
     1
 40
0.6
176
     1
 40
30.0
176
     1
 62
     7
420
 16777215
176
     1
 90
        1
176
     1
 90
        4
176
     1
 62
     7
176
     1
 62
   257
176
     1
 90
        1
176
     1
 90
        1
176
     1
 40
1.0
176
     1
 90
        8
176
     1
 62
     7
176
     1
 40
1.0
176
     1
 90
        1
176
     1
 90
        6
176
     1
 90
        2
176
     1
 62
     7
176
     1
 90
        5
176
     1
 90
        0
176
     1
 90
        0
176
     1
290
     0
176
     1
 90
        1
176
     1
 40
0.0
176
     1
 90
        0
176
     1
290
     0
176
     1
290
     1
176
     1
290
     1
176
     1
290
     0
176
     1
290
     0
176
     1
290
     0
176
     1
290
     0
176
     1
290
     0
176
     1
290
     0
176
     1
 90
       50
176
     1
 40
0.0
176
     1
 40
1.0
176
     1
 90
        0
176
     1
 62
    18
420
        0
176
     1
 90
       50
176
     1
 90
        3
176
     1
 62
     5
420
      255
176
     1
290
     0
176
     1
 90
       50
176
     1
 90
       50
176
     1
 90
       50
176
     1
290
     0
176
     1
 90
       50
176
     1
 62
   256
176
     0
 40
1.0
176
     0
 90
        2
176
     1
  1
strokes_ogs.tif
176
     1
290
     0
176
     1
 40
1.0
176
     1
 40
1.0
176
     1
  0
VISUALSTYLE
  5
9A
102
{ACAD_REACTORS
330
99
102
}
330
99
100
AcDbVisualStyle
  2
Flat
 70
     0
177
     3
291
     1
 70
    58
 90
        2
176
     1
 90
        1
176
     1
 90
        1
176
     1
 90
        2
176
     1
 40
0.6
176
     1
 40
30.0
176
     1
 62
     7
420
 16777215
176
     1
 90
        0
176
     1
 90
        0
176
     1
 62
     7
176
     1
 62
   257
176
     1
 90
        1
176
     1
 90
        1
176
     1
 40
1.0
176
     1
 90
        8
176
     1
 62
     7
176
     1
 40
1.0
176
     1
 90
        1
176
     1
 90
        6
176
     1
 90
        2
176
     1
 62
     7
176
     1
 90
        5
176
     1
 90
        0
176
     1
 90
        0
176
     1
290
     0
176
     1
 90
       13
176
     1
 40
0.0
176
     1
 90
        0
176
     1
290
     0
176
     1
290
     1
176
     1
290
     1
176
     1
290
     0
176
     1
290
     0
176
     1
290
     0
176
     1
290
     0
176
     1
290
     0
176
     1
290
     0
176
     1
 90
       50
176
     1
 40
0.0
176
     1
 40
1.0
176
     1
 90
        0
176
     1
 62
    18
420
        0
176
     1
 90
       50
176
     1
 90
        3
176
     1
 62
     5
420
      255
176
     1
290
     0
176
     1
 90
       50
176
     1
 90
       50
176
     1
 90
       50
176
     1
290
     0
176
     1
 90
       50
176
     1
 62
   256
176
     0
 40
1.0
176
     0
 90
        2
176
     1
  1
strokes_ogs.tif
176
     1
290
     0
176
     1
 40
1.0
176
     1
 40
1.0
176
     1
  0
VISUALSTYLE
  5
9B
102
{ACAD_REACTORS
330
99
102
}
330
99
100
AcDbVisualStyle
  2
FlatWithEdges
 70
     1
177
     3
291
     1
 70
    58
 90
        2
176
     1
 90
        1
176
     1
 90
        1
176
     1
 90
        2
176
     1
 40
0.6
176
     1
 40
30.0
176
     1
 62
     7
420
 16777215
176
     1
 90
        1
176
     1
 90
        0
176
     1
 62
     7
176
     1
 62
   257
176
     1
 90
        1
176
     1
 90
        1
176
     1
 40
1.0
176
     1
 90
        0
176
     1
 62
   257
176
     1
 40
1.0
176
     1
 90
        1
176
     1
 90
        6
176
     1
 90
        2
176
     1
 62
     7
176
     1
 90
        5
176
     1
 90
        0
176
     1
 90
        0
176
     1
290
     0
176
     1
 90
       13
176
     1
 40
0.0
176
     1
 90
        0
176
     1
290
     0
176
     1
290
     1
176
     1
290
     1
176
     1
290
     0
176
     1
290
     0
176
     1
290
     0
176
     1
290
     0
176
     1
290
     0
176
     1
290
     0
176
     1
 90
       50
176
     1
 40
0.0
176
     1
 40
1.0
176
     1
 90
        0
176
     1
 62
    18
420
        0
176
     1
 90
       50
176
     1
 90
        3
176
     1
 62
     5
420
      255
176
     1
290
     0
176
     1
 90
       50
176
     1
 90
       50
176
     1
 90
       50
176
     1
290
     0
176
     1
 90
       50
176
     1
 62
   256
176
     0
 40
1.0
176
     0
 90
        2
176
     1
  1
strokes_ogs.tif
176
     1
290
     0
176
     1
 40
1.0
176
     1
 40
1.0
176
     1
  0
VISUALSTYLE
  5
9C
102
{ACAD_REACTORS
330
99
102
}
330
99
100
AcDbVisualStyle
  2
Gouraud
 70
     2
177
     3
291
     1
 70
    58
 90
        2
176
     1
 90
        2
176
     1
 90
        1
176
     1
 90
        2
176
     1
 40
0.6
176
     1
 40
30.0
176
     1
 62
     7
420
 16777215
176
     1
 90
        0
176
     1
 90
        0
176
     1
 62
     7
176
     1
 62
   257
176
     1
 90
        1
176
     1
 90
        1
176
     1
 40
1.0
176
     1
 90
        0
176
     1
 62
     7
176
     1
 40
1.0
176
     1
 90
        1
176
     1
 90
        6
176
     1
 90
        2
176
     1
 62
     7
176
     1
 90
        5
176
     1
 90
        0
176
     1
 90
        0
176
     1
290
     0
176
     1
 90
       13
176
     1
 40
0.0
176
     1
 90
        0
176
     1
290
     0
176
     1
290
     1
176
     1
290
     1
176
     1
290
     0
176
     1
290
     0
176
     1
290
     0
176
     1
290
     0
176
     1
290
     0
176
     1
290
     0
176
     1
 90
       50
176
     1
 40
0.0
176
     1
 40
1.0
176
     1
 90
        0
176
     1
 62
    18
420
        0
176
     1
 90
       50
176
     1
 90
        3
176
     1
 62
     5
420
      255
176
     1
290
     0
176
     1
 90
       50
176
     1
 90
       50
176
     1
 90
       50
176
     1
290
     0
176
     1
 90
       50
176
     1
 62
   256
176
     0
 40
1.0
176
     0
 90
        2
176
     1
  1
strokes_ogs.tif
176
     1
290
     0
176
     1
 40
1.0
176
     1
 40
1.0
176
     1
  0
VISUALSTYLE
  5
9D
102
{ACAD_REACTORS
330
99
102
}
330
99
100
AcDbVisualStyle
  2
GouraudWithEdges
 70
     3
177
     3
291
     1
 70
    58
 90
        2
176
     1
 90
        2
176
     1
 90
        1
176
     1
 90
        2
176
     1
 40
0.6
176
     1
 40
30.0
176
     1
 62
     7
420
 16777215
176
     1
 90
        1
176
     1
 90
        0
176
     1
 62
     7
176
     1
 62
   257
176
     1
 90
        1
176
     1
 90
        1
176
     1
 40
1.0
176
     1
 90
        0
176
     1
 62
   257
176
     1
 40
1.0
176
     1
 90
        1
176
     1
 90
        6
176
     1
 90
        2
176
     1
 62
     7
176
     1
 90
        5
176
     1
 90
        0
176
     1
 90
        0
176
     1
290
     0
176
     1
 90
       13
176
     1
 40
0.0
176
     1
 90
        0
176
     1
290
     0
176
     1
290
     1
176
     1
290
     1
176
     1
290
     0
176
     1
290
     0
176
     1
290
     0
176
     1
290
     0
176
     1
290
     0
176
     1
290
     0
176
     1
 90
       50
176
     1
 40
0.0
176
     1
 40
1.0
176
     1
 90
        0
176
     1
 62
    18
420
        0
176
     1
 90
       50
176
     1
 90
        3
176
     1
 62
     5
420
      255
176
     1
290
     0
176
     1
 90
       50
176
     1
 90
       50
176
     1
 90
       50
176
     1
290
     0
176
     1
 90
       50
176
     1
 62
   256
176
     0
 40
1.0
176
     0
 90
        2
176
     1
  1
strokes_ogs.tif
176
     1
290
     0
176
     1
 40
1.0
176
     1
 40
1.0
176
     1
  0
VISUALSTYLE
  5
A1
102
{ACAD_REACTORS
330
99
102
}
330
99
100
AcDbVisualStyle
  2
Hidden
 70
     6
177
     3
291
     0
 70
    58
 90
        1
176
     1
 90
        2
176
     1
 90
        2
176
     1
 90
        0
176
     1
 40
0.6
176
     1
 40
30.0
176
     1
 62
     7
420
 16777215
176
     1
 90
        2
176
     1
 90
        2
176
     1
 62
     7
176
     1
 62
   257
176
     1
 90
        2
176
     1
 90
        1
176
     1
 40
40.0
176
     1
 90
        0
176
     1
 62
   257
176
     1
 40
1.0
176
     1
 90
        1
176
     1
 90
        6
176
     1
 90
        2
176
     1
 62
     7
176
     1
 90
        3
176
     1
 90
        0
176
     1
 90
        0
176
     1
290
     0
176
     1
 90
        1
176
     1
 40
0.0
176
     1
 90
        0
176
     1
290
     0
176
     1
290
     1
176
     1
290
     1
176
     1
290
     0
176
     1
290
     0
176
     1
290
     0
176
     1
290
     0
176
     1
290
     0
176
     1
290
     0
176
     1
 90
       50
176
     1
 40
0.0
176
     1
 40
1.0
176
     1
 90
        0
176
     1
 62
    18
420
        0
176
     1
 90
       50
176
     1
 90
        3
176
     1
 62
     5
420
      255
176
     1
290
     0
176
     1
 90
       50
176
     1
 90
       50
176
     1
 90
       50
176
     1
290
     0
176
     1
 90
       50
176
     1
 62
   256
176
     0
 40
1.0
176
     0
 90
        2
176
     1
  1
strokes_ogs.tif
176
     1
290
     0
176
     1
 40
1.0
176
     1
 40
1.0
176
     1
  0
VISUALSTYLE
  5
173
102
{ACAD_REACTORS
330
99
102
}
330
99
100
AcDbVisualStyle
  2
JitterOff
 70
    20
177
     3
291
     1
 70
    58
 90
        2
176
     0
 90
        2
176
     0
 90
        0
176
     0
 90
        0
176
     0
 40
0.6
176
     0
 40
30.0
176
     0
 62
     7
420
 16777215
176
     0
 90
        1
176
     0
 90
        4
176
     0
 62
     7
176
     0
 62
   257
176
     0
 90
        1
176
     0
 90
        1
176
     0
 40
1.0
176
     0
 90
       10
176
     2
 62
     7
176
     0
 40
1.0
176
     0
 90
        1
176
     0
 90
        6
176
     0
 90
        2
176
     0
 62
     7
176
     0
 90
        5
176
     0
 90
        0
176
     0
 90
        0
176
     0
290
     0
176
     0
 90
        1
176
     0
 40
0.0
176
     0
 90
        0
176
     0
290
     0
176
     1
290
     1
176
     1
290
     1
176
     1
290
     0
176
     1
290
     0
176
     1
290
     0
176
     1
290
     0
176
     1
290
     0
176
     1
290
     0
176
     1
 90
       50
176
     1
 40
0.0
176
     1
 40
1.0
176
     1
 90
        0
176
     1
 62
    18
420
        0
176
     1
 90
       50
176
     1
 90
        3
176
     1
 62
     5
420
      255
176
     1
290
     0
176
     1
 90
       50
176
     1
 90
       50
176
     1
 90
       50
176
     1
290
     0
176
     1
 90
       50
176
     1
 62
   256
176
     0
 40
1.0
176
     0
 90
        2
176
     1
  1
strokes_ogs.tif
176
     1
290
     0
176
     1
 40
1.0
176
     1
 40
1.0
176
     1
  0
VISUALSTYLE
  5
A7
102
{ACAD_REACTORS
330
99
102
}
330
99
100
AcDbVisualStyle
  2
Linepattern
 70
    14
177
     3
291
     1
 70
    58
 90
        2
176
     1
 90
        2
176
     1
 90
        1
176
     1
 90
        0
176
     1
 40
0.6
176
     1
 40
30.0
176
     1
 62
     7
420
 16777215
176
     1
 90
        1
176
     1
 90
        4
176
     1
 62
     7
176
     1
 62
   257
176
     1
 90
        7
176
     1
 90
        7
176
     1
 40
1.0
176
     1
 90
        8
176
     1
 62
     7
176
     1
 40
1.0
176
     1
 90
        1
176
     1
 90
        6
176
     1
 90
        2
176
     1
 62
     7
176
     1
 90
        5
176
     1
 90
        0
176
     1
 90
        0
176
     1
290
     0
176
     1
 90
        1
176
     1
 40
0.0
176
     1
 90
        0
176
     1
290
     0
176
     1
290
     1
176
     1
290
     1
176
     1
290
     0
176
     1
290
     0
176
     1
290
     0
176
     1
290
     0
176
     1
290
     0
176
     1
290
     0
176
     1
 90
       50
176
     1
 40
0.0
176
     1
 40
1.0
176
     1
 90
        0
176
     1
 62
    18
420
        0
176
     1
 90
       50
176
     1
 90
        3
176
     1
 62
     5
420
      255
176
     1
290
     0
176
     1
 90
       50
176
     1
 90
       50
176
     1
 90
       50
176
     1
290
     0
176
     1
 90
       50
176
     1
 62
   256
176
     0
 40
1.0
176
     0
 90
        2
176
     1
  1
strokes_ogs.tif
176
     1
290
     0
176
     1
 40
1.0
176
     1
 40
1.0
176
     1
  0
VISUALSTYLE
  5
174
102
{ACAD_REACTORS
330
99
102
}
330
99
100
AcDbVisualStyle
  2
OverhangOff
 70
    21
177
     3
291
     1
 70
    58
 90
        2
176
     0
 90
        2
176
     0
 90
        0
176
     0
 90
        0
176
     0
 40
0.6
176
     0
 40
30.0
176
     0
 62
     7
420
 16777215
176
     0
 90
        1
176
     0
 90
        4
176
     0
 62
     7
176
     0
 62
   257
176
     0
 90
        1
176
     0
 90
        1
176
     0
 40
1.0
176
     0
 90
        9
176
     2
 62
     7
176
     0
 40
1.0
176
     0
 90
        1
176
     0
 90
        6
176
     0
 90
        2
176
     0
 62
     7
176
     0
 90
        5
176
     0
 90
        0
176
     0
 90
        0
176
     0
290
     0
176
     0
 90
        1
176
     0
 40
0.0
176
     0
 90
        0
176
     0
290
     0
176
     1
290
     1
176
     1
290
     1
176
     1
290
     0
176
     1
290
     0
176
     1
290
     0
176
     1
290
     0
176
     1
290
     0
176
     1
290
     0
176
     1
 90
       50
176
     1
 40
0.0
176
     1
 40
1.0
176
     1
 90
        0
176
     1
 62
    18
420
        0
176
     1
 90
       50
176
     1
 90
        3
176
     1
 62
     5
420
      255
176
     1
290
     0
176
     1
 90
       50
176
     1
 90
       50
176
     1
 90
       50
176
     1
290
     0
176
     1
 90
       50
176
     1
 62
   256
176
     0
 40
1.0
176
     0
 90
        2
176
     1
  1
strokes_ogs.tif
176
     1
290
     0
176
     1
 40
1.0
176
     1
 40
1.0
176
     1
  0
VISUALSTYLE
  5
A3
102
{ACAD_REACTORS
330
99
102
}
330
99
100
AcDbVisualStyle
  2
Realistic
 70
     8
177
     3
291
     0
 70
    58
 90
        2
176
     1
 90
        3
176
     1
 90
        0
176
     1
 90
        2
176
     1
 40
0.6
176
     1
 40
30.0
176
     1
 62
     7
420
 16777215
176
     1
 90
        0
176
     1
 90
        0
176
     1
 62
     7
176
     1
 62
   257
176
     1
 90
        1
176
     1
 90
        1
176
     1
 40
1.0
176
     1
 90
        8
176
     1
 62
   257
176
     1
 40
1.0
176
     1
 90
        1
176
     1
 90
        6
176
     1
 90
        2
176
     1
 62
     7
176
     1
 90
        3
176
     1
 90
        0
176
     1
 90
        0
176
     1
290
     0
176
     1
 90
       13
176
     1
 40
0.0
176
     1
 90
        0
176
     1
290
     0
176
     1
290
     1
176
     1
290
     1
176
     1
290
     0
176
     1
290
     0
176
     1
290
     0
176
     1
290
     0
176
     1
290
     0
176
     1
290
     0
176
     1
 90
       50
176
     1
 40
0.0
176
     1
 40
1.0
176
     1
 90
        0
176
     1
 62
    18
420
        0
176
     1
 90
       50
176
     1
 90
        3
176
     1
 62
     5
420
      255
176
     1
290
     0
176
     1
 90
       50
176
     1
 90
       50
176
     1
 90
       50
176
     1
290
     0
176
     1
 90
       50
176
     1
 62
   256
176
     0
 40
1.0
176
     0
 90
        2
176
     1
  1
strokes_ogs.tif
176
     1
290
     0
176
     1
 40
1.0
176
     1
 40
1.0
176
     1
  0
VISUALSTYLE
  5
182
102
{ACAD_REACTORS
330
99
102
}
330
99
100
AcDbVisualStyle
  2
Shaded
 70
    27
177
     3
291
     0
 70
    58
 90
        2
176
     1
 90
        2
176
     1
 90
        1
176
     1
 90
        2
176
     1
 40
0.6
176
     1
 40
30.0
176
     1
 62
     7
420
 16777215
176
     1
 90
        0
176
     1
 90
        4
176
     1
 62
     7
176
     1
 62
   257
176
     1
 90
        1
176
     1
 90
        1
176
     1
 40
1.0
176
     1
 90
        8
176
     1
 62
   257
176
     1
 40
1.0
176
     1
 90
        1
176
     1
 90
        6
176
     1
 90
        2
176
     1
 62
     8
420
  7895160
176
     1
 90
        3
176
     1
 90
        0
176
     1
 90
        0
176
     1
290
     0
176
     1
 90
        5
176
     1
 40
0.0
176
     1
 90
        0
176
     1
290
     0
176
     1
290
     1
176
     1
290
     1
176
     1
290
     0
176
     1
290
     0
176
     1
290
     0
176
     1
290
     0
176
     1
290
     0
176
     1
290
     0
176
     1
 90
       50
176
     1
 40
0.0
176
     1
 40
1.0
176
     1
 90
        0
176
     1
 62
    18
420
        0
176
     1
 90
       50
176
     1
 90
        3
176
     1
 62
     5
420
      255
176
     1
290
     0
176
     1
 90
       50
176
     1
 90
       50
176
     1
 90
       50
176
     1
290
     0
176
     1
 90
       50
176
     1
 62
   256
176
     0
 40
1.0
176
     0
 90
        2
176
     1
  1
strokes_ogs.tif
176
     1
290
     0
176
     1
 40
1.0
176
     1
 40
1.0
176
     1
  0
VISUALSTYLE
  5
181
102
{ACAD_REACTORS
330
99
102
}
330
99
100
AcDbVisualStyle
  2
Shaded with edges
 70
    26
177
     3
291
     0
 70
    58
 90
        2
176
     1
 90
        2
176
     1
 90
        1
176
     1
 90
        2
176
     1
 40
0.6
176
     1
 40
30.0
176
     1
 62
     7
420
 16777215
176
     1
 90
        1
176
     1
 90
        2
176
     1
 62
     7
176
     1
 62
   257
176
     1
 90
        2
176
     1
 90
        1
176
     1
 40
1.0
176
     1
 90
        8
176
     1
 62
   257
176
     1
 40
1.0
176
     1
 90
        1
176
     1
 90
        6
176
     1
 90
        2
176
     1
 62
     7
176
     1
 90
        3
176
     1
 90
        0
176
     1
 90
        0
176
     1
290
     0
176
     1
 90
        5
176
     1
 40
0.0
176
     1
 90
        0
176
     1
290
     0
176
     1
290
     1
176
     1
290
     1
176
     1
290
     0
176
     1
290
     0
176
     1
290
     0
176
     1
290
     0
176
     1
290
     0
176
     1
290
     0
176
     1
 90
       50
176
     1
 40
0.0
176
     1
 40
1.0
176
     1
 90
        0
176
     1
 62
    18
420
        0
176
     1
 90
       50
176
     1
 90
        3
176
     1
 62
     5
420
      255
176
     1
290
     0
176
     1
 90
       50
176
     1
 90
       50
176
     1
 90
       50
176
     1
290
     0
176
     1
 90
       50
176
     1
 62
   256
176
     0
 40
1.0
176
     0
 90
        2
176
     1
  1
strokes_ogs.tif
176
     1
290
     0
176
     1
 40
1.0
176
     1
 40
1.0
176
     1
  0
VISUALSTYLE
  5
17E
102
{ACAD_REACTORS
330
99
102
}
330
99
100
AcDbVisualStyle
  2
Shades of Gray
 70
    23
177
     3
291
     0
 70
    58
 90
        2
176
     1
 90
        2
176
     1
 90
        3
176
     1
 90
        0
176
     1
 40
0.6
176
     1
 40
30.0
176
     1
 62
     7
420
 16777215
176
     1
 90
        2
176
     1
 90
        2
176
     1
 62
     7
176
     1
 62
     7
176
     1
 90
        1
176
     1
 90
        1
176
     1
 40
40.0
176
     1
 90
        8
176
     1
 62
     7
176
     1
 40
1.0
176
     1
 90
        1
176
     1
 90
        6
176
     1
 90
        2
176
     1
 62
     7
176
     1
 90
        3
176
     1
 90
        0
176
     1
 90
        0
176
     1
290
     0
176
     1
 90
        1
176
     1
 40
0.0
176
     1
 90
        0
176
     1
290
     0
176
     1
290
     1
176
     1
290
     1
176
     1
290
     0
176
     1
290
     0
176
     1
290
     0
176
     1
290
     0
176
     1
290
     0
176
     1
290
     0
176
     1
 90
       50
176
     1
 40
0.0
176
     1
 40
1.0
176
     1
 90
        0
176
     1
 62
    18
420
        0
176
     1
 90
       50
176
     1
 90
        3
176
     1
 62
     5
420
      255
176
     1
290
     0
176
     1
 90
       50
176
     1
 90
       50
176
     1
 90
       50
176
     1
290
     0
176
     1
 90
       50
176
     1
 62
   256
176
     0
 40
1.0
176
     0
 90
        2
176
     1
  1
strokes_ogs.tif
176
     1
290
     0
176
     1
 40
1.0
176
     1
 40
1.0
176
     1
  0
VISUALSTYLE
  5
17F
102
{ACAD_REACTORS
330
99
102
}
330
99
100
AcDbVisualStyle
  2
Sketchy
 70
    24
177
     3
291
     0
 70
    58
 90
        1
176
     1
 90
        2
176
     1
 90
        2
176
     1
 90
        0
176
     1
 40
0.6
176
     1
 40
30.0
176
     1
 62
     7
420
 16777215
176
     1
 90
        2
176
     1
 90
        2
176
     1
 62
     7
176
     1
 62
     7
176
     1
 90
        1
176
     1
 90
        1
176
     1
 40
40.0
176
     1
 90
       11
176
     1
 62
     7
176
     1
 40
1.0
176
     1
 90
        1
176
     1
 90
        6
176
     1
 90
        2
176
     1
 62
     7
176
     1
 90
        6
176
     1
 90
        0
176
     1
 90
        0
176
     1
290
     0
176
     1
 90
        1
176
     1
 40
0.0
176
     1
 90
        0
176
     1
290
     0
176
     1
290
     1
176
     1
290
     1
176
     1
290
     0
176
     1
290
     0
176
     1
290
     0
176
     1
290
     0
176
     1
290
     0
176
     1
290
     0
176
     1
 90
       50
176
     1
 40
0.0
176
     1
 40
1.0
176
     1
 90
        0
176
     1
 62
    18
420
        0
176
     1
 90
       50
176
     1
 90
        3
176
     1
 62
     5
420
      255
176
     1
290
     0
176
     1
 90
       50
176
     1
 90
       50
176
     1
 90
       50
176
     1
290
     0
176
     1
 90
       50
176
     1
 62
   256
176
     0
 40
1.0
176
     0
 90
        2
176
     1
  1
strokes_ogs.tif
176
     1
290
     0
176
     1
 40
1.0
176
     1
 40
1.0
176
     1
  0
VISUALSTYLE
  5
A6
102
{ACAD_REACTORS
330
99
102
}
330
99
100
AcDbVisualStyle
  2
Thicken
 70
    13
177
     3
291
     1
 70
    58
 90
        2
176
     1
 90
        2
176
     1
 90
        1
176
     1
 90
        0
176
     1
 40
0.6
176
     1
 40
30.0
176
     1
 62
     7
420
 16777215
176
     1
 90
        1
176
     1
 90
        4
176
     1
 62
     7
176
     1
 62
   257
176
     1
 90
        1
176
     1
 90
        1
176
     1
 40
1.0
176
     1
 90
       12
176
     1
 62
     7
176
     1
 40
1.0
176
     1
 90
        1
176
     1
 90
        6
176
     1
 90
        2
176
     1
 62
     7
176
     1
 90
        5
176
     1
 90
        0
176
     1
 90
        0
176
     1
290
     0
176
     1
 90
        1
176
     1
 40
0.0
176
     1
 90
        0
176
     1
290
     0
176
     1
290
     1
176
     1
290
     1
176
     1
290
     0
176
     1
290
     0
176
     1
290
     0
176
     1
290
     0
176
     1
290
     0
176
     1
290
     0
176
     1
 90
       50
176
     1
 40
0.0
176
     1
 40
1.0
176
     1
 90
        0
176
     1
 62
    18
420
        0
176
     1
 90
       50
176
     1
 90
        3
176
     1
 62
     5
420
      255
176
     1
290
     0
176
     1
 90
       50
176
     1
 90
       50
176
     1
 90
       50
176
     1
290
     0
176
     1
 90
       50
176
     1
 62
   256
176
     0
 40
1.0
176
     0
 90
        2
176
     1
  1
strokes_ogs.tif
176
     1
290
     0
176
     1
 40
1.0
176
     1
 40
1.0
176
     1
  0
VISUALSTYLE
  5
A0
102
{ACAD_REACTORS
330
99
102
}
330
99
100
AcDbVisualStyle
  2
Wireframe
 70
     5
177
     3
291
     0
 70
    58
 90
        0
176
     1
 90
        2
176
     1
 90
        0
176
     1
 90
        0
176
     1
 40
0.6
176
     1
 40
30.0
176
     1
 62
     7
420
 16777215
176
     1
 90
        1
176
     1
 90
        4
176
     1
 62
     7
176
     1
 62
   257
176
     1
 90
        1
176
     1
 90
        1
176
     1
 40
1.0
176
     1
 90
        0
176
     1
 62
   257
176
     1
 40
1.0
176
     1
 90
        1
176
     1
 90
        6
176
     1
 90
        2
176
     1
 62
     7
176
     1
 90
        3
176
     1
 90
        0
176
     1
 90
        0
176
     1
290
     0
176
     1
 90
        1
176
     1
 40
0.0
176
     1
 90
        0
176
     1
290
     0
176
     1
290
     1
176
     1
290
     1
176
     1
290
     0
176
     1
290
     0
176
     1
290
     0
176
     1
290
     0
176
     1
290
     0
176
     1
290
     0
176
     1
 90
       50
176
     1
 40
0.0
176
     1
 40
1.0
176
     1
 90
        0
176
     1
 62
    18
420
        0
176
     1
 90
       50
176
     1
 90
        3
176
     1
 62
     5
420
      255
176
     1
290
     0
176
     1
 90
       50
176
     1
 90
       50
176
     1
 90
       50
176
     1
290
     0
176
     1
 90
       50
176
     1
 62
   256
176
     0
 40
1.0
176
     0
 90
        2
176
     1
  1
strokes_ogs.tif
176
     1
290
     0
176
     1
 40
1.0
176
     1
 40
1.0
176
     1
  0
VISUALSTYLE
  5
180
102
{ACAD_REACTORS
330
99
102
}
330
99
100
AcDbVisualStyle
  2
X-Ray
 70
    25
177
     3
291
     0
 70
    58
 90
        2
176
     1
 90
        2
176
     1
 90
        1
176
     1
 90
        1
176
     1
 40
0.5
176
     1
 40
30.0
176
     1
 62
     7
420
 16777215
176
     1
 90
        1
176
     1
 90
        0
176
     1
 62
     7
176
     1
 62
   257
176
     1
 90
        1
176
     1
 90
        1
176
     1
 40
1.0
176
     1
 90
        8
176
     1
 62
     7
176
     1
 40
1.0
176
     1
 90
        1
176
     1
 90
        6
176
     1
 90
        2
176
     1
 62
     7
176
     1
 90
        3
176
     1
 90
        0
176
     1
 90
        0
176
     1
290
     0
176
     1
 90
       13
176
     1
 40
0.0
176
     1
 90
        0
176
     1
290
     0
176
     1
290
     1
176
     1
290
     1
176
     1
290
     0
176
     1
290
     0
176
     1
290
     0
176
     1
290
     0
176
     1
290
     0
176
     1
290
     0
176
     1
 90
       50
176
     1
 40
0.0
176
     1
 40
1.0
176
     1
 90
        0
176
     1
 62
    18
420
        0
176
     1
 90
       50
176
     1
 90
        3
176
     1
 62
     5
420
      255
176
     1
290
     0
176
     1
 90
       50
176
     1
 90
       50
176
     1
 90
       50
176
     1
290
     0
176
     1
 90
       50
176
     1
 62
   256
176
     0
 40
1.0
176
     0
 90
        2
176
     1
  1
strokes_ogs.tif
176
     1
290
     0
176
     1
 40
1.0
176
     1
 40
1.0
176
     1
  0
DICTIONARYVAR
  5
F0
102
{ACAD_REACTORS
330
66
102
}
330
66
100
DictionaryVariables
280
     0
  1
1:1
  0
DICTIONARYVAR
  5
EF
102
{ACAD_REACTORS
330
66
102
}
330
66
100
DictionaryVariables
280
     0
  1
Standard
  0
DICTIONARYVAR
  5
89
102
{ACAD_REACTORS
330
66
102
}
330
66
100
DictionaryVariables
280
     0
  1
Standard
  0
DICTIONARYVAR
  5
1B7
102
{ACAD_REACTORS
330
66
102
}
330
66
100
DictionaryVariables
280
     0
  1
Imperial24
  0
DICTIONARYVAR
  5
1B8
102
{ACAD_REACTORS
330
66
102
}
330
66
100
DictionaryVariables
280
     0
  1
Imperial24
  0
DICTIONARYVAR
  5
67
102
{ACAD_REACTORS
330
66
102
}
330
66
100
DictionaryVariables
280
     0
  1
2
  0
DICTIONARYVAR
  5
6B
102
{ACAD_REACTORS
330
66
102
}
330
66
100
DictionaryVariables
280
     0
  1
1
  0
DICTIONARYVAR
  5
14D
102
{ACAD_REACTORS
330
66
102
}
330
66
100
DictionaryVariables
280
     0
  1
0
  0
DICTIONARYVAR
  5
14E
102
{ACAD_REACTORS
330
66
102
}
330
66
100
DictionaryVariables
280
     0
  1
0
  0
DICTIONARY
  5
188
330
97
100
AcDbDictionary
280
     1
281
     1
  3
FBXASSET
360
189
  0
DICTIONARY
  5
186
330
96
100
AcDbDictionary
280
     1
281
     1
  3
FBXASSET
360
187
  0
DICTIONARY
  5
110
330
98
100
AcDbDictionary
280
     1
281
     1
  3
FBXASSET
360
18A
  0
DICTIONARY
  5
29AE
330
87
100
AcDbDictionary
280
     1
281
     1
  3
ACAD_ROUNDTRIP_2008_TABLESTYLE_CELLSTYLEMAP
360
29AF
  0
XRECORD
  5
189
102
{ACAD_REACTORS
330
188
102
}
330
188
100
AcDbXrecord
280
     1
 70
     1
 90
429727718
  1
508B35C9-AEE7-456F-BE74-D52651303AC6
310
504B03040A0000080000B670623B3DEE336E79000000790000001B0000006175746F6465736B2D64657369676E2D7061636B6167652E786D6C3C3F786D6C2076657273696F6E3D22312E302220656E636F64696E673D227574662D3822203F3E3C666F726D6174733E3C666F726D61743E687474703A2F2F736368656D612E
310
6175746F6465736B2E636F6D2F64657369676E2D7061636B6167652F323030393C2F666F726D61743E3C2F666F726D6174733E504B0304140006080800B670623BD486FD9CA0000000F4000000130000005B436F6E74656E745F54797065735D2E786D6C7D8EC10E82300C865F65E91D8A1E8C310C0EEA1BF002731658846E
310
D98AC1B77784ABF1D8FE5FBFBF75BBCE937A534CCEB38643598122B6FEE978D0B0485F9C41B54DDD7D022595594E1A469170414C76A4D9A4D207E29CF43ECE46F218070CC6BECC4078ACAA135ACF422C856C0E68EA1BF5669944DDD7BCDE7B1F8E415D77AECB980613C2E4AC91FC167A2B244592486606FC29C8FD7F045B9A
310
EF7053A7E60B504B0304140006080800B670623B28ED286BEB0000007C01000008000000636F72652E786D6C8D90416EC3201045AF82665B6183218D6D61A254764FD00B204C5C94182C03558F5F9C3852BBEB6A467FFE9B197D71FA9E6FE8CBACC17AD7012D0820E3B41FAD9B3A48F1826B40272956EFE32F1B20A766D3C1
310
268314D3EAD3B24BDABB685CCCAAF3A3D94515828980F42D371D04FD696655A814B3235C8B45E9AB9A4C419F5D8653B2237A1CB163DE672FD6AC209BF3C08E0D1B30EB19C3FC9D72FCC6EB231EFA33EDE96BDD341517E5064B11EDFCBCAF57A3A2194156843498524CAA0FCA5B7268F9E185D42D21A2DCEC7FA0B48CFF8492
310
759155FBBB0F2C80A4F991FB408A72CB22977B50B96EB9C91F504B0304140006080800B670623B55019EA25F0000007C00000007000000636E782E786D6C4DCB3B0E80201045D1AD90E915ED2CF8AC45050C11660C8261F98AB1B07AC9C97D42D718D865D3E909258CFD00CCE24AC6E326A164D74DC0B4128928FF32603847
310
2BA13128B1252AC747C6BAB984FC68F0B87FE8960A5C09FE86CFB69FBA01504B0304140006080800B670623B7BC41AC871010000D40300000C0000006662782F636F72652E786D6CC553ED6E8320147D15C2DF4501B56B6D90A64BBB27D80B50A5CE54C120983EFEAE1F4DD7A56BBA5FF3879273EEE59E7310BE393735EA95
310
ED2AA333CC428A91D2B9292A5D66D8BB63B0C26823B835C67D2BC348CB46657880B1E0A535BE9DA1DC68A7B403549B42CDA0EC3AE530CA6B5864B8CB3F552343E91D5474A7B095F949962A6421D0502778E72C0840D390E18DC5F170E664C205F7BE2A66B62A605A75AC94C522DDEEE3651AEF837817C741F2CE92E02D592D
310
83FD6ECB76EC7595A651C2C9D02CB8AB9A8BBADC2AE954814544691A3016D0E883256BBA58278B17BA5A53CAC9507ED3E4DBE2C9265F691747B3DCA9ADC382819091F8E1162272A8933DE82182932144F88C09DF060D8140C84E1EEA8B8F1340BDCA9DB1093085F157AA97B557309586747CD0EF0B4EA64E983A6E0EAEEFCE
310
889E9EF17847386AA94B30211D2C0FDE0D3AF9A4610EAD5536E8DD1969631B593F67E381C33F5157F17725E5A636F6BF1491F980C8FC7B90E13E8A2F504B0304140006080800B670623B70102A487D0000009D0000000B0000006662782F636E782E786D6C4DCCD10A83201886E15B91FFDC95A5C30335ACCDFB886521330D
310
A76397BF1A1DECE883878F57749FD5A3B74D2F17830472A901D9F088930B8B849267CC01754AA418F3DF0D5018572BE160506249B16C274D761E8BCFBB7A179E27F65CB39A0F14D396184C9921B81F34C3ACA1B4B99ABB6E6F062A25AA5F69DF23ACBE504B0304140006080800B670623B3610CA3329010000120200003100
310
00006662782F42384135303843342D343331462D343546312D424341352D3532343432364645413344462F636F72652E786D6C8D515B6EC32010BC0AE22B55850D0E446E848992B43E412FE000495162B07854397EA176A4F62F3F2C9A9D991D58BEBB8F37F0AD7D30CE76905418026DA553C65E3A98E219B510EC04F7CEC5
310
3F3408EC30EA0E16180A7EF12E4D0B249D8DDAC68C5AA7F4020E21E80881BCE54B0783FCD2E3500D296646B856D320AFC34557A4CAEDCC133C449F0380794839A138B47B86DB2345744D7A44594FD0E1B867883594369BFE63BF7EEF793D0B054FC9A8456E548E63CE46FB674D8A58F068C6477CE9F510B582A2C1F80D1182
310
70F349E816B32D65AFB8DD62CCEB42FF274A937A52948C8DEB66893BCB021484D7734370E5D2E9F608A3EF93F3119479ABA0E50B14B8C298119A43CCC4FCFCECB8A18B6388CEE7EF5D5D4F994BD86CBBA182D76543B9FCAE2FD7B24DF103504B0304140006080800B670623B1B8617914E0100003303000030000000666278
310
2F42384135303843342D343331462D343546312D424341352D3532343432364645413344462F636E782E786D6CD593C16EC32010447F0571AD6CE3D489D20813A9877E410FBD62D82434182CC055F3F75D1292E692438FBD206B7698593D61BEFD1E2DF982108D773D6D6B460938E5B571FB9ECE6957AD29D90A1EBC4F7736
310
4A9C1CA1A759A682EF839FA72269D8C9D92654AD71C72206887E0E0A22CAF926B15E498B01E0AA19451807D01A34B919F16B070157417138917400F2F6FA41FCF0092A45DEE414C19BDC21783E4BD39D891265658C3D8DEA00A3ACE59CBC8678ACB54CB26EEB6BD7839D7E9348BE70AD9C8321B9BCA7F9A4A26C542347DEE0
310
50F09802D22BA6749A800A394DD62899107273365E3C82CFC6A55557BC06C10774B7ABE7AEC3B0F34CF06446280E154026D0542C187BA9DAB6628BF7B6DBB0E5A65B3EB1F58631DE64BBE083F7B65CC218087E22CABB042E51D1F2268F1FE12B3EA24D40D63E9CFE00120194D60B9D5BC67FE6D39CDF37E20AF817881F504B
310
0304140006080800B670623BBFEF2E3B690500003C100000340000006662782F42384135303843342D343331462D343546312D424341352D3532343432364645413344462F6F626A656374732E786D6CAD575D739B3814FD2B0CFB0C98D84E931D4227B6938EA793B6534F3BFB90198F0099B001899144EAECAFDF231018B0
310
D37A3FFC609090EEE7B94757C1FB7D915B2F54C88CB31BDB7727B64559CC938CA53776A576CE956DBD0F03C1B9EA2DB32D460A7A63EB693B0C52C1ABD24C257447AA5C8D66EF177F5832A68CDA569C13296F6C193FD182B8A4523CA1F2D94D88226EBADBBBBEDB2C1C8A4D05299F46424B222853B014F30C52ACC6287F389C
310
D85E1878FA7B18E87FB36AFAF62AAFF667A83F635211161F291B8999FAB3D5DDC5FCDA99CF6653677679E13B8BFBC5CAF1DF4D27CBCBE5F2FAF6EE1A8AA51290642C117467871F101B91C581D77CEA2C36869F3229E68CD1B8F61F1ED6361B89092D294B90C78C4A68EB793D190E7D1D9BDEE7A91E1B95FDE9F3BCEAEFE809
310
6A6D6F9F7D4B79F4275C90E7A04248AA51D5C4C738DAE06F72885AC4796EBE65D22A88A22223B995679120E2D50EB1542F098381188D4EA111AE3DB043FF20AF6F2B4AE3D7D83D65E5AECA730D4D3BAC91BD05FEA992B565D95F549CD6069B90AB2A63EACA38A45E4B6A87D781574F86817E4C2FCCC72690D62E2729520E37
310
9BAF234797BAF6D62B3BFC781FED37BA1E4F2B2F052FA9501A3E80569BB8F6A9A364D4FA67654E6F803383981F82F21591FF84F23D9882BC896C3FDBCF8C162508933B2E0AE4C69DD43F6BD2BE38DDDBF10BF86CB4FA784D37F3AF16075E67EC9030DECA1FC0A55373F5DFF3378C591FA9BDF485C10B0A8C8BA909E5262639
310
A8E72163488806A595734C81CB77D1DE0ED7604A303B76913CEC0272F412782FF88EFF4636D8AA56DF7B322474C4B767303F625997056C7B032C473C592B36CEBD15F3F9FF5233B7ABCDC74D257624A60F8658567497B14CE1EC3C80B76FD02011038F9EE9EB0F2E12387A9C844D3F09855125116D1D731DF8B43D2CF4E0A0
310
79A020C6BE946BCE0B7EA1E1219331CD73C228AF5A2DDD31A4B1DA918CE91350854D40A71723140BFA92E94E62B0626016CEFA5864A50E5977E8753CEDBEE1CBB7F52780D20E17AF0BA0F5F9B02A3AD07DCC732EB6D1EBB661421BE0C39E21BABF0FE16D22EA6929407C8DE596724C88B749B6DB5512BC7B228ADFD7CB7EA6
310
3A22397E690BA8D5D8D4E40CEC8CDA23C2C0B7D5898640101CEC9C6D331CE328CB93CAFBBAC70A642DF70DF95155945B52F08AA973C23469FD69ADEF84F7BB18F983A8F8C90E37F5D35980B2139A1C523540813E824EF83448CF7C72B598CE97D7CEEDDDDD3B6736BFBC771677EF66CE6A7E7139F7A793E9EDF2B2B3A8B624
310
0CDA13AA5F8388264EC4A0129909F3B7F5A16CEDF08128E97D680ACA4B9BE7B7B58BB638F0B00700EF36AE8B32A705658A68F83EE897FC2B41573190D1CCAF0B92D233A47CFEB019D9809933F67DD1A5467F8CF69AD9A5AE859342D45355448C64F968A371DC2D596ADC6E43D93D1B466F877A64E2893E54F23C4B40388995
310
525E5005DA3983ED45412510D3EFCA13737B3863F74BD30F2A12E5B4B5E489A025CE25500DB855B11ACE5BBFA185D35DD48D8DC3CE7DC69F2944DB42AA6F6CF09BCA622ADD08C7A36E7C6AE18000BAB08E040135C2D21C9D75B3A91B77BB746C403F38018DFE6EC939DD92F16B40BC05294B9CDA035AAD6D330AE27FE4786B
310
8E45145EA34A75BE1C263A676A35A8ACC6297337400BF16C54EF515F3F77CB77EB3583889C754FFA29081AA98E2222ADEF05DA3E63D2EDEA8B8756C05A7FB6CABC4A91CBF325398202CC952E70A008A830324BA200D5E5EF8F5F04C75DB4B0EE3340E071C98B823333B83577596BF3849B69F2085AA0FAFA212F26BEFF5877
310
FDE622B28D88A42E49E43326DA82D31E8CB006401E1DA726059ECEC168F97A6599036306A135688F9AD2E61A6EA178F4CD51974A9F2CCB9F36FE5EBD14601068D9C3BF01504B0304140006080000B670623B000000000000000000000000350000006662782F42384135303843342D343331462D343546312D424341352D35
310
32343432364645413344462F76657274696365732E62696E504B0304140006080800B670623BF270F1330600000004000000360000006662782F42384135303843342D343331462D343546312D424341352D3532343432364645413344462F747269616E676C65732E62696E636660600000504B0304140006080000B67062
310
3B000000000000000000000000370000006662782F42384135303843342D343331462D343546312D424341352D3532343432364645413344462F617474726962757465732E62696E504B0304140006080800B670623B08DA0BD19000000041010000360000006662782F42384135303843342D343331462D343546312D4243
310
41352D3532343432364645413344462F6469726563746F72792E786D6C858F410AC3201045AF22B36F53E9A60B35CBEEBAE80D244E44489C6234F4F835464A48035D0DF398FF9F8AF63D0E6CC63039F212F8F9020C7D47C6792B21C5FE7403D62A1188E2E60C98D7234A5830286103A55745067B9D86B8A3CF9C7F90C11DE6
310
07FB144396D7B6A82D282E9A152AD114D5EF2CB866EEE831B8EEA07A7BB5A8D7D61A2BAAEB7FD5F70921FF497D00504B0304140006080800B670623B3B4606F3FE000000A00100003B0000006662782F42384135303843342D343331462D343546312D424341352D3532343432364645413344462F7265736F75726365732F
310
636F72652E786D6C8D504B6E833010BD0A9A6D65B08134808CA354A427E8052C332156828DFCA97AFC9A40A576D7CDCCE87D344F8F9FBEE647F689CE6B6B7A6039850C8DB2A336530F315C4903D94970676DF82583CCC8197B5861107C72362E3BA4AC096842428D1D7107A5F71820538F74F4E0D50D6799CB1892C2DFF345
310
AABB9C306779A2934E701F5C0A906D4FD609C2A1B7D129F4BCD858C163D4E3AED163FAA9AF1A1D88F67CA98E6D35906AA82A52BFB39ABCD5CD915C86331BD86BD3B665CD8BD52C78D0F34F46E550061C419494B6843142CB0F5677F4D0D58717DA7494F26295FF31C565FCA7296A13AA728FBBD93C0896823C09C18BB5AFB4
310
9E65A6BD762BBE01504B010214000A0000080000B670623B3DEE336E79000000790000001B00000000000000000000000000000000006175746F6465736B2D64657369676E2D7061636B6167652E786D6C504B01021400140006080800B670623BD486FD9CA0000000F40000001300000000000000000000000000B2000000
310
5B436F6E74656E745F54797065735D2E786D6C504B01021400140006080800B670623B28ED286BEB0000007C010000080000000000000000000000000083010000636F72652E786D6C504B01021400140006080800B670623B55019EA25F0000007C000000070000000000000000000000000094020000636E782E786D6C50
310
4B01021400140006080800B670623B7BC41AC871010000D40300000C00000000000000000000000000180300006662782F636F72652E786D6C504B01021400140006080800B670623B70102A487D0000009D0000000B00000000000000000000000000B30400006662782F636E782E786D6C504B01021400140006080800B6
310
70623B3610CA3329010000120200003100000000000000000000000000590500006662782F42384135303843342D343331462D343546312D424341352D3532343432364645413344462F636F72652E786D6C504B01021400140006080800B670623B1B8617914E010000330300003000000000000000000000000000D10600
310
006662782F42384135303843342D343331462D343546312D424341352D3532343432364645413344462F636E782E786D6C504B01021400140006080800B670623BBFEF2E3B690500003C10000034000000000000000000000000006D0800006662782F42384135303843342D343331462D343546312D424341352D35323434
310
32364645413344462F6F626A656374732E786D6C504B01021400140006080000B670623B0000000000000000000000003500000000000000000000000000280E00006662782F42384135303843342D343331462D343546312D424341352D3532343432364645413344462F76657274696365732E62696E504B010214001400
310
06080800B670623BF270F133060000000400000036000000000000000000000000007B0E00006662782F42384135303843342D343331462D343546312D424341352D3532343432364645413344462F747269616E676C65732E62696E504B01021400140006080000B670623B00000000000000000000000037000000000000
310
00000000000000D50E00006662782F42384135303843342D343331462D343546312D424341352D3532343432364645413344462F617474726962757465732E62696E504B01021400140006080800B670623B08DA0BD1900000004101000036000000000000000000000000002A0F00006662782F42384135303843342D3433
310
31462D343546312D424341352D3532343432364645413344462F6469726563746F72792E786D6C504B01021400140006080800B670623B3B4606F3FE000000A00100003B000000000000000000000000000E1000006662782F42384135303843342D343331462D343546312D424341352D3532343432364645413344462F72
310
65736F75726365732F636F72652E786D6C504B0506000000000E000E0080040000651100000000
  0
XRECORD
  5
187
102
{ACAD_REACTORS
330
186
102
}
330
186
100
AcDbXrecord
280
     1
 70
     1
 90
429727718
  1
887D55A9-D0DD-414E-B741-A7DCD4DA2B4C
310
504B03040A0000080000B670623B3DEE336E79000000790000001B0000006175746F6465736B2D64657369676E2D7061636B6167652E786D6C3C3F786D6C2076657273696F6E3D22312E302220656E636F64696E673D227574662D3822203F3E3C666F726D6174733E3C666F726D61743E687474703A2F2F736368656D612E
310
6175746F6465736B2E636F6D2F64657369676E2D7061636B6167652F323030393C2F666F726D61743E3C2F666F726D6174733E504B0304140006080800B670623BD486FD9CA0000000F4000000130000005B436F6E74656E745F54797065735D2E786D6C7D8EC10E82300C865F65E91D8A1E8C310C0EEA1BF002731658846E
310
D98AC1B77784ABF1D8FE5FBFBF75BBCE937A534CCEB38643598122B6FEE978D0B0485F9C41B54DDD7D022595594E1A469170414C76A4D9A4D207E29CF43ECE46F218070CC6BECC4078ACAA135ACF422C856C0E68EA1BF5669944DDD7BCDE7B1F8E415D77AECB980613C2E4AC91FC167A2B244592486606FC29C8FD7F045B9A
310
EF7053A7E60B504B0304140006080800B670623BBC1638F5EC0000007C01000008000000636F72652E786D6C8D90416EC3201045AF82665B61836BE2D8C24471DB9CA01740401C94182C03558F5F9C3852BBEB6A467FFE9B197D7EF89E6EE8CB2CC17AD7032D0820E394D7D68D3DA478C67B4007C117EFE32F1B202727D3C3
310
2A83E0E3E2D3BC49CABB685CCCAAF3DA6CA20CC14440EA969B1E82BA98491632C5EC08D76296EA2A4753D06797E194AC468F2356E77DF66CCD02825543D50CACC62D39ED70FDC68EB8FD68F6F8787A6784342D1DDA1D2F5758F068A7E77DB518198D065111D2624A31A93E69DD11D6D5EC85EC3B4278B9DAFF4069D6FF8492
310
75F1B5DADE7D600104CD8FDC0782976B16B9DC83CA75CD4DFC00504B0304140006080800B670623B55019EA25F0000007C00000007000000636E782E786D6C4DCB3B0E80201045D1AD90E915ED2CF8AC45050C11660C8261F98AB1B07AC9C97D42D718D865D3E909258CFD00CCE24AC6E326A164D74DC0B4128928FF326038
310
472BA13128B1252AC747C6BAB984FC68F0B87FE8960A5C09FE86CFB69FBA01504B0304140006080800B670623B3586FFB671010000D40300000C0000006662782F636F72652E786D6CC553ED6E8320147D15C2DF4541A76D6D90A6DDD627D80B50A4CE54C120983EFEAE1F4DD7A55BBA5FF3879273EEE59E7310B6393735EA
310
95ED2AA3731C851423A5A5292A5DE6D8BB63B0C268C39935C67D29C3488B46E578803167A535BE9D2169B453DA01AA4DA16650749D7218C91A1639EEE4876A4428BC838AEE14B6429E44A9C228041AEA38EB9C0501681A32BC313F1ECE8C4C3867DE57C5CC56054CAB8E95B298A7F12E5EEED224C8E87E11242FE936C8DE96
310
AB60BB7F4D295D66D12E5B30323473E6AAE6A24E5A259C2A308F29CD82280A68FC1E256B9AAE93F489AED694323294DF34F9B678B0C957DA3DC7B3DCA9ADC33C022123F1CD2D44E450277AD04338234388F01913BE0D1A0281909D38D4171F27807A259DB1093085F157AA17B557309586747CD0CF0B46A64E983A6E0EAEEF
310
CE881F9EF1FB8E70D44297604238581EBC1B74B249C31C5AAB6CD0BB33D2C636A27ECCC62F0EFF445DC5DF95244D6DEC7F2922F30191F9F720C37DE49F504B0304140006080800B670623B4220A0FF7D0000009D0000000B0000006662782F636E782E786D6C4DCCD10A83201886E15B91FFDCE542CB0335D0EC3E6259C84A
310
C3E9D8E5AF46073BFAE0E1E315DD675BD1DBA5978F41C2FD4600B9F088930F8B849267CC01754AA418F3DF0D50183727E164506249B1EC174D6E1ECB9A0F5D7D785E68DB8151CD286E5A5363CA6B8A39E90D36D40E96B086F55A43A544F52B1D7B86D517504B0304140006080800B670623B2FA3FEDE290100001202000031
310
0000006662782F45374635344235342D363743322D343832342D383044432D4334454645303536354442422F636F72652E786D6C8D515B6EC32010BC0AE22B55850D2E386E848994D7097A0117488A1283C5A3CAF10BB523B57FF961D1ECCCECC0F2ED7DBC816FED8371B687A4C210682B9D32F6D2C314CFA883602BB8772E
310
FEA141608751F7B0C050F08B77695A20E96CD43666D43AA5177008414708E42D5F7A18E4971E876A483133C2B59A06791D2EBA22556E679EE021FA1C00CC43CA09C5717D6274C7286AD7FB06D1AEA1A8C3873DDAD3E3E98859CB0EBB1DAF67A1E02919B5C88DCA71CCD968FFAC49110B1ECDF8882FBD1EA256503418BF2342
310
106E3E08DD60B6A1EC15771B8C795DE8FF4469524F8A92B1F1AD59E2CEB20005E1F5DC105CB9F4797B84D1F7C9F908CABC55D0F2050A5C61CC1AD2F27A26E6E767C7962E8E213A9FBF7775FDCC5CC266DB960A5E970DE5F2BBBE5CCB36C50F504B0304140006080800B670623B1B8617914E01000033030000300000006662
310
782F45374635344235342D363743322D343832342D383044432D4334454645303536354442422F636E782E786D6CD593C16EC32010447F0571AD6CE3D489D20813A9877E410FBD62D82434182CC055F3F75D1292E692438FBD206B7698593D61BEFD1E2DF982108D773D6D6B460938E5B571FB9ECE6957AD29D90A1EBC4F77
310
364A9C1CA1A759A682EF839FA72269D8C9D92654AD71C72206887E0E0A22CAF926B15E498B01E0AA19451807D01A34B919F16B070157417138917400F2F6FA41FCF0092A45DEE414C19BDC21783E4BD39D891265658C3D8DEA00A3ACE59CBC8678ACB54CB26EEB6BD7839D7E9348BE70AD9C8321B9BCA7F9A4A26C542347DE
310
E050F09802D22BA6749A800A394DD62899107273365E3C82CFC6A55557BC06C10774B7ABE7AEC3B0F34CF06446280E154026D0542C187BA9DAB6628BF7B6DBB0E5A65B3EB1F58631DE64BBE083F7B65CC218087E22CABB042E51D1F2268F1FE12B3EA24D40D63E9CFE00120194D60B9D5BC67FE6D39CDF37E20AF817881F50
310
4B0304140006080800B670623B29652116630500003C100000340000006662782F45374635344235342D363743322D343832342D383044432D4334454645303536354442422F6F626A656374732E786D6CAD575D739B3814FD2B0CFB0C989834C90EA1639B24E3E9A6EDD4D3CE3E64C623834CD8006224913AFDF57B040203
310
B65BEF871F0C12D2FD3CF7E8CA7FBFCB33E3957291B2E2D674ED8969D02262715A24B76625B7D6B569BC0F7CCE98EC2D338D82E4F4D654D366E0279C55A59E8AE99654991CCDDECFFF3444440B6A1A514684B83545F44C7362934AB2988A173B2692D8C97667BB76B3702836E1A47C1E092D09A78584A5982F20C5688C7287
310
C389E904BEA3BE07BEFAD7ABA6A75739B53F43FD69212429A20365233153D70BEF2E2E6FAC4BCF9B5ADEBB0BD79ADFCF43CBBD9A4E16EF168B9BD9DD0D140BC921495BC2E9D60C1E101B9E46BED37CEA2CD6861F3329624541A3DA7F7858DBAC25C6B4A4458C3CA654405BCFEBC970E8AAD8F43E4FD558ABEC4F9FE7557F47
310
4F506B7BFBEC5BCA367FC105710E2AB8A00A554D7CB4A30DFE26FBA86D18CBF4B75418399194A72433B274C3097F33032C554B027F2046A1932B842B0FCCC0DDCBEBDB8AD2F835768F59B9ADB24C41D30C6A64AF817F2A456D59FA83F2E3DA60137255A585BCD60EC9B7929AC18DEFD49381AF1ED30BFDB109A4B1CD488294
310
C3CDE6EBC8D185AABD6568061FEE37BB95AAC7E3CA4BCE4ACAA5820FA0D526AE7DAA2869B5EE5999531BE0CC20E6FBA07C41E43FA27CF7A6206F3CDD793B4F6B919C1462CB788EDCD893FA674CDA17AB7B3B7C019F8D561FAEE966FED562DFE98C1D12C6A9FC015C2A35D7FF3D7FC398F591DA4B5FE0BFA2C0189FEA50AE22
310
92817A1ED3020951A03432862970F976B33383259812CC8E5D240BBA801CBCF8CE2BBEE3BF910DB6AAD5F79E05123AE2DB33981FB1ACCB02B69D00CB014FD68AB573A7627EF9BFD4CC2C5C7D58557C4B22FAA88925A4DBB44825CECE3D78FB060D1231F0E885BE7D673C86A3874958F593906B5502D1563157814FDAC3420D
310
F69A070A22EC4B98E23CFF171A1E5311D12C23056555ABA53B8614563B92D17D02AAB009E8F46284624E5F53D5490C560CCCC2591FF1B45421EB0EBD8EA7ED13BE7C5D7E0428CD60FEF60779EB13E6664FF711CB185F6FDED60D139A001FF60CD1FD6D086F1D51474901E26B2CB794A343BC8ED3EDB612E0DD2351FCB65CF4
310
33D511C9E14B5B40ADC6A6263DB0336A8F700DDF56271A024E70B0B3629DE21847591E55DED73D56206AB927E46FAABC5C939C55853C274C93D69FD6FA4E78BF8B11DF898C9ECD60553FAD39283BA6F18984AA23E8884F83F45C5F5F859797B31B2B9C84A1E5B9DE9D35BFF25C6B76152E422F9C5DCC3D847F5801ED09D5AF
310
41441327A25FF15487F9EB725FB666F048A4701E9A827292E6F97569A32DF61DEC01C0BB8DCBBCCC684E0B49147C1FD54BF685A0AB18C868E6973949E819523E3DAC463660E68C7D9F55A9D1EFA3BD7A76A16AE1A810F95CE59B82A4D968A376DC2E8B44BBDD86B27B368CDE0ED548C7137DA860591A83706223A12CA712B4
310
7306DBF39C0A20A6DF95C7FAF670C6EED7A61F946493D1D6926782963813403548A78AE470DEF80D2D9CEAA26E4D1C76F60BFE74219A06527D6B82DF641A51616F703CAAC6A7160E08A00BEB4810A0274592A1B36E3675E36E978A0DE80727A0D6DF2D39A75BD27E0D8837276589537B40ABB56D5A41F48F1C6FCD3188C4EB
310
A6929D2FFB89CE995A4D00AE813BDD032DC48B56BD437DFDDC2DD7AED70C2272D63DE9A72068A45A92F0A4BE17A8A06B9366E16707AD80B1FC649459952097E74BB23805982B55E0401150A165964402AA8BDF9F3E7386BB686EDCA780C0D382E5392BF460A6EFB2C6EA1937D3F809B440D5F5435C4C5CF7A9EEFAF54564BD
310
2182DA24162F98680B4E7930C21A0079709CEAEB99A372305ABE0C0D7D6078105A83F6A0296DAEE1068A47DD1C55A9F4C9B2FC69E3EFD44B81028E963DF81B504B0304140006080000B670623B000000000000000000000000350000006662782F45374635344235342D363743322D343832342D383044432D433445464530
310
3536354442422F76657274696365732E62696E504B0304140006080800B670623BF270F1330600000004000000360000006662782F45374635344235342D363743322D343832342D383044432D4334454645303536354442422F747269616E676C65732E62696E636660600000504B0304140006080000B670623B00000000
310
0000000000000000370000006662782F45374635344235342D363743322D343832342D383044432D4334454645303536354442422F617474726962757465732E62696E504B0304140006080800B670623B08DA0BD19000000041010000360000006662782F45374635344235342D363743322D343832342D383044432D4334
310
454645303536354442422F6469726563746F72792E786D6C858F410AC3201045AF22B36F53E9A60B35CBEEBAE80D244E44489C6234F4F835464A48035D0DF398FF9F8AF63D0E6CC63039F212F8F9020C7D47C6792B21C5FE7403D62A1188E2E60C98D7234A5830286103A55745067B9D86B8A3CF9C7F90C11DE607FB144396
310
D7B6A82D282E9A152AD114D5EF2CB866EEE831B8EEA07A7BB5A8D7D61A2BAAEB7FD5F70921FF497D00504B0304140006080800B670623B6378F24DFF000000A00100003B0000006662782F45374635344235342D363743322D343832342D383044432D4334454645303536354442422F7265736F75726365732F636F72652E
310
786D6C8D504B6E833010BD0A9A6D65B0094E42641C85B639412F6099496225D8C89FAAC7AF09546A77DDCC8CDE47F3F4C4F16B7C149FE88371B603565228D06A37187BED20C50BD9437194C23B177FC9A0B06AC40E6618A4B87A97A615D2CE46B431A3D60DB8822A048C50E8473E3A08FA86A32A558A5911EEE5A4F45D5DB1
310
6465A6B34E8A107D0E502C4FE609D26370C96B0CA25A58295232C3AA3143FE692E063D485EF7F5AEE71BD2D2F39634AFFC44DAF7DD9E9CCE6F9CD25DCBFA762BAAD92C4534E34F46ED51451C40D694B6843142EB0FD61C283F34FC85EE0F948A6A96FF31A569F8A729191B37F51A77B105902C0779125254735F793DCBCC7B
310
EE567E03504B010214000A0000080000B670623B3DEE336E79000000790000001B00000000000000000000000000000000006175746F6465736B2D64657369676E2D7061636B6167652E786D6C504B01021400140006080800B670623BD486FD9CA0000000F40000001300000000000000000000000000B20000005B436F6E
310
74656E745F54797065735D2E786D6C504B01021400140006080800B670623BBC1638F5EC0000007C010000080000000000000000000000000083010000636F72652E786D6C504B01021400140006080800B670623B55019EA25F0000007C000000070000000000000000000000000095020000636E782E786D6C504B010214
310
00140006080800B670623B3586FFB671010000D40300000C00000000000000000000000000190300006662782F636F72652E786D6C504B01021400140006080800B670623B4220A0FF7D0000009D0000000B00000000000000000000000000B40400006662782F636E782E786D6C504B01021400140006080800B670623B2F
310
A3FEDE290100001202000031000000000000000000000000005A0500006662782F45374635344235342D363743322D343832342D383044432D4334454645303536354442422F636F72652E786D6C504B01021400140006080800B670623B1B8617914E010000330300003000000000000000000000000000D2060000666278
310
2F45374635344235342D363743322D343832342D383044432D4334454645303536354442422F636E782E786D6C504B01021400140006080800B670623B29652116630500003C10000034000000000000000000000000006E0800006662782F45374635344235342D363743322D343832342D383044432D4334454645303536
310
354442422F6F626A656374732E786D6C504B01021400140006080000B670623B0000000000000000000000003500000000000000000000000000230E00006662782F45374635344235342D363743322D343832342D383044432D4334454645303536354442422F76657274696365732E62696E504B01021400140006080800
310
B670623BF270F13306000000040000003600000000000000000000000000760E00006662782F45374635344235342D363743322D343832342D383044432D4334454645303536354442422F747269616E676C65732E62696E504B01021400140006080000B670623B0000000000000000000000003700000000000000000000
310
000000D00E00006662782F45374635344235342D363743322D343832342D383044432D4334454645303536354442422F617474726962757465732E62696E504B01021400140006080800B670623B08DA0BD190000000410100003600000000000000000000000000250F00006662782F45374635344235342D363743322D34
310
3832342D383044432D4334454645303536354442422F6469726563746F72792E786D6C504B01021400140006080800B670623B6378F24DFF000000A00100003B00000000000000000000000000091000006662782F45374635344235342D363743322D343832342D383044432D4334454645303536354442422F7265736F75
310
726365732F636F72652E786D6C504B0506000000000E000E0080040000611100000000
  0
XRECORD
  5
18A
102
{ACAD_REACTORS
330
110
102
}
330
110
100
AcDbXrecord
280
     1
 70
     0
 90
1778669749
  1
9BF507EE-FAF7-4A99-A33D-4EE51894BC40
310
504B03040A0000080000B670623B3DEE336E79000000790000001B0000006175746F6465736B2D64657369676E2D7061636B6167652E786D6C3C3F786D6C2076657273696F6E3D22312E302220656E636F64696E673D227574662D3822203F3E3C666F726D6174733E3C666F726D61743E687474703A2F2F736368656D612E
310
6175746F6465736B2E636F6D2F64657369676E2D7061636B6167652F323030393C2F666F726D61743E3C2F666F726D6174733E504B0304140006080800B670623BD486FD9CA0000000F4000000130000005B436F6E74656E745F54797065735D2E786D6C7D8EC10E82300C865F65E91D8A1E8C310C0EEA1BF002731658846E
310
D98AC1B77784ABF1D8FE5FBFBF75BBCE937A534CCEB38643598122B6FEE978D0B0485F9C41B54DDD7D022595594E1A469170414C76A4D9A4D207E29CF43ECE46F218070CC6BECC4078ACAA135ACF422C856C0E68EA1BF5669944DDD7BCDE7B1F8E415D77AECB980613C2E4AC91FC167A2B244592486606FC29C8FD7F045B9A
310
EF7053A7E60B504B0304140006080800B670623BCA089DFFEC0000007C01000008000000636F72652E786D6C8D90416E83301045AF62CDB632D8402020E32882F604BD80653BC44AB011B6AB1EBF262152BBEB6A467FFE9B197D76FA9EEFE84BAFDE38DB03CD08206DA553C64E3DC470C1474027CE56E7C22F1B202B66DDC3
310
260367D3EAE2B24BD2D9A06D48AA754AEFA2F05E0740F29E9A1EBCBCEA59642286E4F0B76C11F226269DD15797E0188D42CF2346A57DE662F40ABCAEC77628C6120F654571D50C04B7F5B9C1E3997CD4F550BE3745C3F20DE62C98F9755FAE5A04AD801784B498524C8A4F5A75E4D055873772EC0861F966FF03C545FD138A
310
C686B2D8DF7D621E384D8F3C069CE55B16A93C824A75CB8DFF00504B0304140006080800B670623B55019EA25F0000007C00000007000000636E782E786D6C4DCB3B0E80201045D1AD90E915ED2CF8AC45050C11660C8261F98AB1B07AC9C97D42D718D865D3E909258CFD00CCE24AC6E326A164D74DC0B4128928FF326038
310
472BA13128B1252AC747C6BAB984FC68F0B87FE8960A5C09FE86CFB69FBA01504B0304140006080800B670623B68FC0B7272010000D40300000C0000006662782F636F72652E786D6CC5535B6E833010BC8AE5DF0A6C1E8124328E22D29EA01770C0A128602363A31CBFCB234A53A555FA553EC09AD9F5CE8C31DB5DDA060D
310
D2F4B556190E7C8A9154852E6B5565D8D993B7C668C799D1DA7E29C3488956667884316795D1AE5BA0422B2B950554E9522EA0E87B69312A1A5864B82F3E642B7CE12C54F467BF13C55954D20F7CA0A18EB3DE1A1080E621E31BF3D3F1C2C88C73E65C5D2E6C5DC2B4FA544B8379921C36797888BC3C8A032F4E73EA6D927D
310
EA1DF6F42D49F2E8350D5346C666CE6CDD5ED515460A2B4BCC434A375E1078347C0FE22D5D6DE3D50B5D6F2965642CBF6B725DF96493AB958DC245EEDCD6631E809089F8E61622B2A81703E8219C913144F84C09DF070D8140C8561C9BAB8F3340832CAC363130A576376A108D933095FA747AD0CF0B46E64E983A6D0EAE1F
310
CE089F9EF1FB8E70D44255604258581E9D1D75B259C3125A278D37D80B52DAB4A279CEC62F0EFF44DDC43F9454E8469BFF5244960322CBEF41C6FBC83F01504B0304140006080800B670623B0F71DDB67E0000009D0000000B0000006662782F636E782E786D6C4DCCD10A83201886E15B91FFDCA54DB73F502386BB8F5816
310
32D3703976F9ABD1C18E3E78F87855FB990379BBFCF2296AE02706C4C5471A7C9C349475A408A4352AA7B4FEDD80C47E761A7606A3A69CCA72D0E0C6BE8475D3E0E3F3409428EA6B27A84079A782899AA2EC1A7AE3ECCC2FD858CB2D544655BFD2B67BD87C01504B0304140006080800B670623BE134B4FB28010000120200
310
00310000006662782F38353834323741342D343835462D343034322D383541392D4331303331363839454531452F636F72652E786D6C8D515B6EC32010BC0AE22B55850D0EA424C24451959EA0172086A42831583CAA1CBF503B52FB971F16CDCECC0EACD8DFC71BF836215AEF7A481A0C817183D7D65D7A98D3197108F652
310
04EFD31F1A044E8DA6871586525C82CFD3020DDE25E352419DD76601558C264130DCCAA58771F832A36A544E8511AFCDA486ABBA988634A55D7852C4144A00300FA927949C71DABD1D28A29C7D208A6987383B6CD13BC16BB2E1DBE3911C453B0BA5C8D9EA456E758963CFD684674DAA588A64C747FC2118958C86B2C3788B
310
0841B8FB247487D98EB257CC77188BB6D2FF89F2A49F1465EBD2BA5BE2CEB2082511EDDC9042FB7CBA3DC298FBE4430275DE2A9AE1054ADC60CC08E3A29D89E5F9C5714317C7987C28DFBBBA9E0A97B0D97643A568EB864AF95D5FA9759BF207504B0304140006080800B670623B1B8617914E010000330300003000000066
310
62782F38353834323741342D343835462D343034322D383541392D4331303331363839454531452F636E782E786D6CD593C16EC32010447F0571AD6CE3D489D20813A9877E410FBD62D82434182CC055F3F75D1292E692438FBD206B7698593D61BEFD1E2DF982108D773D6D6B460938E5B571FB9ECE6957AD29D90A1EBC4F
310
77364A9C1CA1A759A682EF839FA72269D8C9D92654AD71C72206887E0E0A22CAF926B15E498B01E0AA19451807D01A34B919F16B070157417138917400F2F6FA41FCF0092A45DEE414C19BDC21783E4BD39D891265658C3D8DEA00A3ACE59CBC8678ACB54CB26EEB6BD7839D7E9348BE70AD9C8321B9BCA7F9A4A26C542347
310
DEE050F09802D22BA6749A800A394DD62899107273365E3C82CFC6A55557BC06C10774B7ABE7AEC3B0F34CF06446280E154026D0542C187BA9DAB6628BF7B6DBB0E5A65B3EB1F58631DE64BBE083F7B65CC218087E22CABB042E51D1F2268F1FE12B3EA24D40D63E9CFE00120194D60B9D5BC67FE6D39CDF37E20AF817881F
310
504B0304140006080800B670623B5933D422630500003B100000340000006662782F38353834323741342D343835462D343034322D383541392D4331303331363839454531452F6F626A656374732E786D6CAD575B6FA33814FE2B887D0642934E9B156594264D158D3A534DD4D13E548A0C38942D60649B4EBABF7E3F8321
310
40924EF6928780CDF1B97EE762EFF32E4B8D37CA45C2F21BD3B547A641F39045491EDF98A5DC5AD7A6F1D9F73863B243661A39C9E88DA9B64DDF8B392B0BBD15D12D295339D85DDEFE618890E6D434C2940871638AF08566C426A5641115AF764424B1E3EDCE76ED9AB0CF36E6A47819302D08A7B984A6D8CFC1C5A89572FB
310
CB91E9F89EA3BEFB9EFAD754E3D3544E654F5F7E920B49F2F040D880CDD89D2CEE2E2EA7D6E56432B6269F2E5CEB7679BBB0DCABF168FE693E9FCEEEA6102C240727AD09A75BD3BF876F78127A4EFDA9D5582B7E4CA590E5390D2BFB6161A5B3E618D182E611E2985001691DAB47FDA5AB7CD3F93C566B2DB2BB7D9E55DD13
310
1D468DEECDB3AB290BFE8409E21C54704115AA6AFF68436BFC8DF65E0B184BF5B74418199194272435D224E084BF9B3E481589EFF5D828747285706581E9BB7B7E5D5D911ABFC6EE312DB7659A2A689A7E85EC0DF04FA5A8344BFEA2FCB834E8845895492EAFB541F2BDA0A63FF59C6AD3F7D4637CA13FD68E34B629891172
310
98597F1D183A57B9B75A98FE9765B05BAB7C3C2EBCE0ACA05C2AF8005A4DE09AA7F29216EB9E15397500C6F47CBE77CA7778FE2BD277AF0AE2C693DD6437D1522427B9D8329E2136F6A8FA19A3E6C56ADF0E5F50CF06D48734EDCEBF22F69C56D97EC138153F804B85E6FABFC7AFEFB32E523BE1F3BD372418E363EDCA7548
310
52949E8724474014288D94610BB57C1BEC4C7F854A89CA8E5324F55B871CBC78CE1BBEE3BFE68D6A5589EF3C730474506FCFA8FCF0659516D0ED04580EEA6425581B77CAE797FF4BCECC16EB2FEB926F49481F746159D06D922712BD730FDEAE42BD40F42C7AA5EF3F198F60E86110D6DD20645A9480B795CF95E3E3A659A8
310
C55E724F408873315335CFFB8584874484344D494E59D94869DB90C26A5B64F49C802CAC1D3ABE18A098D3B7444D123D8A9E5AE8F5214F0AE5B2B6E9B575DA3E61CBD3EA2B4009FA940524DD1305FB6A1FB294F14DF0BEA90BA109ECE1481FDC3FFAE8D60E75141700BE82725371B4873751B2DD960265F788137FACE6DD40
310
B575E4F0A5C99F46629D92131467A41EE11ABD8D4CCC039CA0AFB37C93A08B232B8F0AEFCA1E0A1015DF13FC83322B362463652ECF71D3A8B1A7D1BE65DE1D62C44F22C317D35F574FEB16153BA2D13E543D10A80E74C4A65E78A6B7CBCBD1D5DD9DB59C2DAFACC96C3AB566E3F1C29ADCDD5DBAD7D3C9ED7C822ED74F80A6
310
41755310DE4443F44A9E68373FADF6596BFA0F440AE7BECE2727AE9F4F2B1B53B1E7E00CF0DD1E5C65454A339A4BA2D0FBA05ED2EF0443458F47BDBFCA484CCFE0F2ED7E3DD0013B679C7B5499467F0ECEEADDB9CA85A34CE44B99053949D2C1416DB85DE4B136BB7165FBAC0B7AB3542BED4F8CA182A549847A1319316519
310
95A83A67147B9E5101C47487F2485F1ECE38FD568F839204296D3479219888530154036E6528FBFBC66F98E0D4107563A2D7D9AFF8D389681A08F58D89F22693900A3B407754734FC51C10C010D6D640809EE4718AC1BA3ED4AEDB53CA37283F68805A7E4B72CEB0A4EDEAD5DD8C14059A76AFAA56BA6901E13F32BC51C720
310
12AF41295B5BF61BAD3195181FB506E6B40F4C10AF5AF40EF9F5B159AE5DD1F43C72D635E94310D45C2D49785C5D0B94D3B54AB3C5A38349C0587D338AB48C11CBF339599C02CCA54A70A008A8D03C0B2201D5F9EFCF8F9CE12A9A19CB0410789EB32C63B95ECCF455D658BFE0621A3DA32C5075FB101723D77DAE867E7D0F
310
D90444509B44E2151B4DC2290B065803200FBAA9BE9D392A0603F2D5C2D00D6302A615680F66D2FA166E2079D4C551A54AB758161FCEFD4E450A14704CECFEDF504B0304140006080000B670623B000000000000000000000000350000006662782F38353834323741342D343835462D343034322D383541392D4331303331
310
363839454531452F76657274696365732E62696E504B0304140006080800B670623BF270F1330600000004000000360000006662782F38353834323741342D343835462D343034322D383541392D4331303331363839454531452F747269616E676C65732E62696E636660600000504B0304140006080000B670623B000000
310
000000000000000000370000006662782F38353834323741342D343835462D343034322D383541392D4331303331363839454531452F617474726962757465732E62696E504B0304140006080800B670623B08DA0BD19000000041010000360000006662782F38353834323741342D343835462D343034322D383541392D43
310
31303331363839454531452F6469726563746F72792E786D6C858F410AC3201045AF22B36F53E9A60B35CBEEBAE80D244E44489C6234F4F835464A48035D0DF398FF9F8AF63D0E6CC63039F212F8F9020C7D47C6792B21C5FE7403D62A1188E2E60C98D7234A5830286103A55745067B9D86B8A3CF9C7F90C11DE607FB1443
310
96D7B6A82D282E9A152AD114D5EF2CB866EEE831B8EEA07A7BB5A8D7D61A2BAAEB7FD5F70921FF497D00504B0304140006080800B670623BD9A3B367FE000000A00100003B0000006662782F38353834323741342D343835462D343034322D383541392D4331303331363839454531452F7265736F75726365732F636F7265
310
2E786D6C8D504B6E833010BD0A9A6D65B01D0201194711694FD00B586642AD043BF2A7EAF16B122AB5BB6E6646EFA3797AE2F8B5DC8A4FF4C1383B002B291468B59B8C9D0748F1420E501CA5F0CEC55F3228AC5A708015062966EFD27D83B4B3116DCCA875136EA00A012314FA968F0182FEC045952AC5AC08D7F2AEF455CD
310
58B232D3592745883E07289E4FD609D26370C96B0CA27AB252A464A64D63A6FCD35C0C7A904D73EE467EE664DCD58CD4ED4849D79C5A723ED1B7A61977AF2D6F45B59AA58866F9C9A83DAA8813484E6947182394BFB3BAA7FBBEDEBFD0434FA9A856F91F53BA4FFF342563E38E6F719FB60092E5200F428A6AED2BAF479979
310
AFDDCA6F504B010214000A0000080000B670623B3DEE336E79000000790000001B00000000000000000000000000000000006175746F6465736B2D64657369676E2D7061636B6167652E786D6C504B01021400140006080800B670623BD486FD9CA0000000F40000001300000000000000000000000000B20000005B436F6E
310
74656E745F54797065735D2E786D6C504B01021400140006080800B670623BCA089DFFEC0000007C010000080000000000000000000000000083010000636F72652E786D6C504B01021400140006080800B670623B55019EA25F0000007C000000070000000000000000000000000095020000636E782E786D6C504B010214
310
00140006080800B670623B68FC0B7272010000D40300000C00000000000000000000000000190300006662782F636F72652E786D6C504B01021400140006080800B670623B0F71DDB67E0000009D0000000B00000000000000000000000000B50400006662782F636E782E786D6C504B01021400140006080800B670623BE1
310
34B4FB280100001202000031000000000000000000000000005C0500006662782F38353834323741342D343835462D343034322D383541392D4331303331363839454531452F636F72652E786D6C504B01021400140006080800B670623B1B8617914E010000330300003000000000000000000000000000D3060000666278
310
2F38353834323741342D343835462D343034322D383541392D4331303331363839454531452F636E782E786D6C504B01021400140006080800B670623B5933D422630500003B10000034000000000000000000000000006F0800006662782F38353834323741342D343835462D343034322D383541392D4331303331363839
310
454531452F6F626A656374732E786D6C504B01021400140006080000B670623B0000000000000000000000003500000000000000000000000000240E00006662782F38353834323741342D343835462D343034322D383541392D4331303331363839454531452F76657274696365732E62696E504B01021400140006080800
310
B670623BF270F13306000000040000003600000000000000000000000000770E00006662782F38353834323741342D343835462D343034322D383541392D4331303331363839454531452F747269616E676C65732E62696E504B01021400140006080000B670623B0000000000000000000000003700000000000000000000
310
000000D10E00006662782F38353834323741342D343835462D343034322D383541392D4331303331363839454531452F617474726962757465732E62696E504B01021400140006080800B670623B08DA0BD190000000410100003600000000000000000000000000260F00006662782F38353834323741342D343835462D34
310
3034322D383541392D4331303331363839454531452F6469726563746F72792E786D6C504B01021400140006080800B670623BD9A3B367FE000000A00100003B000000000000000000000000000A1000006662782F38353834323741342D343835462D343034322D383541392D4331303331363839454531452F7265736F75
310
726365732F636F72652E786D6C504B0506000000000E000E0080040000611100000000
  0
CELLSTYLEMAP
  5
29AF
102
{ACAD_REACTORS
330
29AE
102
}
330
29AE
100
AcDbCellStyleMap
 90
        3
300
CELLSTYLE
  1
TABLEFORMAT_BEGIN
 90
        5
170
     1
 91
        0
 92
    32768
 62
   257
 93
        1
300
CONTENTFORMAT
  1
CONTENTFORMAT_BEGIN
 90
        0
 91
        0
 92
      512
 93
        0
300

 40
0.0
140
1.0
 94
        5
 62
     0
340
11
144
0.25
309
CONTENTFORMAT_END
171
     1
301
MARGIN
  1
CELLMARGIN_BEGIN
 40
0.06
 40
0.06
 40
0.06
 40
0.06
 40
0.18
 40
0.18
309
CELLMARGIN_END
 94
        6
 95
        1
302
GRIDFORMAT
  1
GRIDFORMAT_BEGIN
 90
        0
 91
        1
 62
     0
 92
       -2
340
0
 93
        0
 40
0.045
309
GRIDFORMAT_END
 95
        2
302
GRIDFORMAT
  1
GRIDFORMAT_BEGIN
 90
        0
 91
        1
 62
     0
 92
       -2
340
0
 93
        0
 40
0.045
309
GRIDFORMAT_END
 95
        4
302
GRIDFORMAT
  1
GRIDFORMAT_BEGIN
 90
        0
 91
        1
 62
     0
 92
       -2
340
0
 93
        0
 40
0.045
309
GRIDFORMAT_END
 95
        8
302
GRIDFORMAT
  1
GRIDFORMAT_BEGIN
 90
        0
 91
        1
 62
     0
 92
       -2
340
0
 93
        0
 40
0.045
309
GRIDFORMAT_END
 95
       16
302
GRIDFORMAT
  1
GRIDFORMAT_BEGIN
 90
        0
 91
        1
 62
     0
 92
       -2
340
0
 93
        0
 40
0.045
309
GRIDFORMAT_END
 95
       32
302
GRIDFORMAT
  1
GRIDFORMAT_BEGIN
 90
        0
 91
        1
 62
     0
 92
       -2
340
0
 93
        0
 40
0.045
309
GRIDFORMAT_END
309
TABLEFORMAT_END
  1
CELLSTYLE_BEGIN
 90
        1
 91
        1
300
_TITLE
309
CELLSTYLE_END
300
CELLSTYLE
  1
TABLEFORMAT_BEGIN
 90
        5
170
     1
 91
        0
 92
        0
 62
   257
 93
        1
300
CONTENTFORMAT
  1
CONTENTFORMAT_BEGIN
 90
        0
 91
        0
 92
      512
 93
        0
300

 40
0.0
140
1.0
 94
        5
 62
     0
340
11
144
0.18
309
CONTENTFORMAT_END
171
     1
301
MARGIN
  1
CELLMARGIN_BEGIN
 40
0.06
 40
0.06
 40
0.06
 40
0.06
 40
0.18
 40
0.18
309
CELLMARGIN_END
 94
        6
 95
        1
302
GRIDFORMAT
  1
GRIDFORMAT_BEGIN
 90
        0
 91
        1
 62
     0
 92
       -2
340
0
 93
        0
 40
0.045
309
GRIDFORMAT_END
 95
        2
302
GRIDFORMAT
  1
GRIDFORMAT_BEGIN
 90
        0
 91
        1
 62
     0
 92
       -2
340
0
 93
        0
 40
0.045
309
GRIDFORMAT_END
 95
        4
302
GRIDFORMAT
  1
GRIDFORMAT_BEGIN
 90
        0
 91
        1
 62
     0
 92
       -2
340
0
 93
        0
 40
0.045
309
GRIDFORMAT_END
 95
        8
302
GRIDFORMAT
  1
GRIDFORMAT_BEGIN
 90
        0
 91
        1
 62
     0
 92
       -2
340
0
 93
        0
 40
0.045
309
GRIDFORMAT_END
 95
       16
302
GRIDFORMAT
  1
GRIDFORMAT_BEGIN
 90
        0
 91
        1
 62
     0
 92
       -2
340
0
 93
        0
 40
0.045
309
GRIDFORMAT_END
 95
       32
302
GRIDFORMAT
  1
GRIDFORMAT_BEGIN
 90
        0
 91
        1
 62
     0
 92
       -2
340
0
 93
        0
 40
0.045
309
GRIDFORMAT_END
309
TABLEFORMAT_END
  1
CELLSTYLE_BEGIN
 90
        2
 91
        1
300
_HEADER
309
CELLSTYLE_END
300
CELLSTYLE
  1
TABLEFORMAT_BEGIN
 90
        5
170
     1
 91
        0
 92
        0
 62
   257
 93
        1
300
CONTENTFORMAT
  1
CONTENTFORMAT_BEGIN
 90
        0
 91
        0
 92
      512
 93
        0
300

 40
0.0
140
1.0
 94
        2
 62
     0
340
11
144
0.18
309
CONTENTFORMAT_END
171
     1
301
MARGIN
  1
CELLMARGIN_BEGIN
 40
0.06
 40
0.06
 40
0.06
 40
0.06
 40
0.18
 40
0.18
309
CELLMARGIN_END
 94
        6
 95
        1
302
GRIDFORMAT
  1
GRIDFORMAT_BEGIN
 90
        0
 91
        1
 62
     0
 92
       -2
340
0
 93
        0
 40
0.045
309
GRIDFORMAT_END
 95
        2
302
GRIDFORMAT
  1
GRIDFORMAT_BEGIN
 90
        0
 91
        1
 62
     0
 92
       -2
340
0
 93
        0
 40
0.045
309
GRIDFORMAT_END
 95
        4
302
GRIDFORMAT
  1
GRIDFORMAT_BEGIN
 90
        0
 91
        1
 62
     0
 92
       -2
340
0
 93
        0
 40
0.045
309
GRIDFORMAT_END
 95
        8
302
GRIDFORMAT
  1
GRIDFORMAT_BEGIN
 90
        0
 91
        1
 62
     0
 92
       -2
340
0
 93
        0
 40
0.045
309
GRIDFORMAT_END
 95
       16
302
GRIDFORMAT
  1
GRIDFORMAT_BEGIN
 90
        0
 91
        1
 62
     0
 92
       -2
340
0
 93
        0
 40
0.045
309
GRIDFORMAT_END
 95
       32
302
GRIDFORMAT
  1
GRIDFORMAT_BEGIN
 90
        0
 91
        1
 62
     0
 92
       -2
340
0
 93
        0
 40
0.045
309
GRIDFORMAT_END
309
TABLEFORMAT_END
  1
CELLSTYLE_BEGIN
 90
        3
 91
        2
300
_DATA
309
CELLSTYLE_END
  0
ENDSEC
  0
SECTION
  2
THUMBNAILIMAGE
 90
    16364
310
28000000B4000000550000000100080000000000C43B000000000000000000000001000000010000000000000000FF0000FFFF0000FF0000FFFF0000FF000000FF00FF00FFFFFF0080808000C0C0C0000000FF007F7FFF000000CC006666CC00000099004C4C990000007F003F3F7F0000004C0026264C00003FFF007F9FFF
310
000033CC00667FCC00002699004C5F9900001F7F003F4F7F0000134C00262F4C00007FFF007FBFFF000066CC006699CC00004C99004C729900003F7F003F5F7F0000264C0026394C0000BFFF007FDFFF000099CC0066B2CC00007299004C859900005F7F003F6F7F0000394C0026424C0000FFFF007FFFFF0000CCCC0066CC
310
CC00009999004C999900007F7F003F7F7F00004C4C00264C4C0000FFBF007FFFDF0000CC990066CCB200009972004C998500007F5F003F7F6F00004C3900264C420000FF7F007FFFBF0000CC660066CC990000994C004C997200007F3F003F7F5F00004C2600264C390000FF3F007FFF9F0000CC330066CC7F00009926004C
310
995F00007F1F003F7F4F00004C1300264C2F0000FF00007FFF7F0000CC000066CC6600009900004C994C00007F00003F7F3F00004C0000264C26003FFF00009FFF7F0033CC00007FCC6600269900005F994C001F7F00004F7F3F00134C00002F4C26007FFF0000BFFF7F0066CC000099CC66004C99000072994C003F7F0000
310
5F7F3F00264C0000394C2600BFFF0000DFFF7F0099CC0000B2CC66007299000085994C005F7F00006F7F3F00394C0000424C2600FFFF0000FFFF7F00CCCC0000CCCC66009999000099994C007F7F00007F7F3F004C4C00004C4C2600FFBF0000FFDF7F00CC990000CCB266009972000099854C007F5F00007F6F3F004C3900
310
004C422600FF7F0000FFBF7F00CC660000CC996600994C000099724C007F3F00007F5F3F004C2600004C392600FF3F0000FF9F7F00CC330000CC7F660099260000995F4C007F1F00007F4F3F004C1300004C2F2600FF000000FF7F7F00CC000000CC66660099000000994C4C007F0000007F3F3F004C0000004C262600FF00
310
3F00FF7F9F00CC003300CC667F0099002600994C5F007F001F007F3F4F004C0013004C262F00FF007F00FF7FBF00CC006600CC66990099004C00994C72007F003F007F3F5F004C0026004C263900FF00BF00FF7FDF00CC009900CC66B20099007200994C85007F005F007F3F6F004C0039004C264200FF00FF00FF7FFF00CC
310
00CC00CC66CC0099009900994C99007F007F007F3F7F004C004C004C264C00BF00FF00DF7FFF009900CC00B266CC0072009900854C99005F007F006F3F7F0039004C0042264C007F00FF00BF7FFF006600CC009966CC004C009900724C99003F007F005F3F7F0026004C0039264C003F00FF009F7FFF003300CC007F66CC00
310
260099005F4C99001F007F004F3F7F0013004C002F264C00333333005B5B5B0084848400ADADAD00D6D6D600FFFFFF00FAFAFAFAFAFAFAFAFAFAFAFAFAFAFAFAFAFAFAFAFAFAFAFAFAFAFAFAFAFAFAFAFAFA070707070707070707070707070707070707070707070707070707070707070707070707070707070707070707
310
0707070707070707070707070707070707070707070707070707070707070707070707070707070707070707070707070707070707070707070707070707070707070707FAFAFAFAFAFAFAFAFAFAFAFAFAFAFAFAFAFAFAFAFAFAFAFAFAFAFAFAFAFAFAFAFAFAFAFAFAFAFAFAFAFAFAFAFAFAFAFAFAFAFAFAFAFAFAFAFAFAFA
310
FAFAFAFAFAFAFAFA07FAFAFAFAFAFAFAFAFAFAFAFAFAFAFAFAFAFAFAFAFAFAFAFAFAFAFAFAFAFAFAFAFAFAFAFAFAFAFAFAFAFAFAFAFAFAFAFAFAFAFAFAFAFAFAFAFAFAFAFAFAFAFAFAFAFAFAFAFAFAFAFAFAFAFAFAFAFAFAFAFAFAFAFAFAFAFAFAFAFAFAFAFAFAFAFAFAFAFAFAFAFAFAFAFAFAFAFAFAFAFA07FAFAFAFAFAFA
310
FAFAFAFAFAFAFAFAFAFAFAFAFAFAFAFAFAFAFAFAFAFAFAFAFAFAFAFAFAFAFAFAFAFAFAFAFAFAFAFAFAFAFAFAFAFAFAFAFAFAFAFAFAFAFAFAFAFAFAFAFA07FAFAFAFAFAFAFAFAFAFAFAFAFAFAFAFAFAFAFAFAFAFAFAFAFAFAFAFAFAFAFAFAFAFAFAFAFAFAFAFAFAFAFAFAFAFAFAFAFAFAFAFAFAFAFAFAFAFAFAFAFAFAFAFAFA
310
FAFAFAFAFAFAFAFAFAFAFAFAFAFAFAFAFAFAFAFAFAFAFAFAFAFAFAFAFAFAFAFAFAFAFAFAFAFAFAFAFAFAFAFAFAFA07FAFAFAFAFAFAFAFAFAFAFAFAFAFAFAFAFAFAFAFAFAFAFAFAFAFAFAFAFAFAFAFAFAFAFAFAFAFAFAFAFAFAFAFAFAFAFAFAFAFAFAFAFAFAFAFAFAFAFAFAFAFAFAFAFAFAFA07FAFAFAFAFAFAFAFAFAFAFAFA
310
FAFAFAFAFAFAFAFAFAFAFAFAFAFAFAFAFAFAFAFAFAFAFAFAFAFAFAFAFAFAFAFAFAFAFAFAFAFAFAFAFAFAFAFAFAFAFAFAFAFAFAFAFAFAFAFAFAFAFAFAFAFAFAFAFAFAFAFAFAFAFAFAFAFAFAFAFAFAFAFAFAFAFAFAFAFAFAFAFAFAFAFAFAFAFAFAFAFAFA07FAFAFAFAFAFAFAFAFAFAFAFAFAFAFAFAFAFAFAFAFAFAFAFAFAFAFA
310
FAFAFAFAFAFAFAFAFAFAFAFAFAFAFAFAFAFAFAFAFAFAFAFAFAFAFAFAFAFAFAFAFAFAFAFAFAFAFAFA07FAFA070707070707070707070707070707070707070707070707070707070707070707070707070707FAFAFAFAFAFAFAFAFAFAFAFAFAFAFAFAFAFAFAFAFAFAFAFAFAFAFAFAFAFAFAFAFAFAFAFAFAFAFAFAFAFAFAFAFA
310
FAFAFAFAFAFAFAFAFAFAFAFAFAFAFAFAFAFAFAFAFAFAFAFAFA07FAFAFAFAFAFAFAFAFAFAFAFAFAFAFAFAFAFAFAFAFAFAFAFAFAFAFAFAFAFAFAFAFAFAFAFAFAFAFAFAFAFAFAFAFAFAFAFAFAFAFAFAFAFAFAFAFAFAFAFAFAFAFAFAFAFAFA07FAFA07070707070707070707070707070707070707070707070707070707070707
310
0707070707070707FAFAFAFAFAFAFAFAFAFAFAFAFAFAFAFAFAFAFAFAFAFAFAFAFAFAFAFAFAFAFAFAFAFAFAFAFAFAFAFAFAFAFAFAFAFAFAFAFAFAFAFAFAFAFAFAFAFAFAFAFAFAFAFAFAFAFAFAFAFA07FAFAFAFAFAFAFAFAFAFAFAFAFAFAFAFAFAFAFAFAFAFAFAFAFAFAFAFAFAFAFAFAFAFAFAFAFAFAFAFAFAFAFAFAFAFAFAFA
310
FAFAFAFAFAFAFAFAFAFAFAFAFAFAFAFAFAFAFA07FAFA070707070707070707070707070707070707070707070707070707070707070707070707070707FAFAFAFAFAFAFAFAFAFAFAFAFAFAFAFAFAFAFAFAFAFAFAFAFAFAFAFAFAFAFAFAFAFAFAFAFAFAFAFAFAFAFAFAFAFAFAFAFAFAFAFAFAFAFAFAFAFAFAFAFAFAFAFAFAFA
310
FAFAFAFA07FAFAFAFAFAFAFAFAFAFAFAFAFAFAFAFAFAFAFAFAFAFAFAFAFAFAFAFAFAFAFAFAFAFAFAFAFAFAFAFAFAFAFAFAFAFAFAFAFAFAFAFAFAFAFAFAFAFAFAFAFAFAFAFAFAFAFA07FAFAFAFAFAFAFAFAFAFAFAFAFAFAFAFAFAFAFAFAFAFAFAFAFAFAFAFAFAFAFAFAFAFAFAFAFAFAFAFAFAFAFAFAFAFAFAFAFAFAFAFAFAFA
310
FAFAFAFAFAFAFAFAFAFAFAFAFAFAFAFAFAFAFAFAFAFAFAFAFAFAFAFAFAFAFAFAFAFAFAFAFAFAFAFAFAFAFAFAFAFAFAFAFAFAFAFAFAFAFAFAFA07FAFAFAFAFAFAFAFAFAFAFAFAFAFAFAFAFAFAFAFAFAFAFAFAFAFAFAFAFAFAFAFAFAFAFAFAFAFAFAFAFAFAFAFAFAFAFAFAFAFAFAFAFAFAFAFAFAFAFAFAFAFAFAFAFAFAFA07FA
310
FAFAFAFAFAFAFAFAFAFAFAFAFAFAFAFAFAFAFAFAFAFAFAFAFAFAFAFAFAFAFAFAFAFAFAFAFAFAFAFAFAFAFAFAFAFAFAFAFAFAFAFAFAFAFAFAFAFAFAFAFAFAFAFAFAFAFAFAFAFAFAFAFAFAFAFAFAFAFAFAFAFAFAFAFAFAFAFAFAFAFAFAFAFAFAFAFAFAFAFAFAFAFAFAFAFAFAFAFAFA07FAFAFAFAFAFAFAFAFAFAFAFAFAFAFAFA
310
FAFAFAFAFAFAFAFAFAFAFAFAFAFAFAFAFAFAFAFAFAFAFAFAFAFAFAFAFAFAFAFAFAFAFAFAFAFAFAFAFAFAFAFAFAFAFAFAFAFAFA07FAFAFAFAFAFAFAFAFAFAFAFAFAFAFAFAFAFAFAFAFAFAFAFAFAFAFAFAFAFAFAFAFAFAFAFAFAFAFAFAFAFAFAFAFAFAFAFAFAFAFAFAFAFAFAFAFAFAFAFAFAFAFAFAFAFAFAFAFAFAFAFAFAFAFA
310
FAFAFAFAFAFAFAFAFAFAFAFAFAFAFAFAFAFAFAFAFAFAFAFAFAFAFAFAFAFAFAFAFAFAFAFA07FAFAFAFAFAFAFAFAFAFAFAFAFAFAFAFAFAFAFAFAFAFAFAFAFAFAFAFAFAFAFAFAFAFAFAFAFAFAFAFAFAFAFAFAFAFAFAFAFAFAFAFAFAFAFAFAFAFAFAFAFAFAFAFAFAFAFA07FAFAFAFAFAFAFAFAFAFAFAFAFAFAFAFAFAFAFAFAFAFA
310
FAFAFAFAFAFAFAFAFAFAFAFAFAFAFAFAFAFAFAFAFAFAFAFAFAFAFAFAFAFAFAFAFAFAFAFAFAFAFAFAFAFAFAFAFAFAFAFAFAFAFAFAFAFAFAFAFAFAFAFAFAFAFAFAFAFAFAFAFAFAFAFAFAFAFAFAFAFAFAFAFAFAFAFAFAFAFAFAFA07FAFAFAFAFAFAFAFAFAFAFAFAFAFAFAFAFAFAFAFAFAFAFAFAFAFAFAFAFAFAFAFAFAFAFAFAFA
310
FAFAFAFAFAFAFAFAFAFAFAFAFAFAFAFAFAFAFAFAFAFAFAFAFAFAFAFAFAFA07FAFAFAFAFAFAFAFAFAFAFAFAFAFAFAFAFAFAFAFAFAFAFAFAFAFAFAFAFAFAFAFAFAFAFAFAFAFAFAFAFAFAFAFAFAFAFAFAFAFAFAFAFAFAFAFAFAFAFAFAFAFAFAFAFAFAFAFAFAFAFAFAFAFAFAFAFAFAFAFAFAFAFAFAFAFAFAFAFAFAFAFAFAFAFAFA
310
FAFAFAFAFAFAFAFAFAFAFAFAFAFAFA07FAFAFAFAFAFAFAFAFAFAFAFAFAFAFAFAFAFAFAFAFAFAFAFAFAFAFAFAFAFAFAFAFAFAFAFAFAFAFAFAFAFAFAFAFAFAFAFAFAFAFAFAFAFAFAFAFAFAFAFAFAFAFAFAFAFAFA07FAFAFAFAFAFAFAFAFAFAFAFAFAFAFAFAFAFAFAFAFAFAFAFAFAFAFAFAFAFAFAFAFAFAFAFAFAFAFAFAFAFAFA
310
FAFAFAFAFAFAFAFAFAFAFAFAFAFAFAFAFAFAFAFAFAFAFAFAFAFAFAFAFAFAFAFAFAFAFAFAFAFAFAFAFAFAFAFAFAFAFAFAFAFAFAFAFAFAFAFAFAFAFAFAFAFAFAFAFAFAFAFA07FAFAFAFAFAFAFAFAFAFAFAFAFAFAFAFAFAFAFAFAFAFAFAFAFAFAFAFAFAFAFAFAFAFAFAFAFAFAFAFAFAFAFAFAFAFAFAFAFAFAFAFAFAFAFAFAFAFA
310
FAFAFAFAFAFAFAFAFA07FAFAFAFAFAFAFAFAFAFAFAFAFAFAFAFAFAFAFAFAFAFAFAFAFAFAFAFAFAFAFAFAFAFAFAFAFAFAFAFAFAFAFAFAFAFAFAFAFAFAFAFAFAFAFAFAFAFAFAFAFAFAFAFAFAFAFAFAFAFAFAFAFAFAFAFAFAFAFAFAFAFAFAFAFAFAFAFAFAFAFAFAFAFAFAFAFAFAFAFAFAFAFAFAFAFAFAFAFAFAFA07FAFAFAFAFA
310
FAFAFAFAFAFAFAFAFAFAFAFAFAFAFAFAFAFAFAFAFAFAFAFAFAFAFAFAFAFAFAFAFAFAFAFAFAFAFAFAFAFAFAFAFAFAFAFAFAFAFAFAFAFAFAFAFAFAFAFAFAFA07FAFAFAFAFAFAFAFAFAFAFAFAFAFAFAFAFAFAFAFAFAFAFAFAFAFAFAFAFAFAFAFAFAFAFAFAFAFAFAFAFAFAFAFAFAFAFAFAFAFAFAFAFAFAFAFAFAFAFAFAFAFAFAFA
310
FAFAFAFAFAFAFAFAFAFAFAFAFAFAFAFAFAFAFAFAFAFAFAFAFAFAFAFAFAFAFAFAFAFAFAFAFAFAFAFAFAFAFAFAFAFAFA07FAFAFAFAFAFAFAFAFAFAFAFAFAFAFAFAFAFAFAFAFAFAFAFAFAFAFAFAFAFAFAFAFAFAFAFAFAFAFAFAFAFAFAFAFAFAFAFAFAFAFAFAFAFAFAFAFAFAFAFAFAFAFAFAFAFAFA07FAFAFAFAFAFAFAFAFAFAFA
310
FAFAFAFAFAFAFAFAFAFAFAFAFAFAFAFAFAFAFAFAFAFAFAFAFAFAFAFAFAFAFAFAFAFAFAFAFAFAFAFAFAFAFAFAFAFAFAFAFAFAFAFAFAFAFAFAFAFAFAFAFAFAFAFAFAFAFAFAFAFAFAFAFAFAFAFAFAFAFAFAFAFAFAFAFAFAFAFAFAFAFAFAFAFAFAFAFAFAFAFA07FAFAFAFAFAFAFAFAFAFAFAFAFAFAFAFAFAFAFAFAFAFAFAFAFAFA
310
FAFAFAFAFAFAFAFAFAFAFAFAFAFAFAFAFAFAFAFAFAFAFAFAFAFAFAFAFAFAFAFAFAFAFAFAFAFAFAFAFA07FAFAFAFAFAFAFAFAFAFAFAFAFAFAFAFAFAFAFAFAFAFAFAFAFAFAFAFAFAFAFAFAFAFAFAFAFAFAFAFAFAFAFAFAFAFAFAFAFAFAFAFAFAFAFAFAFAFAFAFAFAFAFAFAFAFAFAFAFAFAFAFAFAFAFAFAFAFAFAFAFAFAFAFAFA
310
FAFAFAFAFAFAFAFAFAFAFAFAFAFAFAFAFAFAFAFAFAFAFAFAFAFA07FAFAFAFAFAFAFAFAFAFAFAFAFAFAFAFAFAFAFAFAFAFAFAFAFAFAFAFAFAFAFAFAFAFAFAFAFAFAFAFAFAFAFAFAFAFAFAFAFAFAFAFAFAFAFAFAFAFAFAFAFAFAFAFAFAFAFA07FAFAFAFAFAFAFAFAFAFAFAFAFAFAFAFAFAFAFAFAFAFAFAFAFAFAFAFAFAFAFAFA
310
FAFAFAFAFAFAFAFAFAFAFAFAFAFAFAFAFAFAFAFAFAFAFAFAFAFAFAFAFAFAFAFAFAFAFAFAFAFAFAFAFAFAFAFAFAFAFAFAFAFAFAFAFAFAFAFAFAFAFAFAFAFAFAFAFAFAFAFAFAFAFAFAFAFAFAFAFAFAFA07FAFAFAFAFAFAFAFAFAFAFAFAFAFAFAFAFAFAFAFAFAFAFAFAFAFAFAFAFAFAFAFAFAFAFAFAFAFAFAFAFAFAFAFAFAFAFA
310
FAFAFAFAFAFAFAFAFAFAFAFAFAFAFAFAFAFAFAFA07FAFAFAFAFAFAFAFAFAFAFAFAFAFAFAFAFAFAFAFAFAFAFAFAFAFAFAFAFAFAFAFAFAFAFAFAFAFAFAFAFAFAFAFAFAFAFAFAFAFAFAFAFAFAFAFAFAFAFAFAFAFAFAFAFAFAFAFAFAFAFAFAFAFAFAFAFAFAFAFAFAFAFAFAFAFAFAFAFAFAFAFAFAFAFAFAFAFAFAFAFAFAFAFAFAFA
310
FAFAFAFAFA07FAFAFAFAFAFAFAFAFAFAFAFAFAFAFAFAFAFAFAFAFAFAFAFAFAFAFAFAFAFAFAFAFAFAFAFAFAFAFAFAFAFAFAFAFAFAFAFAFAFAFAFAFAFAFAFAFAFAFAFAFAFAFAFAFAFAFA07FAFAFAFAFAFAFAFAFAFAFAFAFAFAFAFAFAFAFAFAFAFAFAFAFAFAFAFAFAFAFAFAFAFAFAFAFAFAFAFAFAFAFAFAFAFAFAFAFAFAFAFAFA
310
FAFAFAFAFAFAFAFAFAFAFAFAFAFAFAFAFAFAFAFAFAFAFAFAFAFAFAFAFAFAFAFAFAFAFAFAFAFAFAFAFAFAFAFAFAFAFAFAFAFAFAFAFAFAFAFAFAFA07FAFAFAFAFAFAFAFAFAFAFAFAFAFAFAFAFAFAFAFAFAFAFAFAFAFAFAFAFAFAFAFAFAFAFAFAFAFAFAFAFAFAFAFAFAFAFAFAFAFAFAFAFAFAFAFAFAFAFAFAFAFAFAFAFAFAFA07
310
FAFAFAFAFAFAFAFAFAFAFAFAFAFAFAFAFAFAFAFAFAFAFAFAFAFAFAFAFAFAFAFAFAFAFAFAFAFAFAFAFAFAFAFAFAFAFAFAFAFAFAFAFAFAFAFAFAFAFAFAFAFAFAFAFAFAFAFAFAFAFAFAFAFAFAFAFAFAFAFAFAFAFAFAFAFAFAFAFAFAFAFAFAFAFAFAFAFAFAFAFAFAFAFAFAFAFAFAFAFAFA07FAFAFAFAFAFAFAFAFAFAFAFAFAFAFA
310
FAFAFAFAFAFAFAFAFAFAFAFAFAFAFAFAFAFAFAFAFAFAFAFAFAFAFAFAFAFAFAFAFAFAFAFAFAFAFAFAFAFAFAFAFAFAFAFAFAFAFAFA07FAFAFAFAFAFAFAFAFAFAFAFAFAFAFAFAFAFAFAFAFAFAFAFAFAFAFAFAFAFAFAFAFAFAFAFAFAFAFAFAFAFAFAFAFAFAFAFAFAFAFAFAFAFAFAFAFAFAFAFAFAFAFAFAFAFAFAFAFAFAFAFAFAFA
310
FAFAFAFAFAFAFAFAFAFAFAFAFAFAFAFAFAFAFAFAFAFAFAFAFAFAFAFAFAFAFAFAFAFAFAFAFA07FAFAFAFAFAFAFAFAFAFAFAFAFAFAFAFAFAFAFAFAFAFAFAFAFAFAFAFAFAFAFAFAFAFAFAFAFAFAFAFAFAFAFAFAFAFAFAFAFAFAFAFAFAFAFAFAFAFAFAFAFAFAFAFAFAFAFA07FAFAFAFAFAFAFAFAFAFAFAFAFAFAFAFAFAFAFAFAFA
310
FAFAFAFAFAFAFAFAFAFAFAFAFAFAFAFAFAFAFAFAFAFAFAFAFAFAFAFAFAFAFAFAFAFAFAFAFAFAFAFAFAFAFAFAFAFAFAFAFAFAFAFAFAFAFAFAFAFAFAFAFAFAFAFAFAFAFAFAFAFAFAFAFAFAFAFAFAFAFAFAFAFAFAFAFAFAFAFAFAFA07FAFAFAFAFAFAFAFAFAFAFAFAFAFAFAFAFAFAFAFAFAFAFAFAFAFAFAFAFAFAFAFAFAFAFAFA
310
FAFAFAFAFAFAFAFAFAFAFAFAFAFAFAFAFAFAFAFAFAFAFAFAFAFAFAFAFAFAFA07FAFAFAFAFAFAFAFAFAFAFAFAFAFAFAFAFAFAFAFAFAFAFAFAFAFAFAFAFAFAFAFAFAFAFAFAFAFAFAFAFAFAFAFAFAFAFAFAFAFAFAFAFAFAFAFAFAFAFAFAFAFAFAFAFAFAFAFAFAFAFAFAFAFAFAFAFAFAFAFAFAFAFAFAFAFAFAFAFAFAFAFAFAFAFA
310
FAFAFAFAFAFAFAFAFAFAFAFAFAFAFAFA07FAFAFAFAFAFAFAFAFAFAFAFAFAFAFAFAFAFAFAFAFAFAFAFAFAFAFAFAFAFAFAFAFAFAFAFAFAFAFAFAFAFAFAFAFAFAFAFAFAFAFAFAFAFAFAFAFAFAFAFAFAFAFAFAFAFAFA07FAFAFAFAFAFAFAFAFAFAFAFAFAFAFAFAFAFAFAFAFAFAFAFAFAFAFAFAFAFAFAFAFAFAFAFAFAFAFAFAFAFA
310
FAFAFAFAFAFAFAFAFAFAFAFAFAFAFAFAFAFAFAFAFAFAFAFAFAFAFAFAFAFAFAFAFAFAFAFAFAFAFAFAFAFAFAFAFAFAFAFAFAFAFAFAFAFAFAFAFAFAFAFAFAFAFAFAFAFAFAFAFA07FAFAFAFAFAFAFAFAFAFAFAFAFAFAFAFAFAFAFAFAFAFAFAFAFAFAFAFAFAFAFAFAFAFAFAFAFAFAFAFAFAFAFAFAFAFAFAFAFAFAFAFAFAFAFAFAFA
310
FAFAFAFAFAFAFAFAFAFA07FAFAFAFAFAFAFAFAFAFAFAFAFAFAFAFAFAFAFAFAFAFAFAFAFAFAFAFAFAFAFAFAFAFAFAFAFAFAFAFAFAFAFAFAFAFAFAFAFAFAFAFAFAFAFAFAFAFAFAFAFAFAFAFAFAFAFAFAFAFAFAFAFAFAFAFAFAFAFAFAFAFAFAFAFAFAFAFAFAFAFAFAFAFAFAFAFAFAFAFAFAFAFAFAFAFAFAFAFAFAFA07FAFAFAFA
310
FAFAFAFAFAFAFAFAFAFAFAFAFAFAFAFAFAFAFAFAFAFAFAFAFAFAFAFAFAFAFAFAFAFAFAFAFAFAFAFAFAFAFAFAFAFAFAFAFAFAFAFAFAFAFAFAFAFAFAFAFAFAFA07FAFAFAFAFAFAFAFAFAFAFAFAFAFAFAFAFAFAFAFAFAFAFAFAFAFAFAFAFAFAFAFAFAFAFAFAFAFAFAFAFAFAFAFAFAFAFAFAFAFAFAFAFAFAFAFAFAFAFAFAFAFAFA
310
FAFAFAFAFAFAFAFAFAFAFAFAFAFAFAFAFAFAFAFAFAFAFAFAFAFAFAFAFAFAFAFAFAFAFAFAFAFAFAFAFAFAFAFAFAFAFAFA07FAFAFAFAFAFAFAFAFAFAFAFAFAFAFAFAFAFAFAFAFAFAFAFAFAFAFAFAFAFAFAFAFAFAFAFAFAFAFAFAFAFAFAFAFAFAFAFAFAFAFAFAFAFAFAFAFAFAFAFAFAFAFAFAFAFAFA07FAFAFAFAFAFAFAFAFAFA
310
FAFAFAFAFAFAFAFAFAFAFAFAFAFAFAFAFAFAFAFAFAFAFAFAFAFAFAFAFAFAFAFAFAFAFAFAFAFAFAFAFAFAFAFAFAFAFAFAFAFAFAFAFAFAFAFAFAFAFAFAFAFAFAFAFAFAFAFAFAFAFAFAFAFAFAFAFAFAFAFAFAFAFAFAFAFAFAFAFAFAFAFAFAFAFAFAFAFAFAFAFA07FAFAFAFAFAFAFAFAFAFAFAFAFAFAFAFAFAFAFAFAFAFAFAFAFA
310
FAFAFAFAFAFAFAFAFAFAFAFAFAFAFAFAFAFAFAFAFAFAFAFAFAFAFAFAFAFAFAFAFAFAFAFAFAFAFAFAFAFA07FAFAFAFAFAFAFAFAFAFAFAFAFAFAFAFAFAFAFAFAFAFAFAFAFAFAFAFAFAFAFAFAFAFAFAFAFAFAFAFAFAFAFAFAFAFAFAFAFAFAFAFAFAFAFAFAFAFAFAFAFAFAFAFAFAFAFAFAFAFAFAFAFAFAFAFAFAFAFAFAFAFAFAFA
310
FAFAFAFAFAFAFAFAFAFAFAFAFAFAFAFAFAFAFAFAFAFAFAFAFAFAFA07FAFAFAFAFAFAFAFAFAFAFAFAFAFAFAFAFAFAFAFAFAFAFAFAFAFAFAFAFAFAFAFAFAFAFAFAFAFAFAFAFAFAFAFAFAFAFAFAFAFAFAFAFAFAFAFAFAFAFAFAFAFAFAFAFAFAFA07FAFAFAFAFAFAFAFAFAFAFAFAFAFAFAFAFAFAFAFAFAFAFAFAFAFAFAFAFAFAFA
310
FAFAFAFAFAFAFAFAFAFAFAFAFAFAFAFAFAFAFAFAFAFAFAFAFAFAFAFAFAFAFAFAFAFAFAFAFAFAFAFAFAFAFAFAFAFAFAFAFAFAFAFAFAFAFAFAFAFAFAFAFAFAFAFAFAFAFAFAFAFAFAFAFAFAFAFAFAFAFAFA07FAFAFAFAFAFAFAFAFAFAFAFAFAFAFAFAFAFAFAFAFAFAFAFAFAFAFAFAFAFAFAFAFAFAFAFAFAFAFAFAFAFAFAFAFAFA
310
FAFAFAFAFAFAFAFAFAFAFAFAFAFAFAFAFAFAFAFAFA07FAFAFAFAFAFAFAFAFAFAFAFAFAFAFAFAFAFAFAFAFAFAFAFAFAFAFAFAFAFAFAFAFAFAFAFAFAFAFAFAFAFAFAFAFAFAFAFAFAFAFAFAFAFAFAFAFAFAFAFAFAFAFA03030303030303030303030303030303030303030303030303030303030303030303030303FAFAFAFAFA
310
FAFAFAFAFAFA07FAFAFAFAFAFAFAFAFAFAFAFAFAFAFAFAFAFAFAFAFAFAFAFAFAFAFAFAFAFAFAFAFAFAFAFAFAFAFAFAFAFAFAFAFAFAFAFAFAFAFAFAFAFAFAFAFAFAFAFAFAFAFAFAFAFAFA07FAFAFAFAFAFAFAFAFAFAFAFAFAFAFAFAFAFAFAFAFAFAFAFAFAFAFAFAFAFAFAFAFAFAFAFAFAFAFAFAFAFAFAFAFAFAFAFAFAFAFAFA
310
FAFAFAFAFAFAFAFAFAFA6870FAFAFAFAFAFAFAFAFAFAFAFAFAFAFAFAFAFAFAFAFAFAFAF1F1F1F1F1F1F1F1F1F1F1F1F1FAFAFAFAFAFAFAFAFAFAFA07FAFAFAFAFAFAFAFAFAFAFAFAFAFAFAFAFAFAFAFAFAFAFAFAFAFAFAFAFAFAFAFAFAFAFAFAFAFAFAFAFAFAFAFAFAFAFAFAFAFAFAFAFAFAFAFAFAFAFAFAFAFAFAFAFAFAFA
310
07FAFAFAFAFAFAFAFAFAFAFAFAFAFAFAFAFAFAFAFAFAFAFAFAFAFAFAFAFAFAFAFAFAFAFAFAFAFAFAFAFAFAFAFAFAFAFAFAFAFAFAFAFAFAFAFAFAFAFAFAFAFA0377FAFAFAFAFAFAFAFAFAFAFAFAFAFAFAFAFAFAFAFAFAFAFAF1F1F1F1F1F1F1F1F1F1F1F1F1FAFAFAFAFAFAFAFAFAFAFA07FAFAFAFAFAFAFAFAFAFAFAFAFAFA
310
FAFAFAFAFAFAFAFAFAFAFAFAFAFAFAFAFAFAFAFAFAFAFAFAFAFAFAFAFAFAFAFAFAFAFAFAFAFAFAFAFAFAFAFAFAFAFAFAFAFAFAFAFA07FAFAFAFAFAFAFAFAFAFAFAFAFAFAFAFAFAFAFAFAFAFAFAFAFAFAFAFAFAFAFAFAFAFAFAFAFAFAFAFAFAFAFAFAFAFAFAFAFAFAFAFAFAFAFAFAFAFAFAFAFA5666FAFAFAFAFAFAFAFAFAFA
310
FAFAFAFAFAFAFAFAFAFAFAFAFAFAFAFAFAFAFAFAFAFAFAFAFAFAFAFAFAFAFAFAFAFAFAFAFAFA07FAFAFAFAFAFAFAFAFAFAFAFAFAFAFAFAFAFAFAFAFAFAFAFAFAFAFAFAFAFAFAFAFAFAFAFAFAFAFAFAFAFAFAFAFAFAFAFAFAFAFAFAFAFAFAFAFAFAFAFAFAFAFAFAFAFAFA07FAFAFAFAFAFAFAFAFAFAFAFAFAFAFAFAFAFAFAFA
310
FAFAFAFAFA010366A9FAFAFAFAFAFAFAFAFAFAFAFAFAFAFAFAFAFAFAFAFAFAFAFAFAFAFAFAFAFAFAFA6663FAFAFAFAFAFAFAFAFAFAFAFAFAFAFAFAFAFAFAFAFAFAFAFAA9565C01FAFAFAFAFAFAFAFAFAFAFAFAFAFAFAFAFAFAFAFA07FAFAFAFAFAFAFAFAFAFAFAFAFAFAFAFAFAFAFAFAFAFAFAFAFAFAFAFAFAFAFAFAFAFAFA
310
FAFAFAFAFAFAFAFAFAFAFAFAFAFAFAFAFAFAFAFAFAFAFAFAFAFAFAFAFAFAFAFA07FAFAFAFAFAFAFAFAFAFAFAFAFAFAFAFAFAFAFAFAFAFAFAFA6A20575C015C5677FAFAFAFAFAFAFAFAFAFAFAFAFAFAFAFAFAFAFAFAFAFAFAFAFAFAFAFA775CFAFAFAFAFAFAFAFAFAFAFAFAFAFAFAFAFAFAFAFAFAFA77565C03014A166AFAFA
310
FAFAFAFAFAFAFAFAFAFAFAFAFAFAFAFAFA07FAFAFAFAFAFAFAFAFAFAFAFAFAFAFAFAFAFAFAFAFAFAFAFAFAFAFAFAFAFAFAFAFAFAFAFAFAFAFAFAFAFAFAFAFAFAFAFAFAFAFAFAFAFAFAFAFAFAFAFAFAFAFAFAFAFAFA07FAFAFAFAFAFAFAFAFAFAFAFAFAFAFAFAFAFAFAFAFAFAFAFA6648111A2C7466035C6877FAFAFAFAFAFA
310
FAFAFAFAFAFAFAFAFAFAFAFAFAFAFAFAFAFAFA5C77FAFAFAFAFAFAFAFAFAFAFAFAFAFAFAFAFAFAFA77685C036674FA16F42C66FAFAFAFAFAFAFAFAFAFAFAFAFAFAFAFAFAFAFA07FAFAFAFAFAFAFAFAFAFAFAFAFAFAFAFAFAFAFAFAFAFAFAFAFAFAFAFAFAFAFAFAFAFAFAFAFAFAFAFAFAFAFAFAFAFAFAFAFAFAFAFAFAFAFAFA
310
FAFAFAFAFAFAFAFAFAFAFA07FAFAFAFAFAFAFAFAFAFAFAFAFAFAFAFAFAFAFAFAFAFAFAFA030301F252FAFAFA7766035C686DFAFAFAFAFAFAFAFAFAFAFAFAFAFAFAFAFAFAFAFAFA6366FAFAFAFAFAFAFAFAFAFAFAFAFAFAFAFAFA6D685C036677FAFAFAFA400C4803FAFAFAFAFAFAFAFAFAFAFAFAFAFAFAFAFAFAFA07FAFAFA
310
FAFAFAFAFAFAFAFAFAFAFAFAFAFAFAFAFAFAFAFAFAFAFAFAFAFAFAFAFAFAFAFAFAFAFAFAFAFAFAFAFAFAFAFAFAFAFAFAFAFAFAFAFAFAFAFAFAFAFAFAFAFAFAFA07FAFAFAFAFAFAFAFAFAFAFAFAFAFAFAFAFAFAFAFAFAFAFA6A66030C0103FAFAFAFAFAFA6D705C66686DFAFAFAFAFAFAFAFAFAFAFAFAFAFAFAFAFAFA6656FA
310
FAFAFAFAFAFAFAFAFAFAFAFAFA6D68665C706DFAFAFAFAFAFAFA520152666AFAFAFAFAFAFAFAFAFAFAFAFAFAFAFAFAFAFA07FAFAFAFAFAFAFAFAFAFAFAFAFAFAFAFAFAFAFAFAFAFAFAFAFAFAFAFAFAFAFAFAFAFAFAFAFAFAFAFAFAFAFAFAFAFAFAFAFAFAFAFAFAFAFAFAFAFAFAFAFAFAFAFAFAFAFA07FAFAFAFAFAFAFAFAFA
310
FAFAFAFAFAFAFAFAFAFAFAFAFAFA666A03F2F203FAFAFAFAFAFAFAFAFA6D685C5C686DFAFAFAFAFAFAFAFAFAFAFAFAFAFA7703FAFAFAFAFAFAFAFAFAFAFAFA6D685C5C686DFAFAFAFAFAFAFAFAFAFA0301036A66FAFAFAFAFAFAFAFAFAFAFAFAFAFAFAFAFAFA07FAFAFAFAFAFAFAFAFAFAFAFAFAFAFAFAFAFAFAFAFAFAFAFA
310
FAFAFAFAFAFAFAFAFAFAFAFAFAFAFAFAFAFAFAFAFAFAFAFAFAFAFAFAFAFAFAFAFAFAFAFAFAFAFAFAFAFAFA07FAFAFAFAFAFAFAFAFAFAFAFAFAFAFAFAFAFAFAFAFAFA03030303010C03FAFAFAFAFAFAFAFAFAFAFAFA6D68665C706DFAFAFAFAFAFAFAFAFAFAFA7068FAFAFAFAFAFAFAFAFA6D705C66686DFAFAFAFAFAFAFAFA
310
FAFAFAFAFA520152030303FAFAFAFAFAFAFAFAFAFAFAFAFAFAFAFAFA07FAFAFAFAFAFAFAFAFAFAFAFAFAFAFAFAFAFAFAFAFAFAFAFAFAFAFAFAFAFAFAFAFAFAFAFAFAFAFAFAFAFAFAFAFAFAFAFAFAFAFAFAFAFAFAFAFAFAFAFAFAFAFAFAFAFAFA07FAFAFAFAFAFAFAFAFAFAFAFAFAFAFAFAFAFAFAFAFAFA745CFA52F20103FA
310
FAFAFAFAFAFAFAFAFAFAFAFAFAFA6D685C036677FAFAFAFAFAFA03FD0303FAFAFAFAFAFA7766035C686DFAFAFAFAFAFAFAFAFAFAFAFAFAFAFAFA480C38FA5C74FAFAFAFAFAFAFAFAFAFAFAFAFAFAFAFAFA07FAFAFAFAFAFAFAFAFAFAFAFAFAFAFAFAFAFAFAFAFAFAFAFAFAFAFAFAFAFAFAFAFAFAFAFAFAFAFAFAFAFAFAFAFA
310
FAFAFAFAFAFAFAFAFAFAFAFAFAFAFAFAFAFAFAFAFAFA07FAFAFAFAFAFAFA03030303030303030303030303030303030322422C48FAFAFAFAFAFAFAFAFAFAFAFAFAFAFAFAFAFA77685C036674FAFAFA0303035AFAFAFA7466035C6877FAFAFAFAFAFAFAFAFAFAFAFAFAFAFAFAFAFAFA2CF420746603FAFAFAFAFAFAFAFAFAFA
310
FAFAFAFAFAFAFA07FAFAFAFAFAFAFAFAFAFAFAFAFAFAFAFAFAFAFAFAFAFAFAFAFAFAFAFAFAFAFAFAFAFAFAFAFAFAFAFAFAFAFAFAFAFAFAFAFAFAFAFAFAFAFAFAFAFAFAFAFAFAFAFAFAFAFA07FAFAFAFAFAFAFAF1F1F1F1F1F1F1F1F1FAFAFAFAFAFA030303015C4A20FAFAFAFAFAFAFAFAFAFAFAFAFAFAFAFAFAFAFAFAFA77
310
565C03666A0354545B6A66035C5677FAFAFAFAFAFAFAFAFAFAFAFAFAFAFAFAFAFAFAFAFAFA1652015C0303FAFAFAFAFAFAFAFAFAFAFAFAFAFAFAFAFA07FAFAFAFAFAFAFAFAFAFAFAFAFAFAFAFAFAFAFAFAFAFAFAFAFAFAFAFAFAFAFAFAFAFAFAFAFAFAFAFAFAFAFAFAFAFAFAFAFAFAFAFAFAFAFAFAFAFAFAFAFAFAFAFAFAFA
310
FA07FAFAFAFAFAFAFAF1F1F1F1F1F1F1F1F1FAFAFAFAFA6D5C6A5C030303017063FAFAFAFAFAFAFAFAFAFAFAFAFAFAFAFAFAFAFAFAFAFAA95666036464036656A9FAFAFAFAFAFAFAFAFAFAFAFAFAFAFAFAFAFAFAFAFAFA6370030103035C705C6DFAFAFAFAFAFAFAFAFAFAFAFAFAFAFAFA07FAFAFAFAFAFAFAFAFAFAFAFAFA
310
FAFAFAFAFAFAFAFAFAFAFAFAFAFAFAFAFAFAFAFAFAFAFAFAFAFAFAFAFAFAFAFAFAFAFAFAFAFAFAFAFAFAFAFAFAFAFAFAFAFAFAFAFAFA07FAFAFAFAFAFAFAFAFAFAFAFAFAFAFAFAFAFAFAFAFA6866FAFAFA6A0103030303686DFAFAFAFAFAFAFAFAFAFAFAFAFAFAFAFAFAFAFAFAFAFA030303FDFAFAFAFAFAFAFAFAFAFAFAFA
310
FAFAFAFAFAFAFAFAFAFA6D685C0303030170FAFAFA6668FAFAFAFAFAFAFAFAFAFAFAFAFAFAFAFA07FAFAFAFAFAFAFAFAFAFAFAFAFAFAFAFAFAFAFAFAFAFAFAFAFAFAFAFAFAFAFAFAFAFAFAFAFAFAFAFAFAFAFAFAFAFAFAFAFAFAFAFAFAFAFAFAFAFAFAFAFAFAFAFAFAFAFA07FAFAFAFAFAFAFAFAFAFAFAFAFAFAFAFAFAFAFA
310
FAFA035C56FAFA661B24422C0103035C6877FAFAFAFAFAFAFAFAFAFAFAFAFAFAFAFAFAFAFA036666FDFAFAFAFAFAFAFAFAFAFAFAFAFAFAFAFAFAFAFA7768660303012C42251B66FAFA6A5C03FAFAFAFAFAFAFAFAFAFAFAFAFAFAFAFA07FAFAFAFAFAFAFAFAFAFAFAFAFAFAFAFAFAFAFAFAFAFAFAFAFAFAFAFAFAFAFAFAFAFA
310
FAFAFAFAFAFAFAFAFAFAFAFAFAFAFAFAFAFAFAFAFAFAFAFAFAFAFAFAFAFAFAFAFA07FAFAFAFAFAFAFAFAFAFAFAFAFAFAFAFAFAFAFAFAFA0116220366420F0318426A6A5C0303035C68FAFAFAFAFAFAFAFAFAFAFAFAFAFAFAFAFA035C64FDFAFAFAFAFAFAFAFAFAFAFAFAFAFAFAFAFA5666030303035C6642180118425C0322
310
1601FAFAFAFAFAFAFAFAFAFAFAFAFAFAFAFA07FAFAFAFAFAFAFAFAFAFAFAFAFAFAFAFAFAFAFAFAFAFAFAFAFAFAFAFAFAFAFAFAFAFAFAFAFAFAFAFAFAFAFAFAFAFAFAFAFAFAFAFAFAFAFAFAFAFAFAFAFAFAFAFAFAFAFA07FAFAFAFAFAFAFA030303030303030303030303030303030303030303382E66FAFAFAFA6A5C030303
310
0368FAFAFAFAFAFAFAFAFAFAFAFAFAFA036666FDFAFAFAFAFAFAFAFAFAFAFAFAFAFA6A5C0303035C686DFAFAFA66252C481601010CF4FAFAFAFAFAFAFAFAFAFAFAFAFAFAFAFAFA07FAFAFAFAFAFAFAFAFAFAFAFAFAFAFAFAFAFAFAFAFAFAFAFAFAFAFAFAFAFAFAFAFAFAFAFAFAFAFAFAFAFAFAFAFAFAFAFAFAFAFAFAFAFAFA
310
FAFAFAFAFAFAFAFAFAFAFAFA07FAFAFAFAFAFAFAF1F1F1F1F1F1F1F1F1F1F1F1F1F1F1FAFAFAF416010101385C6877FAFAFAFA6A5C0303036656FAFAFAFAFAFAFAFAFAFAFA030303FDFAFAFAFAFAFAFAFAFAFAFA745C0303035C546DFAFAFAFA6A663801010116F4FAFAFAFAFAFAFAFAFAFAFAFAFAFAFAFAFAFAFAFA07FAFA
310
FAFAFAFAFAFAFAFAFAFAFAFAFAFAFAFAFAFAFAFAFAFAFAFAFAFAFAFAFAFAFAFAFAFAFAFAFAFAFAFAFAFAFAFAFAFAFAFAFAFAFAFAFAFAFAFAFAFAFAFAFAFAFAFAFA07FAFAFAFAFAFAFAF1F1F1F1F1F1F1F1F1F1F1F1F1F1F1FAFAFAFAFAFAFA110101164266686DFAFA03FA6A010303036656FAFAFAFAFAFAFAFA03646467FA
310
FAFAFAFAFAFAFA745C030303016863FAFAFAFA6A66481601160FFAFAFAFAFAFAFAFAFAFAFAFAFAFAFAFAFAFAFAFAFAFAFAFA07FAFAFAFAFAFAFAFAFAFAFAFAFAFAFAFAFAFAFAFAFAFAFAFAFAFAFAFAFAFAFAFAFAFAFAFAFAFAFAFAFAFAFAFAFAFAFAFAFAFAFAFAFAFAFAFAFAFAFAFAFAFAFAFAFAFAFA07FAFAFAFAFAFAFA03
310
030303030303030303030303030303030303030303030352200101205203036DFA661B2442200103035C56FAFAFAFAFA0354545BFAFAFAFAFA745C0303012C421B1B66FAFA6A66522201010F13FAFAFAFAFAFAFAFAFAFAFAFAFAFAFAFAFAFAFAFAFAFAFAFAFAFA07FAFAFAFAFAFAFAFAFAFAFAFAFAFAFAFAFAFAFAFAFAFAFA
310
FAFAFAFAFAFAFAFAFAFAFAFAFAFAFAFAFAFAFAFAFAFAFAFAFAFAFAFAFAFAFAFAFAFAFAFAFAFAFAFAFAFAFAFA07FAFAFAFAFAFAFAF1F1F1F1F1F1F1F1F1F1F1F1F1F1F1F1F1F1FAFAFAFAFAFAFAFAFA270F0101205C5C4A0F0118426A6A5C0303035C6AFAFA0377775AFAFA746403030303666842180118425C032201010F27
310
FAFAFAFAFAFAFAFAFAFAFAFAFAFAFAFAFAFAFAFAFAFAFAFAFAFAFAFAFA07FAFAFAFAFAFAFAFAFAFAFAFAFAFAFAFAFAFAFAFAFAFAFAFAFAFAFAFAFAFAFAFAFAFAFAFAFAFAFAFAFAFAFAFAFAFAFAFAFAFAFAFAFAFAFAFAFAFAFAFAFAFAFAFAFAFAFA07FAFAFAFAFAFAFAF1F1F1F1F1F1F1F1F1F1F1F1F1F1F1F1F1F1FAFAFAFA
310
FAFAFAFAFAFAFAFA1A0C01010122402C5CFAFAFAFA6A5C0103035C03FDFD0366030301036677FAFAFA66252C481601010C1AFAFAFAFAFAFAFAFAFAFAFAFAFAFAFAFAFAFAFAFAFAFAFAFAFAFAFAFAFAFAFAFA07FAFAFAFAFAFAFAFAFAFAFAFAFAFAFAFAFAFAFAFAFAFAFAFAFAFAFAFAFAFAFAFAFAFAFAFAFAFAFAFAFAFAFAFA
310
FAFAFAFAFAFAFAFAFAFAFAFAFAFAFAFAFAFAFAFAFAFAFA07FAFAFAFAFAFAFA030303030303030303030303030303030303030303030303030303030303030303032C1601014A031A77FAFA661B2542FC010303012CFC2C2566FAFAFA6A660301160116F4FAFAFAFAFAFAFAFAFAFAFAFAFAFAFAFAFAFAFAFAFAFAFAFAFAFAFA
310
FAFAFAFAFAFAFAFA07FAFAFAFAFAFAFAFAFAFAFAFAFAFAFAFAFAFAFAFAFAFAFAFAFAFAFAFAFAFAFAFAFAFAFAFAFAFAFAFAFAFAFAFAFAFAFAFAFAFAFAFAFAFAFAFAFAFAFAFAFAFAFAFAFAFAFA07FAFAFAFAFAFAFAF1F1F1F1F1F1F1F1F1F1F1F1F1F1F1F1F1F1FAFAFAFAFAFAFAFAFAFAFAFAFAFAFAFAFAFA13F20101F27F64
310
5C421801FCFC70FCFCFC42FC0118427066032216010CF4FAFAFAFAFAFAFAFAFAFAFAFAFAFAFAFAFAFAFAFAFAFAFAFAFAFAFAFAFAFAFAFAFAFAFAFAFAFA07FAFAFAFAFAFAFAFAFAFAFAFAFAFAFAFAFAFAFAFAFAFAFAFAFAFAFAFAFAFAFAFAFAFAFAFAFAFAFAFAFAFAFAFAFAFAFAFAFAFAFAFAFAFAFAFAFAFAFAFAFAFAFAFAFA
310
FAFA07FAFAFAFAFAFAFAF1F1F1F1F1F1F1F1F1F1F1F1F1F1F1F1F1F1FAFAFAFAFAFAFAFAFAFAFAFAFAFAFAFAFAFAFAFA03160D010101164D2F0855FBFCFC0875082F4A160101010CF4FAFAFAFAFAFAFAFAFAFAFAFAFAFAFAFAFAFAFAFAFAFAFAFAFAFAFAFAFAFAFAFAFAFAFAFAFAFAFAFAFA07FAFAFAFAFAFAFAFAFAFAFAFA
310
FAFAFAFAFAFAFAFAFAFAFAFAFAFAFAFAFAFAFAFAFAFAFAFAFAFAFAFAFAFAFAFAFAFAFAFAFAFAFAFAFAFAFAFAFAFAFAFAFAFAFAFAFAFAFA07FAFAFAFAFAFAFA0303030303030303030303030303030303030303030303030303030303030303030303030303134CFAFAFA18160152087355435D4D08E1490116F4FAFAFAFAFA
310
FAFAFAFAFAFAFAFAFAFAFAFAFAFAFAFAFAFAFAFAFAFAFAFAFAFAFAFAFAFAFAFAFAFAFAFAFAFAFAFA07FAFAFAFAFAFAFAFAFAFAFAFAFAFAFAFAFAFAFAFAFAFAFAFAFAFAFAFAFAFAFAFAFAFAFAFAFAFAFAFAFAFAFAFAFAFAFAFAFAFAFAFAFAFAFAFAFAFAFAFAFAFAFAFAFAFAFA07FAFAFAFAFAFAFAF1F1F1F1F1F1F1F1F1F1F1
310
F1FAFAFAFAFAFAFAFAFAFAFAFAFAFAFAFAFAFAFAFAFAFAFAFAFAFA1A08FBFAFAFAFCFC08FC08FC03FD49FC55FCFCFCFAFAFAFAFAFAFAFAFAFAFAFAFAFAFAFAFAFAFAFAFAFAFAFAFAFAFAFAFAFAFAFAFAFAFAFAFAFAFAFAFAFAFAFAFAFA07FAFAFAFAFAFAFAFAFAFAFAFAFAFAFAFAFAFAFAFAFAFAFAFAFAFAFAFAFAFAFAFAFA
310
FAFAFAFAFAFAFAFAFAFAFAFAFAFAFAFAFAFAFAFAFAFAFAFAFAFAFAFAFAFAFAFAFAFA07FAFAFAFAFAFAFAF1F1F1F1F1F1F1F1F1F1F1F1FAFAFAFAFAFAFAFAFAFAFAFAFAFAFAFAFAFAFAFAFAFAFAFAFA03FA4FFB0808FBFCFC08FC08FCFDFAFC08FC08FCFCFAFAFAFAFAFAFAFAFAFAFAFAFAFAFAFAFAFAFAFAFAFAFAFAFAFAFA
310
FAFAFAFAFAFAFAFAFAFAFAFAFAFAFAFAFAFAFA07FAFAFAFAFAFAFAFAFAFAFAFAFAFAFAFAFAFAFAFAFAFAFAFAFAFAFAFAFAFAFAFAFAFAFAFAFAFAFAFAFAFAFAFAFAFAFAFAFAFAFAFAFAFAFAFAFAFAFAFAFAFAFAFAFAFAFA07FAFAFAFAFAFAFA0303030303030303030303030303030303030303030303030303030303030303
310
0303030303FAFAFAFAFA77FB01190808FCFCFDFAFCFC0808FC01FAFAFAFAFAFAFAFAFAFAFAFAFAFAFAFAFAFAFAFAFAFAFAFAFAFAFAFAFAFAFAFAFAFAFAFAFAFAFAFAFAFAFAFAFAFA07FAFAFAFAFAFAFAFAFAFAFAFAFAFAFAFAFAFAFAFAFAFAFAFAFAFAFAFAFAFAFAFAFAFAFAFAFAFAFAFAFAFAFAFAFAFAFAFAFAFAFAFAFAFA
310
FAFAFAFAFAFAFAFAFAFAFAFAFA07FAFAFAFAFAFAFAFAFAFAFAFAFAFAFAFAFAFAFAFAFAFAFAFAFAFAFAFAFAFAFAFAFAFAFAFAFAFAFAFAFAFAFAFAFAFAFAFAFAFA5401FCFCFCFC0308FAFDFCFCFCFC01FAFAFAFAFAFAFAFAFAFAFAFAFAFAFAFAFAFAFAFAFAFAFAFAFAFAFAFAFAFAFAFAFAFAFAFAFAFAFAFAFAFAFAFAFAFA07FA
310
FAFAFAFAFAFAFAFAFAFAFAFAFAFAFAFAFAFAFAFAFAFAFAFAFAFAFAFAFAFAFAFAFAFAFAFAFAFAFAFAFAFAFAFAFAFAFAFAFAFAFAFAFAFAFAFAFAFAFAFAFAFAFAFAFAFA07FAFAFAFAFAFAFAF1F1F1F1F1F1F1F1F1F1F1F1F1F1F1F1F1F1F1F1F1F1F1FAFAFAFAFAFAFAFAFAFAFAFAFAFAFAFAFAFAFA7764FA01FDFDFDFDFAFAFD
310
FDFDFD0101FAFAFAFAFAFAFAFAFAFAFAFAFAFAFAFAFAFAFAFAFAFAFAFAFAFAFAFAFAFAFAFAFAFAFAFAFAFAFAFAFAFAFAFAFAFA07FAFAFAFAFAFAFAFAFAFAFAFAFAFAFAFAFAFAFAFAFAFAFAFAFAFAFAFAFAFAFAFAFAFAFAFAFAFAFAFAFAFAFAFAFAFAFAFAFAFAFAFAFAFAFAFAFAFAFAFAFAFAFAFAFAFAFA07FAFAFAFAFAFAFA
310
F1F1F1F1F1F1F1F1F1F1F1F1F1F1F1F1F1F1F1F1F1F1F10303030303030303030303030303030303030303FAFA0101FDFDFDFAFAFDFDFDFD01FAFAFAFAFAFAFAFAFAFAFAFAFAFAFAFAFAFAFAFAFAFAFAFAFAFAFAFAFAFAFAFAFAFAFAFAFAFAFAFAFAFAFAFAFAFAFA07FAFAFAFAFAFAFAFAFAFAFAFAFAFAFAFAFAFAFAFAFAFA
310
FAFAFAFAFAFAFAFAFAFAFAFAFAFAFAFAFAFAFAFAFAFAFAFAFAFAFAFAFAFAFAFAFAFAFAFAFAFAFAFAFAFAFAFAFA07FAFAFAFAFAFAFAFAFAFAFAFAFAFAFAFAFAFAFAFAFAFAFAFAFAFAFAFAFAFAFAFAFAFAFAFAFAFAFAFAFAFAFAFAFAFAFAFAFAFAFAFAFA0101FAFDFDFDFDFAFD0101FAFAFAFAFAFAFAFAFAFAFAFAFAFAFAFAFA
310
FAFAFAFAFAFAFAFAFAFAFAFAFAFAFAFAFAFAFAFAFAFAFAFAFAFAFAFAFAFA07FAFAFAFAFAFAFAFAFAFAFAFAFAFAFAFAFAFAFAFAFAFAFAFAFAFAFAFAFAFAFAFAFAFAFAFAFAFAFAFAFAFAFAFAFAFAFAFAFAFAFAFAFAFAFAFAFAFAFAFAFAFAFAFAFAFAFA07FAFAFAFAFAFAFAF1F1F1F1F1F1F1F1F1F1F1F1F1F1F1F1F1F1F1F1F1
310
F1F1F1F1F1F1FAFAFAFAFAFAFAFAFAFAFAFAFAFAFAFAFAFAFAFA030301FDFDFD01010103FAFAFAFAFAFAFAFAFAFAFAFAFAFAFAFAFAFAFAFAFAFAFAFAFAFAFAFAFAFAFAFAFAFAFAFAFAFAFAFAFAFAFAFAFAFAFA07FAFAFAFAFAFAFAFAFAFAFAFAFAFAFAFAFAFAFAFAFAFAFAFAFAFAFAFAFAFAFAFAFAFAFAFAFAFAFAFAFAFAFA
310
FAFAFAFAFAFAFAFAFAFAFAFAFAFAFAFAFAFAFAFAFAFAFAFA07FAFAFAFAFAFAFAF1F1F1F1F1F1F1F1F1F1F1F1F1F1F1F1F1F1F1F1F1F1F1F1F1F1F1FAFAFAFAFAFAFAFAFAFAFAFAFAFAFAFAFAFAFA5454FA01010101FAFAFA5454FAFAFAFAFAFAFAFAFAFAFAFAFAFAFAFAFAFAFAFAFAFAFAFAFAFAFAFAFAFAFAFAFAFAFAFAFA
310
FAFAFAFAFAFAFAFAFA07FAFAFAFAFAFAFAFAFAFAFAFAFAFAFAFAFAFAFAFAFAFAFAFAFAFAFAFAFAFAFAFAFAFAFAFAFAFAFAFAFAFAFAFAFAFAFAFAFAFAFAFAFAFAFAFAFAFAFAFAFAFAFAFAFAFAFA07FAFAFAFAFAFAFA030303030303030303030303030303030303030303030303030303030303030303030303030303030303
310
0303030303FAFAFAFAFAFAFAFAFAFA03030303030303030303030303030303030303030303030303030303030303030303030303FAFAFAFAFAFAFAFAFAFA07FAFAFAFAFAFAFAFAFAFAFAFAFAFAFAFAFAFAFAFAFAFAFAFAFAFAFAFAFAFAFAFAFAFAFAFAFAFAFAFAFAFAFAFAFAFAFAFAFAFAFAFAFAFAFAFAFAFAFAFAFAFAFAFA
310
FAFAFA07FAFAFAFAFAFAFAFAFAFAFAFAFAFAFAFAFAFAFAFAFAFAFAFAFAFAFAFAFAFAFAFAFAFAFAFAFAFAFAFAFAFAFAFAFAFAFAFAFAFAFA01FAFAFAFAFAFAFAFAFAFAFAFA01FAFAFAFAFAFAFAFAFAFAFAFAFAFAFAFAFAFAFAFAF1F1F1F1F1F1F1F1F1F1F1F1F1F1F1FAFAFAFAFAFAFAFAFAFAFA07FAFAFAFAFAFAFAFAFAFAFA
310
FAFAFAFAFAFAFAFAFAFAFAFAFAFAFAFAFAFAFAFAFAFAFAFAFAFAFAFAFAFAFAFAFAFAFAFAFAFAFAFAFAFAFAFAFAFAFAFAFAFAFAFAFAFAFAFA07FAFAFAFAFAFAFAF1F1F1F1F1F1F1F1F1F1F1F1F1F1F1F1F1F1F1F1F1F1F1F1F1F1FAFAFAFAFAFAFAFAFAFAFAFAFAFAFAFAFAFAFCFAFAFAFAFAFAFAFAFAFAFAFAFCFAFAFAFAFA
310
FAFAFAFAFAFAFAFAFAFAFAFAFAFAFAF1F1F1F1F1F1F1F1F1F1F1F1F1F1F1FAFAFAFAFAFAFAFAFAFAFA07FAFAFAFAFAFAFAFAFAFAFAFAFAFAFAFAFAFAFAFAFAFAFAFAFAFAFAFAFAFAFAFAFAFAFAFAFAFAFAFAFAFAFAFAFAFAFAFAFAFAFAFAFAFAFAFAFAFAFAFAFAFAFAFAFAFAFA07FAFAFAFAFAFAFAF1F1F1F1F1F1F1F1F1F1
310
F1F1F1F1F1F1F1F1F1F1F1F1F1F1F1F1FAFAFAFAFAFAFAFAFAFAFAFAFAFAFAFAFAFA1A1A1A1A1A1A04041A1A1A1A1A01FAFAFAFAFAFAFAFAFAFAFAFAFAFAFAFAFAFAFAFAFAFAFAFAFAFAFAFAFAFAFAFAFAFAFAFAFAFAFAFAFAFAFAFAFAFA07FAFAFAFAFAFAFAFAFAFAFAFAFAFAFAFAFAFAFAFAFAFAFAFAFAFAFAFAFAFAFAFA
310
FAFAFAFAFAFAFAFAFAFAFAFAFAFAFAFAFAFAFAFAFAFAFAFAFAFAFAFAFAFAFAFAFAFAFA07FAFAFAFAFAFAFAF1F1F1F1F1F1F1F1F1F1F1F1FAFAFAFAFAFAFAFAFAFAFAFAFAFAFAFAFAFAFAFAFAFAFAFAFAFAFAFAFAFAFAFAFAFAFAFAFAFA0404FAFAFAFAFAFAFAFAFAFAFAFAFAFAFAFAFAFAFAFAFAFAFAFAFAFAFAFAFAFAFAFA
310
FAFAFAFAFAFAFAFAFAFAFAFAFAFAFAFAFAFAFAFA07FAFAFAFAFAFAFAFAFAFAFAFAFAFAFAFAFAFAFAFAFAFAFAFAFAFAFAFAFAFAFAFAFAFAFAFAFAFAFAFAFAFAFAFAFAFAFAFAFAFAFAFAFAFAFAFAFAFAFAFAFAFAFAFAFAFAFA07FAFAFAFAFAFAFAFAFAFAFAFAFAFAFAFAFAFAFAFAFAFAFAFAFAFAFAFAFAFAFAFAFAFAFAFAFAFA
310
FAFAFAFAFAFAFAFAFAFAFAFAFAFAFAFAFAFAFAFAFAFAFAFAFAFAFAFAFAFAFAFAFAFAFAFAFAFAFAFAFAFAFAFAFAFAFAFAFAFAFAFAFAFAFAFAFAFAFAFAFAFAFAFAFAFAFAFAFAFAFAFAFA07FAFAFAFAFAFAFAFAFAFAFAFAFAFAFAFAFAFAFAFAFAFAFAFAFAFAFAFAFAFAFAFAFAFAFAFAFAFAFAFAFAFAFAFAFAFAFAFAFAFAFAFAFA
310
FAFAFAFAFAFAFAFAFAFAFAFAFAFA07FAFAFAFAFAFAFAFAFAFAFAFAFAFAFAFAFAFAFAFAFAFAFAFAFAFAFAFAFAFAFAFAFAFAFAFAFAFAFAFAFAFAFAFAFAFAFAFAFAFAFAFAFAFAFAFAFAFAFAFAFAFAFAFAFAFAFAFAFAFAFAFAFAFAFAFAFAFAFAFAFAFAFAFAFAFAFAFAFAFAFAFAFAFAFAFAFAFAFAFAFAFAFAFAFAFAFAFAFAFAFA07
310
FAFAFAFAFAFAFAFAFAFAFAFAFAFAFAFAFAFAFAFAFAFAFAFAFAFAFAFAFAFAFAFAFAFAFAFAFAFAFAFAFAFAFAFAFAFAFAFAFAFAFAFAFAFAFAFAFAFAFAFAFAFAFAFAFAFAFA07FAFAFAFAFAFAFAFAFAFAFAFAFAFAFAFAFAFAFAFAFAFAFAFAFAFAFAFAFAFAFAFAFAFAFAFAFAFAFAFAFAFAFAFAFAFAFAFAFAFAFAFAFAFAFAFAFAFAFA
310
FAFAFAFAFAFAFAFAFAFAFAFAFAFAFAFAFAFAFAFAFAFAFAFAFAFAFAFAFAFAFAFAFAFAFAFAFAFAFAFAFAFAFAFAFAFAFAFAFAFAFAFA07FAFAFAFAFAFAFAFAFAFAFAFAFAFAFAFAFAFAFAFAFAFAFAFAFAFAFAFAFAFAFAFAFAFAFAFAFAFAFAFAFAFAFAFAFAFAFAFAFAFAFAFAFAFAFAFAFAFAFAFAFAFAFAFAFAFAFA07FAFAFAFAFAFA
310
FAFAFAFAFAFAFAFAFAFAFAFAFAFAFAFAFAFAFAFAFAFAFAFAFAFAFAFAFAFAFAFAFAFAFAFAFAFAFAFAFAFAFAFAFAFAFAFAFAFAFAFAFAFAFAFAFAFAFAFAFAFAFAFAFAFAFAFAFAFAFAFAFAFAFAFAFAFAFAFAFAFAFAFAFAFAFAFAFAFAFAFAFAFAFAFAFAFAFAFAFAFAFAFAFA07FAFAFAFAFAFAFAFAFAFAFAFAFAFAFAFAFAFAFAFAFA
310
FAFAFAFAFAFAFAFAFAFAFAFAFAFAFAFAFAFAFAFAFAFAFAFAFAFAFAFAFAFAFAFAFAFAFAFAFAFAFAFAFAFAFAFAFAFA07FAFAFAFAFAFAFAFAFAFAFAFAFAFAFAFAFAFAFAFAFAFAFAFAFAFAFAFAFAFAFAFAFAFAFAFAFAFAFAFAFAFAFAFAFAFAFAFAFAFAFAFAFAFAFAFAFAFAFAFAFAFAFAFAFAFAFAFAFAFAFAFAFAFAFAFAFAFAFAFA
310
FAFAFAFAFAFAFAFAFAFAFAFAFAFAFAFAFAFAFAFAFAFAFAFAFAFAFAFAFAFAFA07FAFAFAFAFAFAFAFAFAFAFAFAFAFAFAFAFAFAFAFAFAFAFAFAFAFAFAFAFAFAFAFAFAFAFAFAFAFAFAFAFAFAFAFAFAFAFAFAFAFAFAFAFAFAFAFAFAFAFAFAFAFAFAFAFAFAFA07FAFAFAFAFAFAFAFAFAFAFAFAFAFAFAFAFAFAFAFAFAFAFAFAFAFAFA
310
FAFAFAFAFAFAFAFAFAFAFAFAFAFAFAFAFAFAFAFAFAFAFAFAFAFAFAFAFAFAFAFAFAFAFAFAFAFAFAFAFAFAFAFAFAFAFAFAFAFAFAFAFAFAFAFAFAFAFAFAFAFAFAFAFAFAFAFAFAFAFAFAFAFAFAFAFAFAFAFAFAFAFAFA07FAFAFAFAFAFAFAFAFAFAFAFAFAFAFAFAFAFAFAFAFAFAFAFAFAFAFAFAFAFAFAFAFAFAFAFAFAFAFAFAFAFA
310
FAFAFAFAFAFAFAFAFAFAFAFAFAFAFAFAFAFAFAFAFAFAFAFAFA07FAFAFAFAFAFAFAFAFAFAFAFAFAFAFAFAFAFAFAFAFAFAFAFAFAFAFAFAFAFAFAFAFAFAFAFAFAFAFAFAFAFAFAFAFAFAFAFAFAFAFAFAFAFAFAFAFAFAFAFAFAFAFAFAFAFAFAFAFAFAFAFAFAFAFAFAFAFAFAFAFAFAFAFAFAFAFAFAFAFAFAFAFAFAFAFAFAFAFAFAFA
310
FAFAFAFAFAFAFAFAFAFA07FAFAFAFAFAFAFAFAFAFAFAFAFAFAFAFAFAFAFAFAFAFAFAFAFAFAFAFAFAFAFAFAFAFAFAFAFAFAFAFAFAFAFAFAFAFAFAFAFAFAFAFAFAFAFAFAFAFAFAFAFAFAFAFAFAFAFA07FAFAFAFAFAFAFAFAFAFAFAFAFAFAFAFAFAFAFAFAFAFAFAFAFAFAFAFAFAFAFAFAFAFAFAFAFAFAFAFAFAFAFAFAFAFAFAFA
310
FAFAFAFAFAFAFAFAFAFAFAFAFAFAFAFAFAFAFAFAFAFAFAFAFAFAFAFAFAFAFAFAFAFAFAFAFAFAFAFAFAFAFAFAFAFAFAFAFAFAFAFAFAFAFAFAFAFAFAFAFAFAFA07FAFAFAFAFAFAFAFAFAFAFAFAFAFAFAFAFAFAFAFAFAFAFAFAFAFAFAFAFAFAFAFAFAFAFAFAFAFAFAFAFAFAFAFAFAFAFAFAFAFAFAFAFAFAFAFAFAFAFAFAFAFAFA
310
FAFAFAFA07FAFAFAFAFAFAFAFAFAFAFAFAFAFAFAFAFAFAFAFAFAFAFAFAFAFAFAFAFAFAFAFAFAFAFAFAFAFAFAFAFAFAFAFAFAFAFAFAFAFAFAFAFAFAFAFAFAFAFAFAFAFAFAFAFAFAFAFAFAFAFAFAFAFAFAFAFAFAFAFAFAFAFAFAFAFAFAFAFAFAFAFAFAFAFAFAFAFAFAFAFAFAFAFAFAFAFAFAFAFAFA07FAFAFAFAFAFAFAFAFAFA
310
FAFAFAFAFAFAFAFAFAFAFAFAFAFAFAFAFAFAFAFAFAFAFAFAFAFAFAFAFAFAFAFAFAFAFAFAFAFAFAFAFAFAFAFAFAFAFAFAFAFAFAFAFAFAFAFAFA07FAFAFAFAFAFAFAFAFAFAFAFAFAFAFAFAFAFAFAFAFAFAFAFAFAFAFAFAFAFAFAFAFAFAFAFAFAFAFAFAFAFAFAFAFAFAFAFAFAFAFAFAFAFAFAFAFAFAFAFAFAFAFAFAFAFAFAFAFA
310
FAFAFAFAFAFAFAFAFAFAFAFAFAFAFAFAFAFAFAFAFAFAFAFAFAFAFAFAFAFAFAFAFAFAFAFAFAFAFAFAFAFA07FAFAFAFAFAFAFAFAFAFAFAFAFAFAFAFAFAFAFAFAFAFAFAFAFAFAFAFAFAFAFAFAFAFAFAFAFAFAFAFAFAFAFAFAFAFAFAFAFAFAFAFAFAFAFAFAFAFAFAFAFAFAFAFAFAFAFA07FAFAFAFAFAFAFAFAFAFAFAFAFAFAFAFA
310
FAFAFAFAFAFAFAFAFAFAFAFAFAFAFAFAFAFAFAFAFAFAFAFAFAFAFAFAFAFAFAFAFAFAFAFAFAFAFAFAFAFAFAFAFAFAFAFAFAFAFAFAFAFAFAFAFAFAFAFAFAFAFAFAFAFAFAFAFAFAFAFAFAFAFAFAFAFAFAFAFAFAFAFAFAFAFAFAFAFAFAFAFAFAFA07FAFAFAFAFAFAFAFAFAFAFAFAFAFAFAFAFAFAFAFAFAFAFAFAFAFAFAFAFAFAFA
310
FAFAFAFAFAFAFAFAFAFAFAFAFAFAFAFAFAFAFAFAFAFAFAFAFAFAFAFAFAFAFAFAFAFAFAFA07070707070707070707070707070707070707070707070707070707070707070707070707070707070707070707070707070707070707070707070707070707070707070707070707070707070707070707070707070707070707
310
07070707070707070707070707070707070707070707FAFAFAFAFAFAFAFAFAFAFAFAFAFAFAFAFAFAFAFAFAFAFAFAFAFAFAFAFAFAFAFAFAFAFAFAFAFAFAFAFAFAFAFAFAFAFAFAFAFAFAFAFAFAFAFAFAFAFAFAFAFAFAFAFAFAFAFAFAFAFAFAFAFAFAFAFAFAFAFAFAFAFAFAFAFAFAFAFAFAFAFAFAFAFAFAFAFAFAFAFAFAFAFAFA
310
FAFAFAFAFAFAFAFAFAFAFAFAFAFAFAFAFAFAFAFAFAFAFAFAFAFAFAFAFAFAFAFAFAFAFAFAFAFAFAFAFAFAFAFAFAFAFAFAFAFAFAFAFAFAFAFAFAFAFAFAFAFAFAFAFAFAFAFAFAFAFAFAFAFAFAFAFAFAFAFAFAFAFAFAFAFAFAFAFAFAFAFAFAFAFAFAFAFAFAFAFAFAFAFAFAFAFAFA
  0
ENDSEC
  0
EOF
