  0
SECTION
  2
HEADER
  9
$ACADVER
  1
AC1032
  9
$ACADMAINTVER
 90
      155
  9
$DWGCODEPAGE
  3
ANSI_1252
  9
$LASTSAVEDBY
  1
ctolentino
  9
$REQUIREDVERSIONS
160
                 0
  9
$INSBASE
 10
0.0
 20
0.0
 30
0.0
  9
$EXTMIN
 10
2.121518365837346
 20
1.490733711908092
 30
0.0
  9
$EXTMAX
 10
1272.136314479724
 20
939.834999082144
 30
0.0
  9
$LIMMIN
 10
0.0
 20
0.0
  9
$LIMMAX
 10
12.0
 20
9.0
  9
$ORTHOMODE
 70
     0
  9
$REGENMODE
 70
     1
  9
$FILLMODE
 70
     1
  9
$QTEXTMODE
 70
     0
  9
$MIRRTEXT
 70
     0
  9
$LTSCALE
 40
1.0
  9
$ATTMODE
 70
     1
  9
$TEXTSIZE
 40
0.2
  9
$TRACEWID
 40
0.05
  9
$TEXTSTYLE
  7
Standard
  9
$CLAYER
  8
0
  9
$CELTYPE
  6
ByLayer
  9
$CECOLOR
 62
   256
  9
$CELTSCALE
 40
1.0
  9
$DISPSILH
 70
     0
  9
$DIMSCALE
 40
1.0
  9
$DIMASZ
 40
0.18
  9
$DIMEXO
 40
0.0625
  9
$DIMDLI
 40
0.38
  9
$DIMRND
 40
0.0
  9
$DIMDLE
 40
0.0
  9
$DIMEXE
 40
0.18
  9
$DIMTP
 40
0.0
  9
$DIMTM
 40
0.0
  9
$DIMTXT
 40
0.18
  9
$DIMCEN
 40
0.09
  9
$DIMTSZ
 40
0.0
  9
$DIMTOL
 70
     0
  9
$DIMLIM
 70
     0
  9
$DIMTIH
 70
     1
  9
$DIMTOH
 70
     1
  9
$DIMSE1
 70
     0
  9
$DIMSE2
 70
     0
  9
$DIMTAD
 70
     0
  9
$DIMZIN
 70
     0
  9
$DIMTOFFSET
 70
     1
  9
$DIMBLK
  1

  9
$DIMASO
 70
     1
  9
$DIMSHO
 70
     1
  9
$DIMPOST
  1

  9
$DIMAPOST
  1

  9
$DIMALT
 70
     0
  9
$DIMALTD
 70
     2
  9
$DIMALTF
 40
25.4
  9
$DIMLFAC
 40
1.0
  9
$DIMTOFL
 70
     0
  9
$DIMTVP
 40
0.0
  9
$DIMTIX
 70
     0
  9
$DIMSOXD
 70
     0
  9
$DIMSAH
 70
     0
  9
$DIMBLK1
  1

  9
$DIMBLK2
  1

  9
$DIMSTYLE
  2
Standard
  9
$DIMCLRD
 70
     0
  9
$DIMCLRE
 70
     0
  9
$DIMCLRT
 70
     0
  9
$DIMTFAC
 40
1.0
  9
$DIMGAP
 40
0.09
  9
$DIMJUST
 70
     0
  9
$DIMSD1
 70
     0
  9
$DIMSD2
 70
     0
  9
$DIMTOLJ
 70
     1
  9
$DIMTZIN
 70
     0
  9
$DIMALTZ
 70
     0
  9
$DIMALTTZ
 70
     0
  9
$DIMUPT
 70
     0
  9
$DIMDEC
 70
     4
  9
$DIMTDEC
 70
     4
  9
$DIMALTU
 70
     2
  9
$DIMALTTD
 70
     2
  9
$DIMTXSTY
  7
Standard
  9
$DIMAUNIT
 70
     0
  9
$DIMADEC
 70
     0
  9
$DIMALTRND
 40
0.0
  9
$DIMAZIN
 70
     0
  9
$DIMDSEP
 70
    46
  9
$DIMATFIT
 70
     3
  9
$DIMFRAC
 70
     0
  9
$DIMLDRBLK
  1

  9
$DIMLUNIT
 70
     2
  9
$DIMLWD
 70
    -2
  9
$DIMLWE
 70
    -2
  9
$DIMTMOVE
 70
     0
  9
$DIMFXL
 40
1.0
  9
$DIMFXLON
 70
     0
  9
$DIMJOGANG
 40
0.7853981633974483
  9
$DIMTFILL
 70
     0
  9
$DIMTFILLCLR
 70
     0
  9
$DIMARCSYM
 70
     0
  9
$DIMLTYPE
  6

  9
$DIMLTEX1
  6

  9
$DIMLTEX2
  6

  9
$DIMTXTDIRECTION
 70
     0
  9
$LUNITS
 70
     2
  9
$LUPREC
 70
     4
  9
$SKETCHINC
 40
0.1
  9
$FILLETRAD
 40
0.0
  9
$AUNITS
 70
     0
  9
$AUPREC
 70
     0
  9
$MENU
  1
.
  9
$ELEVATION
 40
0.0
  9
$PELEVATION
 40
0.0
  9
$THICKNESS
 40
0.0
  9
$LIMCHECK
 70
     0
  9
$CHAMFERA
 40
0.0
  9
$CHAMFERB
 40
0.0
  9
$CHAMFERC
 40
0.0
  9
$CHAMFERD
 40
0.0
  9
$SKPOLY
 70
     0
  9
$TDCREATE
 40
2460916.438306169
  9
$TDUCREATE
 40
2460915.938306169
  9
$TDUPDATE
 40
2460916.566484086
  9
$TDUUPDATE
 40
2460916.066484086
  9
$TDINDWG
 40
0.0766301273
  9
$TDUSRTIMER
 40
0.0766301042
  9
$USRTIMER
 70
     1
  9
$ANGBASE
 50
0.0
  9
$ANGDIR
 70
     0
  9
$PDMODE
 70
     0
  9
$PDSIZE
 40
0.0
  9
$PLINEWID
 40
0.0
  9
$SPLFRAME
 70
     0
  9
$SPLINETYPE
 70
     6
  9
$SPLINESEGS
 70
     8
  9
$HANDSEED
  5
6695
  9
$SURFTAB1
 70
     6
  9
$SURFTAB2
 70
     6
  9
$SURFTYPE
 70
     6
  9
$SURFU
 70
     6
  9
$SURFV
 70
     6
  9
$UCSBASE
  2

  9
$UCSNAME
  2

  9
$UCSORG
 10
0.0
 20
0.0
 30
0.0
  9
$UCSXDIR
 10
1.0
 20
0.0
 30
0.0
  9
$UCSYDIR
 10
0.0
 20
1.0
 30
0.0
  9
$UCSORTHOREF
  2

  9
$UCSORTHOVIEW
 70
     0
  9
$UCSORGTOP
 10
0.0
 20
0.0
 30
0.0
  9
$UCSORGBOTTOM
 10
0.0
 20
0.0
 30
0.0
  9
$UCSORGLEFT
 10
0.0
 20
0.0
 30
0.0
  9
$UCSORGRIGHT
 10
0.0
 20
0.0
 30
0.0
  9
$UCSORGFRONT
 10
0.0
 20
0.0
 30
0.0
  9
$UCSORGBACK
 10
0.0
 20
0.0
 30
0.0
  9
$PUCSBASE
  2

  9
$PUCSNAME
  2

  9
$PUCSORG
 10
0.0
 20
0.0
 30
0.0
  9
$PUCSXDIR
 10
1.0
 20
0.0
 30
0.0
  9
$PUCSYDIR
 10
0.0
 20
1.0
 30
0.0
  9
$PUCSORTHOREF
  2

  9
$PUCSORTHOVIEW
 70
     0
  9
$PUCSORGTOP
 10
0.0
 20
0.0
 30
0.0
  9
$PUCSORGBOTTOM
 10
0.0
 20
0.0
 30
0.0
  9
$PUCSORGLEFT
 10
0.0
 20
0.0
 30
0.0
  9
$PUCSORGRIGHT
 10
0.0
 20
0.0
 30
0.0
  9
$PUCSORGFRONT
 10
0.0
 20
0.0
 30
0.0
  9
$PUCSORGBACK
 10
0.0
 20
0.0
 30
0.0
  9
$USERI1
 70
     0
  9
$USERI2
 70
     0
  9
$USERI3
 70
     0
  9
$USERI4
 70
     0
  9
$USERI5
 70
     0
  9
$USERR1
 40
0.0
  9
$USERR2
 40
0.0
  9
$USERR3
 40
0.0
  9
$USERR4
 40
0.0
  9
$USERR5
 40
0.0
  9
$WORLDVIEW
 70
     1
  9
$SHADEDGE
 70
     3
  9
$SHADEDIF
 70
    70
  9
$TILEMODE
 70
     1
  9
$MAXACTVP
 70
    64
  9
$PINSBASE
 10
0.0
 20
0.0
 30
0.0
  9
$PLIMCHECK
 70
     0
  9
$PEXTMIN
 10
0.0
 20
0.0
 30
0.0
  9
$PEXTMAX
 10
0.0
 20
0.0
 30
0.0
  9
$PLIMMIN
 10
0.0
 20
0.0
  9
$PLIMMAX
 10
12.0
 20
9.0
  9
$UNITMODE
 70
     0
  9
$VISRETAIN
 70
     1
  9
$PLINEGEN
 70
     0
  9
$PSLTSCALE
 70
     1
  9
$TREEDEPTH
 70
  3020
  9
$CMLSTYLE
  2
Standard
  9
$CMLJUST
 70
     0
  9
$CMLSCALE
 40
1.0
  9
$PROXYGRAPHICS
 70
     1
  9
$MEASUREMENT
 70
     0
  9
$CELWEIGHT
370
    -1
  9
$ENDCAPS
280
     0
  9
$JOINSTYLE
280
     0
  9
$LWDISPLAY
290
     0
  9
$INSUNITS
 70
     1
  9
$HYPERLINKBASE
  1

  9
$STYLESHEET
  1

  9
$XEDIT
290
     1
  9
$CEPSNTYPE
380
     0
  9
$PSTYLEMODE
290
     1
  9
$FINGERPRINTGUID
  2
{011C5076-1CE6-4951-8944-42E214B48432}
  9
$VERSIONGUID
  2
{EF5A116A-4A25-4390-9277-3BEEF0A8AB21}
  9
$EXTNAMES
290
     1
  9
$PSVPSCALE
 40
0.0
  9
$OLESTARTUP
290
     0
  9
$SORTENTS
280
   127
  9
$INDEXCTL
280
     0
  9
$HIDETEXT
280
     1
  9
$XCLIPFRAME
280
     2
  9
$HALOGAP
280
     0
  9
$OBSCOLOR
 70
   257
  9
$OBSLTYPE
280
     0
  9
$INTERSECTIONDISPLAY
280
     0
  9
$INTERSECTIONCOLOR
 70
   257
  9
$DIMASSOC
280
     2
  9
$PROJECTNAME
  1

  9
$CAMERADISPLAY
290
     0
  9
$LENSLENGTH
 40
50.0
  9
$CAMERAHEIGHT
 40
0.0
  9
$STEPSPERSEC
 40
2.0
  9
$STEPSIZE
 40
6.0
  9
$3DDWFPREC
 40
2.0
  9
$PSOLWIDTH
 40
0.25
  9
$PSOLHEIGHT
 40
4.0
  9
$LOFTANG1
 40
1.570796326794897
  9
$LOFTANG2
 40
1.570796326794897
  9
$LOFTMAG1
 40
0.0
  9
$LOFTMAG2
 40
0.0
  9
$LOFTPARAM
 70
     7
  9
$LOFTNORMALS
280
     1
  9
$LATITUDE
 40
37.795
  9
$LONGITUDE
 40
-122.394
  9
$NORTHDIRECTION
 40
0.0
  9
$TIMEZONE
 70
 -8000
  9
$LIGHTGLYPHDISPLAY
280
     1
  9
$TILEMODELIGHTSYNCH
280
     1
  9
$CMATERIAL
347
96
  9
$SOLIDHIST
280
     0
  9
$SHOWHIST
280
     1
  9
$DWFFRAME
280
     2
  9
$DGNFRAME
280
     0
  9
$REALWORLDSCALE
290
     1
  9
$INTERFERECOLOR
 62
     1
  9
$INTERFEREOBJVS
345
A3
  9
$INTERFEREVPVS
346
A0
  9
$CSHADOW
280
     0
  9
$SHADOWPLANELOCATION
 40
0.0
  0
ENDSEC
  0
SECTION
  2
CLASSES
  0
CLASS
  1
ACDBDICTIONARYWDFLT
  2
AcDbDictionaryWithDefault
  3
ObjectDBX Classes
 90
        0
 91
        1
280
     0
281
     0
  0
CLASS
  1
ACDBPLACEHOLDER
  2
AcDbPlaceHolder
  3
ObjectDBX Classes
 90
        0
 91
        1
280
     0
281
     0
  0
CLASS
  1
LAYOUT
  2
AcDbLayout
  3
ObjectDBX Classes
 90
        0
 91
        1
280
     0
281
     0
  0
CLASS
  1
DICTIONARYVAR
  2
AcDbDictionaryVar
  3
ObjectDBX Classes
 90
        0
 91
        1
280
     0
281
     0
  0
CLASS
  1
TABLESTYLE
  2
AcDbTableStyle
  3
ObjectDBX Classes
 90
     4095
 91
        1
280
     0
281
     0
  0
CLASS
  1
MATERIAL
  2
AcDbMaterial
  3
ObjectDBX Classes
 90
     1153
 91
        1
280
     0
281
     0
  0
CLASS
  1
VISUALSTYLE
  2
AcDbVisualStyle
  3
ObjectDBX Classes
 90
     4095
 91
        1
280
     0
281
     0
  0
CLASS
  1
SCALE
  2
AcDbScale
  3
ObjectDBX Classes
 90
     1153
 91
        1
280
     0
281
     0
  0
CLASS
  1
MLEADERSTYLE
  2
AcDbMLeaderStyle
  3
ACDB_MLEADERSTYLE_CLASS
 90
     4095
 91
        1
280
     0
281
     0
  0
CLASS
  1
CELLSTYLEMAP
  2
AcDbCellStyleMap
  3
ObjectDBX Classes
 90
     1152
 91
        1
280
     0
281
     0
  0
CLASS
  1
LAYER_INDEX
  2
AcDbLayerIndex
  3
ObjectDBX Classes
 90
        0
 91
        1
280
     0
281
     0
  0
CLASS
  1
SPATIAL_INDEX
  2
AcDbSpatialIndex
  3
AutoCAD 2000
 90
        0
 91
        1
280
     0
281
     0
  0
CLASS
  1
IDBUFFER
  2
AcDbIdBuffer
  3
ObjectDBX Classes
 90
        0
 91
        1
280
     0
281
     0
  0
CLASS
  1
ACDBSECTIONVIEWSTYLE
  2
AcDbSectionViewStyle
  3
ObjectDBX Classes
 90
     1025
 91
        1
280
     0
281
     0
  0
CLASS
  1
ACDBDETAILVIEWSTYLE
  2
AcDbDetailViewStyle
  3
ObjectDBX Classes
 90
     1025
 91
        1
280
     0
281
     0
  0
CLASS
  1
SUN
  2
AcDbSun
  3
SCENEOE
 90
     1153
 91
        1
280
     0
281
     0
  0
CLASS
  1
SORTENTSTABLE
  2
AcDbSortentsTable
  3
ObjectDBX Classes
 90
        0
 91
        1
280
     0
281
     0
  0
CLASS
  1
MULTILEADER
  2
AcDbMLeader
  3
ACDB_MLEADER_CLASS
 90
     1025
 91
        1
280
     0
281
     1
  0
CLASS
  1
DIMASSOC
  2
AcDbDimAssoc
  3
"AcDbDimAssoc|Product Desc:     AcDim ARX App For Dimension|Company:          Autodesk, Inc.|WEB Address:      www.autodesk.com"
 90
        0
 91
        1
280
     0
281
     0
  0
ENDSEC
  0
SECTION
  2
TABLES
  0
TABLE
  2
VPORT
  5
8
330
0
100
AcDbSymbolTable
 70
     1
  0
VPORT
  5
94
330
8
100
AcDbSymbolTableRecord
100
AcDbViewportTableRecord
  2
*Active
 70
     0
 10
0.0
 20
0.0
 11
1.0
 21
1.0
 12
636.0681572398619
 22
469.917499541072
 13
0.0
 23
0.0
 14
0.5
 24
0.5
 15
0.5
 25
0.5
 16
0.0
 26
0.0
 36
1.0
 17
0.0
 27
0.0
 37
0.0
 40
949.7935156287098
 41
2.163826998689384
 42
50.0
 43
0.0
 44
0.0
 50
0.0
 51
0.0
 71
     0
 72
  1000
 73
     1
 74
     3
 75
     0
 76
     1
 77
     0
 78
     0
281
     0
 65
     1
110
0.0
120
0.0
130
0.0
111
1.0
121
0.0
131
0.0
112
0.0
122
1.0
132
0.0
 79
     0
146
0.0
348
9F
 60
     3
 61
     5
292
     1
282
     1
141
0.0
142
0.0
 63
   250
421
  3355443
361
20C
1001
ACAD_NAV_VCDISPLAY
1070
     3
  0
ENDTAB
  0
TABLE
  2
LTYPE
  5
5
330
0
100
AcDbSymbolTable
 70
     4
  0
LTYPE
  5
14
330
5
100
AcDbSymbolTableRecord
100
AcDbLinetypeTableRecord
  2
ByBlock
 70
     0
  3

 72
    65
 73
     0
 40
0.0
  0
LTYPE
  5
15
330
5
100
AcDbSymbolTableRecord
100
AcDbLinetypeTableRecord
  2
ByLayer
 70
     0
  3

 72
    65
 73
     0
 40
0.0
  0
LTYPE
  5
16
330
5
100
AcDbSymbolTableRecord
100
AcDbLinetypeTableRecord
  2
Continuous
 70
     0
  3
Solid line
 72
    65
 73
     0
 40
0.0
  0
LTYPE
  5
51C
330
5
100
AcDbSymbolTableRecord
100
AcDbLinetypeTableRecord
  2
Dash
 70
     0
  3

 72
    65
 73
     2
 40
6.350000000000001
 49
3.175
 74
     0
 49
-3.175
 74
     0
  0
LTYPE
  5
51D
330
5
100
AcDbSymbolTableRecord
100
AcDbLinetypeTableRecord
  2
XAR-1873-FP03-17_off$0$HIDDEN
 70
     0
  3
Hidden __ __ __ __ __ __ __ __ __ __ __ __ __ _
 72
    65
 73
     2
 40
0.375
 49
0.25
 74
     0
 49
-0.125
 74
     0
  0
LTYPE
  5
22E8
330
5
100
AcDbSymbolTableRecord
100
AcDbLinetypeTableRecord
  2
PHANTOM
 70
     0
  3
Phantom ______  __  __  ______  __  __  ______
 72
    65
 73
     6
 40
12.7
 49
6.35
 74
     0
 49
-1.27
 74
     0
 49
1.27
 74
     0
 49
-1.27
 74
     0
 49
1.27
 74
     0
 49
-1.27
 74
     0
  0
ENDTAB
  0
TABLE
  2
LAYER
  5
2
102
{ACAD_XDICTIONARY
360
18E
102
}
330
0
100
AcDbSymbolTable
 70
    10
  0
LAYER
  5
10
330
2
100
AcDbSymbolTableRecord
100
AcDbLayerTableRecord
  2
0
 70
     0
 62
     7
  6
Continuous
370
    -3
390
F
347
98
348
0
  0
LAYER
  5
50B
102
{ACAD_XDICTIONARY
360
50C
102
}
330
2
100
AcDbSymbolTableRecord
100
AcDbLayerTableRecord
  2
DEFPOINTS
 70
     0
 62
     7
  6
Continuous
290
     0
370
    -3
390
F
347
98
348
0
1001
AcAecLayerStandard
1000

1000

  0
LAYER
  5
510
102
{ACAD_XDICTIONARY
360
511
102
}
330
2
100
AcDbSymbolTableRecord
100
AcDbLayerTableRecord
  2
A-_ANOT----_H-_N
 70
     0
 62
    11
  6
Continuous
370
    -3
390
F
347
98
348
0
1001
AcAecLayerStandard
1000

1000

  0
LAYER
  5
513
102
{ACAD_XDICTIONARY
360
514
102
}
330
2
100
AcDbSymbolTableRecord
100
AcDbLayerTableRecord
  2
A-DETL-GENF-OTLN
 70
     0
 62
     3
  6
Continuous
370
     5
390
F
347
98
348
0
1001
AcAecLayerStandard
1000

1000

  0
LAYER
  5
516
102
{ACAD_XDICTIONARY
360
517
102
}
330
2
100
AcDbSymbolTableRecord
100
AcDbLayerTableRecord
  2
_lines
 70
     0
 62
     3
  6
Continuous
370
    -3
390
F
347
98
348
0
1001
AcAecLayerStandard
1000

1000

  0
LAYER
  5
519
102
{ACAD_XDICTIONARY
360
51A
102
}
330
2
100
AcDbSymbolTableRecord
100
AcDbLayerTableRecord
  2
GE FLASHING
 70
     0
 62
     1
  6
Continuous
370
    -3
390
F
347
98
348
0
1001
AcAecLayerStandard
1000

1000

  0
LAYER
  5
80A
102
{ACAD_XDICTIONARY
360
80B
102
}
330
2
100
AcDbSymbolTableRecord
100
AcDbLayerTableRecord
  2
_circles
 70
     0
 62
     3
  6
Continuous
370
    -3
390
F
347
98
348
0
1001
AcAecLayerStandard
1000

1000

  0
LAYER
  5
810
102
{ACAD_XDICTIONARY
360
811
102
}
330
2
100
AcDbSymbolTableRecord
100
AcDbLayerTableRecord
  2
_hatch
 70
     0
 62
   253
  6
Continuous
370
    -3
390
F
347
98
348
0
1001
AcAecLayerStandard
1000

1000

  0
LAYER
  5
1766
102
{ACAD_XDICTIONARY
360
1767
102
}
330
2
100
AcDbSymbolTableRecord
100
AcDbLayerTableRecord
  2
GE TILES
 70
     0
 62
     1
  6
Continuous
370
    -3
390
F
347
98
348
0
1001
AcAecLayerStandard
1000

1000

  0
LAYER
  5
62A4
102
{ACAD_XDICTIONARY
360
62A5
102
}
330
2
100
AcDbSymbolTableRecord
100
AcDbLayerTableRecord
  2
_pline
 70
     0
 62
     1
  6
Continuous
370
    -3
390
F
347
98
348
0
1001
AcAecLayerStandard
1000

1000

  0
ENDTAB
  0
TABLE
  2
STYLE
  5
3
330
0
100
AcDbSymbolTable
 70
     5
  0
STYLE
  5
11
330
3
100
AcDbSymbolTableRecord
100
AcDbTextStyleTableRecord
  2
Standard
 70
     0
 40
0.0
 41
1.0
 50
0.0
 71
     0
 42
0.2
  3
arial.ttf
  4

1001
ACAD
1000
Arial
1071
       34
  0
STYLE
  5
DC
330
3
100
AcDbSymbolTableRecord
100
AcDbTextStyleTableRecord
  2
Annotative
 70
     0
 40
0.0
 41
1.0
 50
0.0
 71
     0
 42
0.2
  3
arial.ttf
  4

1001
AcadAnnotative
1000
AnnotativeData
1002
{
1070
     1
1070
     1
1002
}
1001
ACAD
1000
Arial
1071
       34
  0
STYLE
  5
521
330
3
100
AcDbSymbolTableRecord
100
AcDbTextStyleTableRecord
  2
RS
 70
     0
 40
0.0
 41
1.0
 50
0.0
 71
     0
 42
0.2
  3
swisscl.ttf
  4

1001
ACAD
1000
Swis721 LtCn BT
1071
       34
  0
STYLE
  5
537
330
3
100
AcDbSymbolTableRecord
100
AcDbTextStyleTableRecord
  2
Arial
 70
     0
 40
12.5
 41
1.0
 50
0.0
 71
     0
 42
0.2
  3
arial.ttf
  4

1001
ACAD
1000
Arial
1071
       34
  0
STYLE
  5
20A0
330
3
100
AcDbSymbolTableRecord
100
AcDbTextStyleTableRecord
  2
PDF Arial
 70
     0
 40
0.0
 41
1.0
 50
0.0
 71
     0
 42
0.2
  3
arial.ttf
  4

1001
ACAD
1000
Arial
1071
       34
  0
ENDTAB
  0
TABLE
  2
VIEW
  5
6
330
0
100
AcDbSymbolTable
 70
     0
  0
ENDTAB
  0
TABLE
  2
UCS
  5
7
330
0
100
AcDbSymbolTable
 70
     0
  0
ENDTAB
  0
TABLE
  2
APPID
  5
9
330
0
100
AcDbSymbolTable
 70
    13
  0
APPID
  5
12
330
9
100
AcDbSymbolTableRecord
100
AcDbRegAppTableRecord
  2
ACAD
 70
     0
  0
APPID
  5
DD
330
9
100
AcDbSymbolTableRecord
100
AcDbRegAppTableRecord
  2
AcadAnnoPO
 70
     0
  0
APPID
  5
DE
330
9
100
AcDbSymbolTableRecord
100
AcDbRegAppTableRecord
  2
AcadAnnotative
 70
     0
  0
APPID
  5
DF
330
9
100
AcDbSymbolTableRecord
100
AcDbRegAppTableRecord
  2
ACAD_DSTYLE_DIMJAG
 70
     0
  0
APPID
  5
E0
330
9
100
AcDbSymbolTableRecord
100
AcDbRegAppTableRecord
  2
ACAD_DSTYLE_DIMTALN
 70
     0
  0
APPID
  5
107
330
9
100
AcDbSymbolTableRecord
100
AcDbRegAppTableRecord
  2
ACAD_MLEADERVER
 70
     0
  0
APPID
  5
1A6
330
9
100
AcDbSymbolTableRecord
100
AcDbRegAppTableRecord
  2
ACAD_NAV_VCDISPLAY
 70
     0
  0
APPID
  5
50F
330
9
100
AcDbSymbolTableRecord
100
AcDbRegAppTableRecord
  2
AcAecLayerStandard
 70
     0
  0
APPID
  5
52D
330
9
100
AcDbSymbolTableRecord
100
AcDbRegAppTableRecord
  2
ACAD_DSTYLE_DIMBREAK
 70
     0
  0
APPID
  5
532
330
9
100
AcDbSymbolTableRecord
100
AcDbRegAppTableRecord
  2
REVIT
 70
     0
  0
APPID
  5
533
330
9
100
AcDbSymbolTableRecord
100
AcDbRegAppTableRecord
  2
ACAD_PSEXT
 70
     0
  0
APPID
  5
535
330
9
100
AcDbSymbolTableRecord
100
AcDbRegAppTableRecord
  2
HATCHBACKGROUNDCOLOR
 70
     0
  0
APPID
  5
ADA
330
9
100
AcDbSymbolTableRecord
100
AcDbRegAppTableRecord
  2
AcDbDynamicBlockGUID
 70
     0
  0
ENDTAB
  0
TABLE
  2
DIMSTYLE
  5
A
330
0
100
AcDbSymbolTable
 70
     4
100
AcDbDimStyleTable
  0
DIMSTYLE
105
27
330
A
100
AcDbSymbolTableRecord
100
AcDbDimStyleTableRecord
  2
Standard
 70
     0
178
     0
340
11
  0
DIMSTYLE
105
E1
330
A
100
AcDbSymbolTableRecord
100
AcDbDimStyleTableRecord
  2
Annotative
 70
     0
 40
0.0
178
     0
340
11
1001
AcadAnnotative
1000
AnnotativeData
1002
{
1070
     1
1070
     1
1002
}
1001
ACAD_DSTYLE_DIMJAG
1070
   388
1040
1.5
1001
ACAD_DSTYLE_DIMTALN
1070
   392
1070
     0
  0
DIMSTYLE
105
520
102
{ACAD_REACTORS
330
65A3
330
65A2
330
65E1
330
65DA
330
65E2
330
65D9
330
65E5
330
65D6
330
65DD
102
}
330
A
100
AcDbSymbolTableRecord
100
AcDbDimStyleTableRecord
  2
DIM150
 70
     0
 41
5.0
 42
0.0
 43
0.0
 44
7.0
 46
7.0
 90
        2
 73
     0
 74
     0
 77
     1
140
5.0
141
0.0
147
1.0
172
     1
176
    24
177
     8
271
     0
178
     4
271
     0
272
     0
279
     2
340
521
341
522
342
528
346
51D
347
51D
1001
ACAD_DSTYLE_DIMBREAK
1070
   391
1040
1.0
1001
ACAD_DSTYLE_DIMJAG
1070
   388
1040
1.0
1001
ACAD_DSTYLE_DIMTALN
1070
   392
1070
     0
  0
DIMSTYLE
105
530
330
A
100
AcDbSymbolTableRecord
100
AcDbDimStyleTableRecord
  2
ISO-25
 70
     0
 41
2.5
 42
0.625
 43
3.75
 44
1.25
 73
     0
 74
     0
 77
     1
 78
     8
140
2.5
141
-2.5
143
0.03937007874016
147
0.625
171
     3
172
     1
178
     0
271
     2
272
     2
274
     3
278
    44
283
     0
284
     8
340
11
  0
ENDTAB
  0
TABLE
  2
BLOCK_RECORD
  5
1
330
0
100
AcDbSymbolTable
 70
    35
  0
BLOCK_RECORD
  5
1F
330
1
100
AcDbSymbolTableRecord
100
AcDbBlockTableRecord
  2
*Model_Space
340
22
 70
     0
280
     1
281
     0
  0
BLOCK_RECORD
  5
58
330
1
100
AcDbSymbolTableRecord
100
AcDbBlockTableRecord
  2
*Paper_Space
340
59
 70
     0
280
     1
281
     0
  0
BLOCK_RECORD
  5
5D
330
1
100
AcDbSymbolTableRecord
100
AcDbBlockTableRecord
  2
*Paper_Space0
340
5E
 70
     0
280
     1
281
     0
  0
BLOCK_RECORD
  5
522
330
1
100
AcDbSymbolTableRecord
100
AcDbBlockTableRecord
  2
_OPEN
340
0
 70
     0
280
     1
281
     0
  0
BLOCK_RECORD
  5
528
330
1
100
AcDbSymbolTableRecord
100
AcDbBlockTableRecord
  2
_OBLIQUE
340
0
102
{BLKREFS
331
65EE
331
65EF
331
65FA
331
65FB
331
6605
331
6606
331
6611
331
6612
331
661F
331
6620
331
662B
331
662C
331
6637
331
6638
331
6643
331
6644
331
664F
331
6650
331
665B
331
665C
331
6667
331
6668
331
6673
331
6674
331
667F
331
6680
331
668B
331
668C
102
}
 70
     0
280
     1
281
     0
  0
BLOCK_RECORD
  5
606
102
{ACAD_XDICTIONARY
360
607
102
}
330
1
100
AcDbSymbolTableRecord
100
AcDbBlockTableRecord
  2
G$C6871B53C
340
0
 70
     0
280
     1
281
     0
  0
BLOCK_RECORD
  5
614
102
{ACAD_XDICTIONARY
360
615
102
}
330
1
100
AcDbSymbolTableRecord
100
AcDbBlockTableRecord
  2
G$CD7152208
340
0
 70
     0
280
     1
281
     0
  0
BLOCK_RECORD
  5
639
330
1
100
AcDbSymbolTableRecord
100
AcDbBlockTableRecord
  2
_Dot
340
0
 70
     0
280
     1
281
     0
  0
BLOCK_RECORD
  5
64A
102
{ACAD_XDICTIONARY
360
64B
102
}
330
1
100
AcDbSymbolTableRecord
100
AcDbBlockTableRecord
  2
G$C2A2A107F
340
0
102
{BLKREFS
331
4AE1
102
}
 70
     0
280
     1
281
     0
  0
BLOCK_RECORD
  5
BC8
330
1
100
AcDbSymbolTableRecord
100
AcDbBlockTableRecord
  2
G$C165DBF54
340
0
 70
     0
280
     1
281
     0
1001
AcDbDynamicBlockGUID
1000
{479d2c7b-f6c3-4861-acbc-d34a4f4a2dc7}
  0
BLOCK_RECORD
  5
187B
102
{ACAD_XDICTIONARY
360
187C
102
}
330
1
100
AcDbSymbolTableRecord
100
AcDbBlockTableRecord
  2
G$CEF564B3B
340
0
 70
     0
280
     1
281
     0
  0
BLOCK_RECORD
  5
1882
102
{ACAD_XDICTIONARY
360
1883
102
}
330
1
100
AcDbSymbolTableRecord
100
AcDbBlockTableRecord
  2
G$CB19DC8F7
340
0
 70
     0
280
     1
281
     0
1001
AcDbDynamicBlockGUID
1000
{f172ea19-8cb5-418d-a29b-c5652f4599e6}
  0
BLOCK_RECORD
  5
188F
102
{ACAD_XDICTIONARY
360
1890
102
}
330
1
100
AcDbSymbolTableRecord
100
AcDbBlockTableRecord
  2
G$CE1693FE5
340
0
 70
     0
280
     1
281
     0
  0
BLOCK_RECORD
  5
1B9E
330
1
100
AcDbSymbolTableRecord
100
AcDbBlockTableRecord
  2
G$CFFEEE416
340
0
 70
     0
280
     1
281
     0
1001
AcDbDynamicBlockGUID
1000
{0c2157f6-b3ee-4cc8-8ef8-e3c5727a5504}
  0
BLOCK_RECORD
  5
1D07
330
1
100
AcDbSymbolTableRecord
100
AcDbBlockTableRecord
  2
G$C71E0D0B6
340
0
 70
     0
280
     1
281
     0
1001
AcDbDynamicBlockGUID
1000
{1b67938a-c04f-4007-9aec-0af97924580e}
  0
BLOCK_RECORD
  5
1F7C
102
{ACAD_XDICTIONARY
360
1F7D
102
}
330
1
100
AcDbSymbolTableRecord
100
AcDbBlockTableRecord
  2
G$CD8E13982
340
0
 70
     0
280
     1
281
     0
1001
AcDbDynamicBlockGUID
1000
{a60dc6bd-090b-4d02-89df-6ca7ec748270}
  0
BLOCK_RECORD
  5
2168
330
1
100
AcDbSymbolTableRecord
100
AcDbBlockTableRecord
  2
G$C453E252E
340
0
 70
     0
280
     1
281
     0
1001
AcDbDynamicBlockGUID
1000
{5617beaa-9f4d-4b54-802b-8a0c3ab02923}
  0
BLOCK_RECORD
  5
218F
102
{ACAD_XDICTIONARY
360
2190
102
}
330
1
100
AcDbSymbolTableRecord
100
AcDbBlockTableRecord
  2
G$C34E990A1
340
0
 70
     0
280
     1
281
     0
  0
BLOCK_RECORD
  5
2321
330
1
100
AcDbSymbolTableRecord
100
AcDbBlockTableRecord
  2
G$CC91778B9
340
0
102
{BLKREFS
331
237E
102
}
 70
     0
280
     1
281
     0
1001
AcDbDynamicBlockGUID
1000
{4a7b87a7-3508-4c0b-92ee-70d2268fe1a6}
  0
BLOCK_RECORD
  5
237A
102
{ACAD_XDICTIONARY
360
237B
102
}
330
1
100
AcDbSymbolTableRecord
100
AcDbBlockTableRecord
  2
G$CBE61CC38
340
0
 70
     0
280
     1
281
     0
  0
BLOCK_RECORD
  5
2382
330
1
100
AcDbSymbolTableRecord
100
AcDbBlockTableRecord
  2
G$CB27C112C
340
0
 70
     0
280
     1
281
     0
1001
AcDbDynamicBlockGUID
1000
{c052728d-9344-4c66-8aae-fa5bc194eecd}
  0
BLOCK_RECORD
  5
24C2
102
{ACAD_XDICTIONARY
360
24C3
102
}
330
1
100
AcDbSymbolTableRecord
100
AcDbBlockTableRecord
  2
G$C56DAE06E
340
0
 70
     0
280
     1
281
     0
  0
BLOCK_RECORD
  5
24FE
330
1
100
AcDbSymbolTableRecord
100
AcDbBlockTableRecord
  2
G$C83A38C16
340
0
 70
     0
280
     1
281
     0
1001
AcDbDynamicBlockGUID
1000
{4122586b-fc58-4d96-8268-8d5b18754cbf}
  0
BLOCK_RECORD
  5
26E0
102
{ACAD_XDICTIONARY
360
26E1
102
}
330
1
100
AcDbSymbolTableRecord
100
AcDbBlockTableRecord
  2
G$C2E32D176
340
0
 70
     0
280
     1
281
     0
  0
BLOCK_RECORD
  5
4AD7
102
{ACAD_XDICTIONARY
360
4AD8
102
}
330
1
100
AcDbSymbolTableRecord
100
AcDbBlockTableRecord
  2
G$C1C019EEB
340
0
 70
     0
280
     1
281
     0
  0
BLOCK_RECORD
  5
586F
102
{ACAD_XDICTIONARY
360
5870
102
}
330
1
100
AcDbSymbolTableRecord
100
AcDbBlockTableRecord
  2
G$CB605AD3A
340
0
 70
     0
280
     1
281
     0
  0
BLOCK_RECORD
  5
63E7
102
{ACAD_XDICTIONARY
360
63E8
102
}
330
1
100
AcDbSymbolTableRecord
100
AcDbBlockTableRecord
  2
G$C852D9098
340
0
102
{BLKREFS
331
65D1
102
}
 70
     0
280
     1
281
     0
  0
BLOCK_RECORD
  5
6456
102
{ACAD_XDICTIONARY
360
6457
102
}
330
1
100
AcDbSymbolTableRecord
100
AcDbBlockTableRecord
  2
G$CB224E557
340
0
102
{BLKREFS
331
65E6
331
65E7
102
}
 70
     0
280
     1
281
     0
  0
BLOCK_RECORD
  5
65E8
330
1
100
AcDbSymbolTableRecord
100
AcDbBlockTableRecord
  2
*D467
340
0
 70
     0
280
     1
281
     0
  0
BLOCK_RECORD
  5
65F4
330
1
100
AcDbSymbolTableRecord
100
AcDbBlockTableRecord
  2
*D468
340
0
 70
     0
280
     1
281
     0
  0
BLOCK_RECORD
  5
663D
330
1
100
AcDbSymbolTableRecord
100
AcDbBlockTableRecord
  2
*D474
340
0
 70
     0
280
     1
281
     0
  0
BLOCK_RECORD
  5
6649
330
1
100
AcDbSymbolTableRecord
100
AcDbBlockTableRecord
  2
*D475
340
0
 70
     0
280
     1
281
     0
  0
BLOCK_RECORD
  5
6655
330
1
100
AcDbSymbolTableRecord
100
AcDbBlockTableRecord
  2
*D476
340
0
 70
     0
280
     1
281
     0
  0
BLOCK_RECORD
  5
6661
330
1
100
AcDbSymbolTableRecord
100
AcDbBlockTableRecord
  2
*D477
340
0
 70
     0
280
     1
281
     0
  0
BLOCK_RECORD
  5
666D
330
1
100
AcDbSymbolTableRecord
100
AcDbBlockTableRecord
  2
*D478
340
0
 70
     0
280
     1
281
     0
  0
BLOCK_RECORD
  5
6679
330
1
100
AcDbSymbolTableRecord
100
AcDbBlockTableRecord
  2
*D479
340
0
 70
     0
280
     1
281
     0
  0
BLOCK_RECORD
  5
6685
330
1
100
AcDbSymbolTableRecord
100
AcDbBlockTableRecord
  2
*D480
340
0
 70
     0
280
     1
281
     0
  0
ENDTAB
  0
ENDSEC
  0
SECTION
  2
BLOCKS
  0
BLOCK
  5
20
330
1F
100
AcDbEntity
  8
0
100
AcDbBlockBegin
  2
*Model_Space
 70
     0
 10
0.0
 20
0.0
 30
0.0
  3
*Model_Space
  1

  0
ENDBLK
  5
21
330
1F
100
AcDbEntity
  8
0
100
AcDbBlockEnd
  0
BLOCK
  5
5A
330
58
100
AcDbEntity
 67
     1
  8
0
100
AcDbBlockBegin
  2
*Paper_Space
 70
     0
 10
0.0
 20
0.0
 30
0.0
  3
*Paper_Space
  1

  0
ENDBLK
  5
5B
330
58
100
AcDbEntity
 67
     1
  8
0
100
AcDbBlockEnd
  0
BLOCK
  5
5F
330
5D
100
AcDbEntity
  8
0
100
AcDbBlockBegin
  2
*Paper_Space0
 70
     0
 10
0.0
 20
0.0
 30
0.0
  3
*Paper_Space0
  1

  0
ENDBLK
  5
60
330
5D
100
AcDbEntity
  8
0
100
AcDbBlockEnd
  0
BLOCK
  5
523
330
522
100
AcDbEntity
  8
0
370
    -1
100
AcDbBlockBegin
  2
_OPEN
 70
     0
 10
0.0
 20
0.0
 30
0.0
  3
_OPEN
  1

  0
LINE
  5
524
330
522
100
AcDbEntity
  8
0
  6
ByBlock
 62
     0
370
    -1
100
AcDbLine
 10
-1.0
 20
0.1666666666666667
 30
0.0
 11
0.0
 21
0.0
 31
0.0
  0
LINE
  5
525
330
522
100
AcDbEntity
  8
0
  6
ByBlock
 62
     0
370
    -1
100
AcDbLine
 10
0.0
 20
0.0
 30
0.0
 11
-1.0
 21
-0.1666666666666667
 31
0.0
  0
LINE
  5
526
330
522
100
AcDbEntity
  8
0
  6
ByBlock
 62
     0
370
    -1
100
AcDbLine
 10
0.0
 20
0.0
 30
0.0
 11
-1.0
 21
0.0
 31
0.0
  0
ENDBLK
  5
527
330
522
100
AcDbEntity
  8
0
370
    -1
100
AcDbBlockEnd
  0
BLOCK
  5
529
330
528
100
AcDbEntity
  8
0
370
    -1
100
AcDbBlockBegin
  2
_OBLIQUE
 70
     0
 10
0.0
 20
0.0
 30
0.0
  3
_OBLIQUE
  1

  0
LINE
  5
52A
330
528
100
AcDbEntity
  8
0
  6
ByBlock
 62
     0
370
    -2
100
AcDbLine
 10
-0.5
 20
-0.5
 30
0.0
 11
0.5
 21
0.5
 31
0.0
  0
LINE
  5
52B
330
528
100
AcDbEntity
  8
0
  6
ByBlock
 62
     0
370
    -2
100
AcDbLine
 10
0.0
 20
0.0
 30
0.0
 11
0.0
 21
0.0
 31
0.0
  0
ENDBLK
  5
52C
330
528
100
AcDbEntity
  8
A-_ANOT----_H-_N
370
    -1
100
AcDbBlockEnd
  0
BLOCK
  5
609
330
606
100
AcDbEntity
  8
0
100
AcDbBlockBegin
  2
G$C6871B53C
 70
     0
 10
0.0
 20
0.0
 30
0.0
  3
G$C6871B53C
  1

  0
LWPOLYLINE
  5
60A
330
606
100
AcDbEntity
  8
0
 62
     3
370
    -3
100
AcDbPolyline
 90
        4
 70
     1
 43
0.0
 10
0.0
 20
0.0
 10
40.0
 20
0.0
 10
40.0
 20
50.0
 10
0.0
 20
50.0
  0
LINE
  5
60B
330
606
100
AcDbEntity
  8
0
 62
     8
 48
0.5
370
    -3
100
AcDbLine
 10
0.0
 20
50.0
 30
0.0
 11
40.0
 21
0.0
 31
0.0
  0
LINE
  5
60C
330
606
100
AcDbEntity
  8
0
 62
     8
 48
0.5
370
    -3
100
AcDbLine
 10
0.0
 20
0.0
 30
0.0
 11
40.0
 21
50.0
 31
0.0
  0
ENDBLK
  5
60D
330
606
100
AcDbEntity
  8
0
100
AcDbBlockEnd
  0
BLOCK
  5
617
330
614
100
AcDbEntity
  8
0
100
AcDbBlockBegin
  2
G$CD7152208
 70
     0
 10
0.0
 20
0.0
 30
0.0
  3
G$CD7152208
  1

  0
LINE
  5
618
330
614
100
AcDbEntity
  8
_lines
100
AcDbLine
 10
16.88076436214124
 20
87.75396592278958
 30
0.0
 11
16.88076436214124
 21
90.41469002391386
 31
0.0
  0
ARC
  5
619
330
614
100
AcDbEntity
  8
_lines
100
AcDbCircle
 10
15.88076436214124
 20
90.41469002391386
 30
0.0
 40
1.0
100
AcDbArc
 50
0.0
 51
90.0
  0
LINE
  5
61A
330
614
100
AcDbEntity
  8
_lines
100
AcDbLine
 10
15.88076436214124
 20
91.41469002391386
 30
0.0
 11
3.051734022178607
 21
91.41469002391386
 31
0.0
  0
ARC
  5
61B
330
614
100
AcDbEntity
  8
_lines
100
AcDbCircle
 10
3.051734022178607
 20
90.41469002391023
 30
0.0
 40
1.000000000001535
100
AcDbArc
 50
90.0
 51
169.5118037983809
  0
LINE
  5
61C
330
614
100
AcDbEntity
  8
_lines
100
AcDbLine
 10
2.068441592201452
 20
90.59672298013356
 30
0.0
 11
0.0334151400465998
 21
79.60406458068064
 31
0.0
  0
ARC
  5
61D
330
614
100
AcDbEntity
  8
_lines
100
AcDbCircle
 10
2.000000000000909
 20
79.23999866823397
 30
0.0
 40
2.00000000000096
100
AcDbArc
 50
169.5118037983667
 51
237.7651800470682
  0
LINE
  5
61E
330
614
100
AcDbEntity
  8
_lines
100
AcDbLine
 10
0.9332191429266459
 20
77.54826033060999
 30
0.0
 11
6.371753296591123
 21
74.11881500999334
 31
0.0
  0
ARC
  5
61F
330
614
100
AcDbEntity
  8
_lines
100
AcDbCircle
 10
-9.629959559511008
 20
48.74273994565374
 30
0.0
 40
30.00000000000131
100
AcDbArc
 50
14.33762585345906
 51
57.76518004708165
  0
LINE
  5
620
330
614
100
AcDbEntity
  8
_lines
100
AcDbLine
 10
19.43564002405219
 20
56.17179916254281
 30
0.0
 11
24.88320987134648
 21
34.85861814428245
 31
0.0
  0
ARC
  5
621
330
614
100
AcDbEntity
  8
_lines
100
AcDbCircle
 10
53.94880945490786
 20
42.28767736117152
 30
0.0
 40
29.99999999999993
100
AcDbArc
 50
194.3376258534557
 51
229.3656677408582
  0
LINE
  5
622
330
614
100
AcDbEntity
  8
_lines
100
AcDbLine
 10
34.41193753198604
 20
19.52124076105065
 30
0.0
 11
38.30499333734133
 21
16.18043982702875
 31
0.0
  0
ARC
  5
623
330
614
100
AcDbEntity
  8
_lines
100
AcDbCircle
 10
25.28041205539466
 20
1.002815426949383
 30
0.0
 40
19.9999999999985
100
AcDbArc
 50
36.21083694825055
 51
49.36566774085934
  0
LINE
  5
624
330
614
100
AcDbEntity
  8
_lines
100
AcDbLine
 10
42.50828968670521
 20
10.33716085122251
 30
0.0
 11
42.03339202656753
 21
7.259654366209361
 31
0.0
  0
ARC
  5
625
330
614
100
AcDbEntity
  8
_lines
100
AcDbCircle
 10
40.53168502446533
 20
10.64217562005797
 30
0.0
 40
1.999999999999788
100
AcDbArc
 50
351.2277387767663
 51
36.21083694826925
  0
LINE
  5
626
330
614
100
AcDbEntity
  8
_lines
100
AcDbLine
 10
41.41738386142606
 20
12.81798114441881
 30
0.0
 11
42.14538220506802
 21
11.82369219180509
 31
0.0
  0
ARC
  5
627
330
614
100
AcDbEntity
  8
_lines
100
AcDbCircle
 10
46.9749036821695
 20
6.497117444119795
 30
0.0
 40
4.9999999999997
100
AcDbArc
 50
171.227738776756
 51
207.9735891547149
  0
LINE
  5
628
330
614
100
AcDbEntity
  8
_lines
100
AcDbLine
 10
42.55908415777958
 20
4.151794880375746
 30
0.0
 11
44.20019929318551
 21
1.061870974503108
 31
0.0
  0
ARC
  5
629
330
614
100
AcDbEntity
  8
_lines
100
AcDbCircle
 10
45.96652710294165
 20
2.000000000001819
 30
0.0
 40
2.000000000000503
100
AcDbArc
 50
207.9735891548032
 51
270.0
  0
LINE
  5
62A
330
614
100
AcDbEntity
  8
_lines
100
AcDbLine
 10
45.96652710294165
 20
0.0
 30
0.0
 11
130.542071139379
 21
0.0
 31
0.0
  0
ARC
  5
62B
330
614
100
AcDbEntity
  8
_lines
100
AcDbCircle
 10
130.542071139379
 20
2.000000000001819
 30
0.0
 40
2.000000000001817
100
AcDbArc
 50
270.0
 51
0.0
  0
LINE
  5
62C
330
614
100
AcDbEntity
  8
_lines
100
AcDbLine
 10
132.5420711393808
 20
2.000000000001819
 30
0.0
 11
132.5420711393808
 21
73.5
 31
0.0
  0
ARC
  5
62D
330
614
100
AcDbEntity
  8
_lines
100
AcDbCircle
 10
131.042071139379
 20
73.5
 30
0.0
 40
1.500000000000002
100
AcDbArc
 50
0.0
 51
180.0
  0
LINE
  5
62E
330
614
100
AcDbEntity
  8
_lines
100
AcDbLine
 10
129.542071139379
 20
73.5
 30
0.0
 11
129.542071139379
 21
68.5
 31
0.0
  0
LINE
  5
62F
330
614
100
AcDbEntity
  8
_lines
100
AcDbLine
 10
131.042071139379
 20
73.5
 30
0.0
 11
131.042071139379
 21
62.15193032068782
 31
0.0
  0
ARC
  5
630
330
614
100
AcDbEntity
  8
_lines
100
AcDbCircle
 10
126.042071139379
 20
62.15193032068782
 30
0.0
 40
4.999999999999996
100
AcDbArc
 50
298.7687820837271
 51
0.0
  0
LINE
  5
631
330
614
100
AcDbEntity
  8
_lines
100
AcDbLine
 10
128.4484518502222
 20
57.76908514038769
 30
0.0
 11
92.31948031753109
 21
37.93264177486344
 31
0.0
  0
ARC
  5
632
330
614
100
AcDbEntity
  8
_lines
100
AcDbCircle
 10
89.91309960668787
 20
42.31548695516358
 30
0.0
 40
4.999999999999999
100
AcDbArc
 50
242.5985020513257
 51
298.7687820837271
  0
LINE
  5
633
330
614
100
AcDbEntity
  8
_lines
100
AcDbLine
 10
87.61198462772245
 20
37.87647018862845
 30
0.0
 11
9.670371818519016
 21
78.28015013687582
 31
0.0
  0
ARC
  5
634
330
614
100
AcDbEntity
  8
_lines
100
AcDbCircle
 10
11.97148679748443
 20
82.71916690341095
 30
0.0
 40
4.999999999999999
100
AcDbArc
 50
171.8014896755656
 51
242.5985020513257
  0
ARC
  5
635
330
614
100
AcDbEntity
  8
_lines
100
AcDbCircle
 10
11.97148679748443
 20
84.14519890070551
 30
0.0
 40
5.000000000000023
100
AcDbArc
 50
90.0
 51
188.198510324455
  0
LINE
  5
636
330
614
100
AcDbEntity
  8
_lines
100
AcDbLine
 10
11.97148679748443
 20
89.14519890070551
 30
0.0
 11
14.66945682582627
 21
89.14519890070551
 31
0.0
  0
ENDBLK
  5
637
330
614
100
AcDbEntity
  8
0
100
AcDbBlockEnd
  0
BLOCK
  5
63A
330
639
100
AcDbEntity
  8
0
100
AcDbBlockBegin
  2
_Dot
 70
     0
 10
0.0
 20
0.0
 30
0.0
  3
_Dot
  1

  0
LWPOLYLINE
  5
63B
330
639
100
AcDbEntity
  8
0
  6
ByBlock
 62
     0
440
 16777216
100
AcDbPolyline
 90
        2
 70
     1
 43
0.5
 10
-0.25
 20
0.0
 42
1.0
 10
0.25
 20
0.0
 42
1.0
  0
LINE
  5
63C
330
639
100
AcDbEntity
  8
0
  6
ByBlock
 62
     0
440
 16777216
370
    -2
100
AcDbLine
 10
-0.5
 20
0.0
 30
0.0
 11
-1.0
 21
0.0
 31
0.0
  0
ENDBLK
  5
63D
330
639
100
AcDbEntity
  8
0
100
AcDbBlockEnd
  0
BLOCK
  5
64D
330
64A
100
AcDbEntity
  8
0
100
AcDbBlockBegin
  2
G$C2A2A107F
 70
     0
 10
0.0
 20
0.0
 30
0.0
  3
G$C2A2A107F
  1

  0
LWPOLYLINE
  5
64E
330
64A
100
AcDbEntity
  8
0
 62
     1
 48
0.5
370
    -3
100
AcDbPolyline
 90
       13
 70
     0
 43
0.39
 10
3.991807792449436
 20
0.0607952146779098
 10
0.2052291347154096
 20
11.60084799211245
 42
-0.3154444403219085
 10
4.148211283686578
 20
17.2288358209812
 10
167.1912729961223
 20
76.04996977377732
 42
0.3160763298158982
 10
172.4763846200494
 20
83.5752193447529
 42
0.0979840179088652
 10
171.8633558313695
 20
86.67339389046492
 42
-0.1901895654699158
 10
171.7753170694477
 20
92.62187120955605
 42
-0.2331417737959737
 10
176.9113534049084
 20
97.42200648388143
 10
338.5020032749271
 20
153.8107698771269
 42
0.4195131113913144
 10
340.2870431224546
 20
157.7016170894017
 10
337.5324503276252
 20
165.085650864052
 42
-0.3849086565160594
 10
340.8742863619391
 20
170.8982900926762
 10
359.8959654100909
 20
177.0788082708418
  0
ENDBLK
  5
64F
330
64A
100
AcDbEntity
  8
0
100
AcDbBlockEnd
  0
BLOCK
  5
BC9
330
BC8
100
AcDbEntity
  8
0
100
AcDbBlockBegin
  2
G$C165DBF54
 70
     0
 10
0.0
 20
0.0
 30
0.0
  3
G$C165DBF54
  1

  0
LINE
  5
BCA
330
BC8
100
AcDbEntity
  8
_lines
100
AcDbLine
 10
0.3929681876434188
 20
20.27561882960981
 30
0.0
 11
8.124407595323646
 21
0.0
 31
0.0
1001
REVIT
1002
{
1070
     3
1000
541600
1002
}
  0
ARC
  5
BCB
330
BC8
100
AcDbEntity
  8
_lines
100
AcDbCircle
 10
5.988025489960819
 20
22.40910964332579
 30
0.0
 40
5.988025489960886
100
AcDbArc
 50
109.9696388459708
 51
200.8727024843681
1001
REVIT
1002
{
1070
     3
1000
541600
1002
}
  0
LINE
  5
BCC
330
BC8
100
AcDbEntity
  8
_lines
100
AcDbLine
 10
361.5033518494483
 20
188.7323064455377
 30
0.0
 11
342.4816728012966
 21
182.5517882673721
 31
0.0
1001
REVIT
1002
{
1070
     3
1000
541600
1002
}
  0
ARC
  5
BCD
330
BC8
100
AcDbEntity
  8
_lines
100
AcDbCircle
 10
344.026757773172
 20
177.7965056858957
 30
0.0
 40
5.000000000000037
100
AcDbArc
 50
108.0000000000086
 51
200.872702484329
1001
REVIT
1002
{
1070
     3
1000
541600
1002
}
  0
LINE
  5
BCE
330
BC8
100
AcDbEntity
  8
0
 62
     1
 48
0.5
370
    -3
100
AcDbLine
 10
343.5449590526696
 20
150.746785398358
 30
0.0
 11
3.942982148970259
 21
28.03709747219364
 31
0.0
1001
REVIT
1002
{
1070
     3
1000
541600
1002
}
  0
LINE
  5
BCF
330
BC8
100
AcDbEntity
  8
_lines
100
AcDbLine
 10
339.3548861255831
 20
176.0150413139672
 30
0.0
 11
346.5176818500531
 21
157.2306845848125
 31
0.0
1001
REVIT
1002
{
1070
     3
1000
541600
1002
}
  0
ARC
  5
BD0
330
BC8
100
AcDbEntity
  8
_lines
100
AcDbCircle
 10
341.8458102024642
 20
155.4492202128822
 30
0.0
 40
4.999999999999972
100
AcDbArc
 50
289.8665030839831
 51
20.8727024843527
1001
REVIT
1002
{
1070
     3
1000
541600
1002
}
  0
CIRCLE
  5
BD1
330
BC8
100
AcDbEntity
  8
_circles
100
AcDbCircle
 10
340.0597577961616
 20
177.1414329795771
 30
0.0
 40
0.5
1001
REVIT
1002
{
1070
     3
1000
548272
1002
}
  0
LWPOLYLINE
  5
BD2
330
BC8
100
AcDbEntity
  8
0
 62
     1
 48
0.5
370
    -3
100
AcDbPolyline
 90
        8
 70
     0
 43
0.39
 10
8.124407595323646
 20
0.0
 10
0.1289867743497073
 20
21.17294031940961
 42
-0.3736071094690657
 10
3.942982148970281
 20
28.03709747219425
 10
343.5449590526696
 20
150.7467853983584
 42
0.4193666086212307
 10
346.5176818500531
 20
157.2306845848125
 10
339.2385977974005
 20
176.3565320589077
 42
-0.4077765970010953
 10
342.4816728012966
 20
182.5517882673721
 10
361.5033518494483
 20
188.7323064455377
  0
ENDBLK
  5
BD3
330
BC8
100
AcDbEntity
  8
0
100
AcDbBlockEnd
  0
BLOCK
  5
187E
330
187B
100
AcDbEntity
  8
0
100
AcDbBlockBegin
  2
G$CEF564B3B
 70
     0
 10
0.0
 20
0.0
 30
0.0
  3
G$CEF564B3B
  1

  0
LWPOLYLINE
  5
187F
330
187B
100
AcDbEntity
  8
GE FLASHING
 62
     1
 48
0.5
370
    -3
100
AcDbPolyline
 90
        5
 70
     0
 43
1.0
 10
90.37167965212939
 20
93.13741346982351
 10
90.37167965212939
 20
137.7740636299386
 10
0.5
 20
137.7740636299386
 10
0.5
 20
44.19081537009652
 10
9.5
 20
0.0999999999999091
  0
ENDBLK
  5
1880
330
187B
100
AcDbEntity
  8
0
100
AcDbBlockEnd
  0
BLOCK
  5
1885
330
1882
100
AcDbEntity
  8
GE FLASHING
100
AcDbBlockBegin
  2
G$CB19DC8F7
 70
     0
 10
0.0
 20
0.0
 30
0.0
  3
G$CB19DC8F7
  1

  0
LWPOLYLINE
  5
1886
330
1882
100
AcDbEntity
  8
GE TILES
 62
     1
 48
0.5
370
    -3
100
AcDbPolyline
 90
      100
 70
     0
 43
1.0
 10
0.5
 20
40.50640191459752
 10
0.5
 20
0.506401914597518
 10
14.1725153997686
 20
0.500118431415558
 42
0.3144374898271473
 10
16.81581283750165
 20
2.344808262156221
 42
-0.0952816377930046
 10
20.63509879313187
 20
8.684814391263444
 42
-0.1507717279415002
 10
25.66152323887854
 20
11.69320834219798
 42
-0.0890307948874332
 10
28.90061418777259
 20
11.89573612264667
 42
-0.1464817733278774
 10
34.20013489598841
 20
9.617286225188764
 42
-0.0085850172702223
 10
36.36945415475475
 20
7.737145184496057
 42
0.1851250302374373
 10
40.67128017781943
 20
6.092474862468862
 42
0.0161362627762171
 10
43.97366053396672
 20
6.202164435833765
 42
0.1680002659188674
 10
47.62084806579151
 20
7.737145184629753
 42
-0.0485798954908245
 10
52.27894242697039
 20
11.16329436993465
 42
-0.1983824016748921
 10
57.21651403806118
 20
11.88637168073956
 42
-0.047523137941845
 10
61.33409766229579
 20
10.42406521811972
 42
-0.1630622330458971
 10
63.93659805260813
 20
7.953000555517974
 42
0.0298243649624302
 10
66.57762552654731
 20
3.622572194136865
 42
-0.0554847166023468
 10
67.81706495662638
 20
1.33439106573951
 42
0.3144581315813627
 10
68.82136102408822
 20
0.6822900860524896
 42
-0.1075480814737937
 10
69.8177868205812
 20
0.500118431415558
 10
80.89175846141552
 20
0.5064024137050183
 42
0.2677971490740892
 10
83.57467810244816
 20
2.056401914584967
 10
86.33025617792191
 20
7.937827973607455
 42
-0.2909805391793188
 10
90.38222667345235
 20
10.51404450718292
 10
105.539499278756
 20
10.55585857672531
 10
111.2089692617174
 20
11.23063264256552
 10
114.6655868486605
 20
11.19046292570647
 10
118.6311006377946
 20
10.62367477374619
 10
123.0573623773744
 20
9.386827873678612
 10
126.1594207850212
 20
8.056397858123091
 10
129.2248930004716
 20
6.47201829828191
 10
131.4881645881032
 20
5.811293573851344
 10
133.7432006337431
 20
5.74502765606303
 10
135.8499342378982
 20
6.203079345412789
 10
137.5337544901186
 20
6.986468366736517
 10
140.7950917390208
 20
8.807104952828468
 42
-0.2343085133768697
 10
156.8614793675533
 20
7.594591718855554
 42
-0.0369830761216474
 10
158.9750527230408
 20
6.11872238388105
 42
0.0452840395304961
 10
161.2311011927886
 20
4.59835705992009
 42
0.0839199469717881
 10
163.9300143321916
 20
3.658674814784263
 42
0.0577814066399808
 10
167.1340254517172
 20
3.491394980279438
 42
0.0817118573763595
 10
169.8277797613273
 20
4.111711191467748
 42
0.060460522145006
 10
172.7267047677788
 20
5.73389432799695
 42
-0.0175628328589988
 10
175.3359050103627
 20
7.502983267269883
 42
-0.1193038223792303
 10
178.3178182144256
 20
8.501805458517993
 42
-0.0466804696993966
 10
182.6728703623321
 20
8.468861645591005
 42
-0.1224255899562275
 10
185.7635084384356
 20
7.359928461627078
 42
-0.0021976574366095
 10
187.7148586459762
 20
6.046227317925513
 42
0.0598692057381186
 10
190.1835734509341
 20
4.769353675192178
 42
0.0805518231819641
 10
196.5889408784378
 20
3.491062266356948
 42
0.1085830654256639
 10
202.470526338966
 20
4.561922786614105
 42
0.0431621048222569
 10
206.0825613577226
 20
6.454738890144654
 42
-0.073120503309113
 10
213.5135972274193
 20
9.799796311475802
 42
-0.2135351777441864
 10
219.0976687736083
 20
8.991474148594534
 42
0.0277003729638193
 10
221.8823694662906
 20
7.437039103971074
 42
0.0666138996187925
 10
225.5894862758341
 20
6.205645711431771
 42
0.1383936215819727
 10
231.5653848895408
 20
6.729081522864362
 42
0.071769835774096
 10
235.2223579450556
 20
8.754056798192778
 42
-0.0511818591444494
 10
238.3013124250056
 20
10.62792028270633
 42
-0.1776902975007202
 10
241.5546881623677
 20
10.93049883443064
 42
-0.2052507455354989
 10
243.8378261473599
 20
9.144415901918364
 10
247.0417144123421
 20
2.293215352718562
 42
0.2911769892817301
 10
249.8498349677729
 20
0.506401914597518
 10
261.1567026265111
 20
0.5448467670753416
 42
0.2667636498253825
 10
263.5460291287709
 20
2.465096660755535
 10
267.3861375849601
 20
10.05756280756714
 42
-0.1913380611813692
 10
269.9149055353237
 20
11.06203593723512
 10
279.353229131154
 20
11.03820211102266
 42
-0.1941050331233009
 10
283.4751162140983
 20
8.954638598132533
 42
0.0713673250360073
 10
285.0694761338123
 20
7.587074005034992
 42
0.1305424751270063
 10
289.9025117658671
 20
6.055598081225071
 42
0.1537998043526602
 10
294.8000385041751
 20
7.347742183331775
 42
-0.0342019839470086
 10
297.2821976325763
 20
8.687003429507058
 42
-0.1759827198152869
 10
299.609032997389
 20
8.86889660181123
 42
-0.0245861296963565
 10
301.8102541421395
 20
8.140541378602848
 42
-0.1390652413202865
 10
303.0185787390719
 20
7.231336964232469
 42
0.1892836867809608
 10
304.4670411471247
 20
6.348679678694225
 42
-0.0012892425160863
 10
306.240592503932
 20
6.033779596651584
 42
0.22312029341888
 10
308.7863599962434
 20
6.713049575530476
 42
-0.0259294320993023
 10
309.90007038779
 20
7.556101087043771
 42
-0.0668917843344885
 10
313.8636002301564
 20
9.532276123581596
 42
-0.2028112030561561
 10
317.6937928740622
 20
9.258872889142367
 42
0.0033231228805357
 10
319.5754927409284
 20
8.31529122162192
 42
0.0339765351938608
 10
324.3389263245299
 20
6.355948850759432
 42
0.174403570499621
 10
329.9220580049969
 20
6.484526417232246
 42
-0.0142766282042484
 10
332.4259145242595
 20
7.369692131039301
 42
0.1273253406553399
 10
335.278345056076
 20
9.176132187994881
 42
-0.2836931045728486
 10
339.8049350942242
 20
10.40443517272979
 42
-0.0046855754428039
 10
343.7463822015347
 20
9.197030756550248
 42
-0.195884940313394
 10
345.7104704139006
 20
7.564403306076656
 42
0.2728160678700086
 10
347.6450242904602
 20
6.384423292642623
 42
-0.0576703196817088
 10
350.0823247332728
 20
6.065165383007297
 42
0.2597477929231045
 10
352.3466979607565
 20
6.674340685362495
 42
-0.0797956924462406
 10
353.9226653300943
 20
7.780073461120082
 42
0.1930007918767561
 10
355.5701900673371
 20
9.595599550231327
 42
-0.3447979284179001
 10
357.2784954296867
 20
10.64560463221051
 42
0.1498657568152403
 10
359.1987351896905
 20
11.00410606923788
 10
374.6972637832068
 20
10.99034944575214
 42
-0.3059463717492144
 10
377.8929074820962
 20
8.552612251653045
 10
380.8102808585181
 20
2.296285237615848
  0
ENDBLK
  5
1887
330
1882
100
AcDbEntity
  8
GE FLASHING
100
AcDbBlockEnd
  0
BLOCK
  5
1892
330
188F
100
AcDbEntity
  8
_lines
100
AcDbBlockBegin
  2
G$CE1693FE5
 70
     0
 10
0.0
 20
0.0
 30
0.0
  3
G$CE1693FE5
  1

  0
HATCH
  5
1893
330
188F
100
AcDbEntity
  8
0
  6
Dash
 62
     8
 48
0.1
370
    18
100
AcDbHatch
 10
0.0
 20
0.0
 30
0.0
210
0.0
220
0.0
230
1.0
  2
SOLID
 70
     1
 71
     0
 91
        1
 92
        0
 93
        4
 72
     1
 10
1.959124880144373
 20
0.7372192214470488
 11
1.959124880144373
 21
5.569324604104168
 72
     1
 10
1.959124880144373
 20
5.569324604104168
 11
2.618048341415488
 21
5.569324604104168
 72
     1
 10
2.618048341416397
 20
5.569324604104168
 11
2.618048341416397
 21
0.7372192214470488
 72
     1
 10
2.618048341416397
 20
0.7372192214470488
 11
1.959124880145282
 21
0.7372192214470488
 97
        0
 75
     0
 76
     1
 98
        1
 10
2.618048341416397
 20
3.153271912775836
1001
REVIT
1002
{
1070
     3
1000
162980
1002
}
  0
LINE
  5
1894
330
188F
100
AcDbEntity
  8
0
  6
Dash
 62
     8
 48
0.1
370
    18
100
AcDbLine
 10
2.618048341416397
 20
2.102181275184194
 30
0.0
 11
3.086642861036125
 21
2.102181275184194
 31
0.0
1001
REVIT
1002
{
1070
     3
1000
162980
1002
}
  0
LINE
  5
1895
330
188F
100
AcDbEntity
  8
0
  6
Dash
 62
     8
 48
0.1
370
    18
100
AcDbLine
 10
3.677922969505744
 20
2.102181275184194
 30
0.0
 11
40.70648383665321
 21
2.102181275185103
 31
0.0
1001
REVIT
1002
{
1070
     3
1000
162980
1002
}
  0
LINE
  5
1896
330
188F
100
AcDbEntity
  8
0
  6
Dash
 62
     8
 48
0.1
370
    18
100
AcDbLine
 10
40.70648383665412
 20
4.204362550368842
 30
0.0
 11
3.933691160676972
 21
4.204362550367932
 31
0.0
1001
REVIT
1002
{
1070
     3
1000
162980
1002
}
  0
LINE
  5
1897
330
188F
100
AcDbEntity
  8
0
  6
Dash
 62
     8
 48
0.1
370
    18
100
AcDbLine
 10
3.342411052208263
 20
4.204362550367932
 30
0.0
 11
2.618048341416397
 21
4.204362550367478
 31
0.0
1001
REVIT
1002
{
1070
     3
1000
162980
1002
}
  0
LINE
  5
1898
330
188F
100
AcDbEntity
  8
0
  6
Dash
 62
     8
 48
0.1
370
    18
100
AcDbLine
 10
0.0
 20
1.336261008598285
 30
0.0
 11
0.0
 21
4.970282816953386
 31
0.0
1001
REVIT
1002
{
1070
     3
1000
162980
1002
}
  0
ARC
  5
1899
330
188F
100
AcDbEntity
  8
0
  6
Dash
 62
     8
 48
0.1
370
    18
100
AcDbCircle
 10
0.7093329076560622
 20
1.336261008598285
 30
0.0
 40
0.7093329076562176
100
AcDbArc
 50
122.3800650937775
 51
237.6199349062225
1001
REVIT
1002
{
1070
     3
1000
162980
1002
}
  0
ARC
  5
189A
330
188F
100
AcDbEntity
  8
0
  6
Dash
 62
     8
 48
0.1
370
    18
100
AcDbCircle
 10
2.416052691327423
 20
3.153271912775836
 30
0.0
 40
2.416052691327213
100
AcDbArc
 50
149.7273586810873
 51
210.2726413189127
1001
REVIT
1002
{
1070
     3
1000
162980
1002
}
  0
ARC
  5
189B
330
188F
100
AcDbEntity
  8
0
  6
Dash
 62
     8
 48
0.1
370
    18
100
AcDbCircle
 10
0.7093329076560622
 20
4.970282816953386
 30
0.0
 40
0.7093329076562584
100
AcDbArc
 50
122.3800650937972
 51
237.6199349062225
1001
REVIT
1002
{
1070
     3
1000
162980
1002
}
  0
LINE
  5
189C
330
188F
100
AcDbEntity
  8
0
  6
Dash
 62
     8
 48
0.1
370
    18
100
AcDbLine
 10
1.629663149508815
 20
5.569324604104168
 30
0.0
 11
0.3294617306355576
 21
5.569324604104168
 31
0.0
1001
REVIT
1002
{
1070
     3
1000
162980
1002
}
  0
LINE
  5
189D
330
188F
100
AcDbEntity
  8
0
  6
Dash
 62
     8
 48
0.1
370
    18
100
AcDbLine
 10
1.629663149508815
 20
4.37124102980215
 30
0.0
 11
0.3294617306355576
 21
4.37124102980215
 31
0.0
1001
REVIT
1002
{
1070
     3
1000
162980
1002
}
  0
LINE
  5
189E
330
188F
100
AcDbEntity
  8
0
  6
Dash
 62
     8
 48
0.1
370
    18
100
AcDbLine
 10
1.629663149508815
 20
1.935302795749521
 30
0.0
 11
0.3294617306355576
 21
1.935302795749521
 31
0.0
1001
REVIT
1002
{
1070
     3
1000
162980
1002
}
  0
LINE
  5
189F
330
188F
100
AcDbEntity
  8
0
  6
Dash
 62
     8
 48
0.1
370
    18
100
AcDbLine
 10
1.629663149508815
 20
0.7372192214470488
 30
0.0
 11
0.3294617306355576
 21
0.7372192214470488
 31
0.0
1001
REVIT
1002
{
1070
     3
1000
162980
1002
}
  0
LINE
  5
18A0
330
188F
100
AcDbEntity
  8
0
  6
Dash
 62
     8
 48
0.1
370
    18
100
AcDbLine
 10
1.629663149508815
 20
6.306543825551216
 30
0.0
 11
1.629663149509724
 21
0.0
 31
0.0
1001
REVIT
1002
{
1070
     3
1000
162980
1002
}
  0
LINE
  5
18A1
330
188F
100
AcDbEntity
  8
0
  6
Dash
 62
     8
 48
0.1
370
    18
100
AcDbLine
 10
1.959124880144373
 20
6.306543825551216
 30
0.0
 11
1.629663149508815
 21
6.306543825551216
 31
0.0
1001
REVIT
1002
{
1070
     3
1000
162980
1002
}
  0
LINE
  5
18A2
330
188F
100
AcDbEntity
  8
0
  6
Dash
 62
     8
 48
0.1
370
    18
100
AcDbLine
 10
1.629663149509724
 20
0.0
 30
0.0
 11
1.959124880145282
 21
0.0000000000004547
 31
0.0
1001
REVIT
1002
{
1070
     3
1000
162980
1002
}
  0
LINE
  5
18A3
330
188F
100
AcDbEntity
  8
0
  6
Dash
 62
     8
 48
0.1
370
    18
100
AcDbLine
 10
1.959124880144373
 20
6.306543825551216
 30
0.0
 11
1.959124880145282
 21
5.569324604104168
 31
0.0
1001
REVIT
1002
{
1070
     3
1000
162980
1002
}
  0
LINE
  5
18A4
330
188F
100
AcDbEntity
  8
0
  6
Dash
 62
     8
 48
0.1
370
    18
100
AcDbLine
 10
1.959124880145282
 20
0.7372192214475035
 30
0.0
 11
1.959124880145282
 21
0.0000000000004547
 31
0.0
1001
REVIT
1002
{
1070
     3
1000
162980
1002
}
  0
LINE
  5
18A5
330
188F
100
AcDbEntity
  8
0
  6
Dash
 62
     8
 48
0.1
370
    18
100
AcDbLine
 10
3.937443091726891
 20
4.235200001892736
 30
0.0
 11
4.379852680223848
 21
1.726170545823152
 31
0.0
1001
REVIT
1002
{
1070
     3
1000
162980
1002
}
  0
LINE
  5
18A6
330
188F
100
AcDbEntity
  8
0
  6
Dash
 62
     8
 48
0.1
370
    18
100
AcDbLine
 10
4.379852680223848
 20
1.726170545823152
 30
0.0
 11
4.594818725230652
 21
2.102181275184194
 31
0.0
1001
REVIT
1002
{
1070
     3
1000
162980
1002
}
  0
LINE
  5
18A7
330
188F
100
AcDbEntity
  8
0
  6
Dash
 62
     8
 48
0.1
370
    18
100
AcDbLine
 10
40.70648383665321
 20
2.102181275185103
 30
0.0
 11
41.95912488014528
 21
3.1532719127772
 31
0.0
1001
REVIT
1002
{
1070
     3
1000
162980
1002
}
  0
LINE
  5
18A8
330
188F
100
AcDbEntity
  8
0
  6
Dash
 62
     8
 48
0.1
370
    18
100
AcDbLine
 10
40.70648383665412
 20
4.204362550368842
 30
0.0
 11
41.95912488014528
 21
3.1532719127772
 31
0.0
1001
REVIT
1002
{
1070
     3
1000
162980
1002
}
  0
LINE
  5
18A9
330
188F
100
AcDbEntity
  8
0
  6
Dash
 62
     8
 48
0.1
370
    18
100
AcDbLine
 10
41.95912488014528
 20
3.1532719127772
 30
0.0
 11
39.35424813983536
 21
4.204362550368842
 31
0.0
1001
REVIT
1002
{
1070
     3
1000
162980
1002
}
  0
ARC
  5
18AA
330
188F
100
AcDbEntity
  8
0
  6
Dash
 62
     8
 48
0.1
370
    18
100
AcDbCircle
 10
42.43472275428303
 20
3.203085492852551
 30
0.0
 40
2.049097326358384
100
AcDbArc
 50
164.3059196023562
 51
212.497514400309
1001
REVIT
1002
{
1070
     3
1000
162980
1002
}
  0
LINE
  5
18AB
330
188F
100
AcDbEntity
  8
0
  6
Dash
 62
     8
 48
0.1
370
    18
100
AcDbLine
 10
5.853350113638953
 20
4.580373279728974
 30
0.0
 11
6.356623064038104
 21
1.726170545823152
 31
0.0
1001
REVIT
1002
{
1070
     3
1000
162980
1002
}
  0
LINE
  5
18AC
330
188F
100
AcDbEntity
  8
0
  6
Dash
 62
     8
 48
0.1
370
    18
100
AcDbLine
 10
5.638384068632149
 20
4.204362550367932
 30
0.0
 11
5.853350113638953
 21
4.580373279728974
 31
0.0
1001
REVIT
1002
{
1070
     3
1000
162980
1002
}
  0
LINE
  5
18AD
330
188F
100
AcDbEntity
  8
0
  6
Dash
 62
     8
 48
0.1
370
    18
100
AcDbLine
 10
6.356623064038104
 20
1.726170545823152
 30
0.0
 11
6.571589109044908
 21
2.102181275184194
 31
0.0
1001
REVIT
1002
{
1070
     3
1000
162980
1002
}
  0
LINE
  5
18AE
330
188F
100
AcDbEntity
  8
0
  6
Dash
 62
     8
 48
0.1
370
    18
100
AcDbLine
 10
7.830120497453208
 20
4.580373279728974
 30
0.0
 11
8.333393447853268
 21
1.726170545823152
 31
0.0
1001
REVIT
1002
{
1070
     3
1000
162980
1002
}
  0
LINE
  5
18AF
330
188F
100
AcDbEntity
  8
0
  6
Dash
 62
     8
 48
0.1
370
    18
100
AcDbLine
 10
7.615154452446404
 20
4.204362550367932
 30
0.0
 11
7.830120497453208
 21
4.580373279728974
 31
0.0
1001
REVIT
1002
{
1070
     3
1000
162980
1002
}
  0
LINE
  5
18B0
330
188F
100
AcDbEntity
  8
0
  6
Dash
 62
     8
 48
0.1
370
    18
100
AcDbLine
 10
8.333393447853268
 20
1.726170545823152
 30
0.0
 11
8.548359492860072
 21
2.102181275184194
 31
0.0
1001
REVIT
1002
{
1070
     3
1000
162980
1002
}
  0
LINE
  5
18B1
330
188F
100
AcDbEntity
  8
0
  6
Dash
 62
     8
 48
0.1
370
    18
100
AcDbLine
 10
9.806890881267464
 20
4.580373279728974
 30
0.0
 11
10.31016383166752
 21
1.726170545823152
 31
0.0
1001
REVIT
1002
{
1070
     3
1000
162980
1002
}
  0
LINE
  5
18B2
330
188F
100
AcDbEntity
  8
0
  6
Dash
 62
     8
 48
0.1
370
    18
100
AcDbLine
 10
9.59192483626066
 20
4.204362550367932
 30
0.0
 11
9.806890881267464
 21
4.580373279728974
 31
0.0
1001
REVIT
1002
{
1070
     3
1000
162980
1002
}
  0
LINE
  5
18B3
330
188F
100
AcDbEntity
  8
0
  6
Dash
 62
     8
 48
0.1
370
    18
100
AcDbLine
 10
10.31016383166752
 20
1.726170545823152
 30
0.0
 11
10.52512987667433
 21
2.102181275184194
 31
0.0
1001
REVIT
1002
{
1070
     3
1000
162980
1002
}
  0
LINE
  5
18B4
330
188F
100
AcDbEntity
  8
0
  6
Dash
 62
     8
 48
0.1
370
    18
100
AcDbLine
 10
11.78366126508172
 20
4.580373279728974
 30
0.0
 11
12.28693421548178
 21
1.726170545823152
 31
0.0
1001
REVIT
1002
{
1070
     3
1000
162980
1002
}
  0
LINE
  5
18B5
330
188F
100
AcDbEntity
  8
0
  6
Dash
 62
     8
 48
0.1
370
    18
100
AcDbLine
 10
11.56869522007491
 20
4.204362550367932
 30
0.0
 11
11.78366126508172
 21
4.580373279728974
 31
0.0
1001
REVIT
1002
{
1070
     3
1000
162980
1002
}
  0
LINE
  5
18B6
330
188F
100
AcDbEntity
  8
0
  6
Dash
 62
     8
 48
0.1
370
    18
100
AcDbLine
 10
12.28693421548178
 20
1.726170545823152
 30
0.0
 11
12.50190026048858
 21
2.102181275184194
 31
0.0
1001
REVIT
1002
{
1070
     3
1000
162980
1002
}
  0
LINE
  5
18B7
330
188F
100
AcDbEntity
  8
0
  6
Dash
 62
     8
 48
0.1
370
    18
100
AcDbLine
 10
13.76043164889688
 20
4.580373279728974
 30
0.0
 11
14.26370459929603
 21
1.726170545823152
 31
0.0
1001
REVIT
1002
{
1070
     3
1000
162980
1002
}
  0
LINE
  5
18B8
330
188F
100
AcDbEntity
  8
0
  6
Dash
 62
     8
 48
0.1
370
    18
100
AcDbLine
 10
13.54546560389008
 20
4.204362550367932
 30
0.0
 11
13.76043164889688
 21
4.580373279728974
 31
0.0
1001
REVIT
1002
{
1070
     3
1000
162980
1002
}
  0
LINE
  5
18B9
330
188F
100
AcDbEntity
  8
0
  6
Dash
 62
     8
 48
0.1
370
    18
100
AcDbLine
 10
14.26370459929603
 20
1.726170545823152
 30
0.0
 11
14.47867064430284
 21
2.102181275184194
 31
0.0
1001
REVIT
1002
{
1070
     3
1000
162980
1002
}
  0
LINE
  5
18BA
330
188F
100
AcDbEntity
  8
0
  6
Dash
 62
     8
 48
0.1
370
    18
100
AcDbLine
 10
15.73720203271114
 20
4.580373279728974
 30
0.0
 11
16.24047498311029
 21
1.726170545823152
 31
0.0
1001
REVIT
1002
{
1070
     3
1000
162980
1002
}
  0
LINE
  5
18BB
330
188F
100
AcDbEntity
  8
0
  6
Dash
 62
     8
 48
0.1
370
    18
100
AcDbLine
 10
15.52223598770433
 20
4.204362550367932
 30
0.0
 11
15.73720203271114
 21
4.580373279728974
 31
0.0
1001
REVIT
1002
{
1070
     3
1000
162980
1002
}
  0
LINE
  5
18BC
330
188F
100
AcDbEntity
  8
0
  6
Dash
 62
     8
 48
0.1
370
    18
100
AcDbLine
 10
16.24047498311029
 20
1.726170545823152
 30
0.0
 11
16.45544102811709
 21
2.102181275184194
 31
0.0
1001
REVIT
1002
{
1070
     3
1000
162980
1002
}
  0
LINE
  5
18BD
330
188F
100
AcDbEntity
  8
0
  6
Dash
 62
     8
 48
0.1
370
    18
100
AcDbLine
 10
17.71397241652539
 20
4.580373279728974
 30
0.0
 11
18.21724536692454
 21
1.726170545823607
 31
0.0
1001
REVIT
1002
{
1070
     3
1000
162980
1002
}
  0
LINE
  5
18BE
330
188F
100
AcDbEntity
  8
0
  6
Dash
 62
     8
 48
0.1
370
    18
100
AcDbLine
 10
17.49900637151859
 20
4.204362550368387
 30
0.0
 11
17.71397241652539
 21
4.580373279728974
 31
0.0
1001
REVIT
1002
{
1070
     3
1000
162980
1002
}
  0
LINE
  5
18BF
330
188F
100
AcDbEntity
  8
0
  6
Dash
 62
     8
 48
0.1
370
    18
100
AcDbLine
 10
18.21724536692454
 20
1.726170545823607
 30
0.0
 11
18.43221141193226
 21
2.102181275184648
 31
0.0
1001
REVIT
1002
{
1070
     3
1000
162980
1002
}
  0
LINE
  5
18C0
330
188F
100
AcDbEntity
  8
0
  6
Dash
 62
     8
 48
0.1
370
    18
100
AcDbLine
 10
19.69074280033965
 20
4.580373279729429
 30
0.0
 11
20.19401575073971
 21
1.726170545823607
 31
0.0
1001
REVIT
1002
{
1070
     3
1000
162980
1002
}
  0
LINE
  5
18C1
330
188F
100
AcDbEntity
  8
0
  6
Dash
 62
     8
 48
0.1
370
    18
100
AcDbLine
 10
19.47577675533284
 20
4.204362550368387
 30
0.0
 11
19.69074280033965
 21
4.580373279729429
 31
0.0
1001
REVIT
1002
{
1070
     3
1000
162980
1002
}
  0
LINE
  5
18C2
330
188F
100
AcDbEntity
  8
0
  6
Dash
 62
     8
 48
0.1
370
    18
100
AcDbLine
 10
20.19401575073971
 20
1.726170545823607
 30
0.0
 11
20.40898179574651
 21
2.102181275184648
 31
0.0
1001
REVIT
1002
{
1070
     3
1000
162980
1002
}
  0
LINE
  5
18C3
330
188F
100
AcDbEntity
  8
0
  6
Dash
 62
     8
 48
0.1
370
    18
100
AcDbLine
 10
21.6675131841539
 20
4.580373279729429
 30
0.0
 11
22.17078613455396
 21
1.726170545823607
 31
0.0
1001
REVIT
1002
{
1070
     3
1000
162980
1002
}
  0
LINE
  5
18C4
330
188F
100
AcDbEntity
  8
0
  6
Dash
 62
     8
 48
0.1
370
    18
100
AcDbLine
 10
21.4525471391471
 20
4.204362550368387
 30
0.0
 11
21.6675131841539
 21
4.580373279729429
 31
0.0
1001
REVIT
1002
{
1070
     3
1000
162980
1002
}
  0
LINE
  5
18C5
330
188F
100
AcDbEntity
  8
0
  6
Dash
 62
     8
 48
0.1
370
    18
100
AcDbLine
 10
22.17078613455396
 20
1.726170545823607
 30
0.0
 11
22.38575217956077
 21
2.102181275184648
 31
0.0
1001
REVIT
1002
{
1070
     3
1000
162980
1002
}
  0
LINE
  5
18C6
330
188F
100
AcDbEntity
  8
0
  6
Dash
 62
     8
 48
0.1
370
    18
100
AcDbLine
 10
23.64428356796907
 20
4.580373279729429
 30
0.0
 11
24.14755651836822
 21
1.726170545823607
 31
0.0
1001
REVIT
1002
{
1070
     3
1000
162980
1002
}
  0
LINE
  5
18C7
330
188F
100
AcDbEntity
  8
0
  6
Dash
 62
     8
 48
0.1
370
    18
100
AcDbLine
 10
23.42931752296226
 20
4.204362550368387
 30
0.0
 11
23.64428356796907
 21
4.580373279729429
 31
0.0
1001
REVIT
1002
{
1070
     3
1000
162980
1002
}
  0
LINE
  5
18C8
330
188F
100
AcDbEntity
  8
0
  6
Dash
 62
     8
 48
0.1
370
    18
100
AcDbLine
 10
24.14755651836822
 20
1.726170545823607
 30
0.0
 11
24.36252256337502
 21
2.102181275184648
 31
0.0
1001
REVIT
1002
{
1070
     3
1000
162980
1002
}
  0
LINE
  5
18C9
330
188F
100
AcDbEntity
  8
0
  6
Dash
 62
     8
 48
0.1
370
    18
100
AcDbLine
 10
25.62105395178332
 20
4.580373279729429
 30
0.0
 11
26.12432690218247
 21
1.726170545823607
 31
0.0
1001
REVIT
1002
{
1070
     3
1000
162980
1002
}
  0
LINE
  5
18CA
330
188F
100
AcDbEntity
  8
0
  6
Dash
 62
     8
 48
0.1
370
    18
100
AcDbLine
 10
25.40608790677652
 20
4.204362550368387
 30
0.0
 11
25.62105395178332
 21
4.580373279729429
 31
0.0
1001
REVIT
1002
{
1070
     3
1000
162980
1002
}
  0
LINE
  5
18CB
330
188F
100
AcDbEntity
  8
0
  6
Dash
 62
     8
 48
0.1
370
    18
100
AcDbLine
 10
26.12432690218247
 20
1.726170545823607
 30
0.0
 11
26.33929294718928
 21
2.102181275184648
 31
0.0
1001
REVIT
1002
{
1070
     3
1000
162980
1002
}
  0
LINE
  5
18CC
330
188F
100
AcDbEntity
  8
0
  6
Dash
 62
     8
 48
0.1
370
    18
100
AcDbLine
 10
27.59782433559758
 20
4.580373279729429
 30
0.0
 11
28.10109728599673
 21
1.726170545823607
 31
0.0
1001
REVIT
1002
{
1070
     3
1000
162980
1002
}
  0
LINE
  5
18CD
330
188F
100
AcDbEntity
  8
0
  6
Dash
 62
     8
 48
0.1
370
    18
100
AcDbLine
 10
27.38285829059078
 20
4.204362550368387
 30
0.0
 11
27.59782433559758
 21
4.580373279729429
 31
0.0
1001
REVIT
1002
{
1070
     3
1000
162980
1002
}
  0
LINE
  5
18CE
330
188F
100
AcDbEntity
  8
0
  6
Dash
 62
     8
 48
0.1
370
    18
100
AcDbLine
 10
28.10109728599673
 20
1.726170545823607
 30
0.0
 11
28.31606333100444
 21
2.102181275184648
 31
0.0
1001
REVIT
1002
{
1070
     3
1000
162980
1002
}
  0
LINE
  5
18CF
330
188F
100
AcDbEntity
  8
0
  6
Dash
 62
     8
 48
0.1
370
    18
100
AcDbLine
 10
29.57459471941183
 20
4.580373279729429
 30
0.0
 11
30.07786766981189
 21
1.726170545823607
 31
0.0
1001
REVIT
1002
{
1070
     3
1000
162980
1002
}
  0
LINE
  5
18D0
330
188F
100
AcDbEntity
  8
0
  6
Dash
 62
     8
 48
0.1
370
    18
100
AcDbLine
 10
29.35962867440503
 20
4.204362550368387
 30
0.0
 11
29.57459471941183
 21
4.580373279729429
 31
0.0
1001
REVIT
1002
{
1070
     3
1000
162980
1002
}
  0
LINE
  5
18D1
330
188F
100
AcDbEntity
  8
0
  6
Dash
 62
     8
 48
0.1
370
    18
100
AcDbLine
 10
30.07786766981189
 20
1.726170545823607
 30
0.0
 11
30.2928337148187
 21
2.102181275184648
 31
0.0
1001
REVIT
1002
{
1070
     3
1000
162980
1002
}
  0
LINE
  5
18D2
330
188F
100
AcDbEntity
  8
0
  6
Dash
 62
     8
 48
0.1
370
    18
100
AcDbLine
 10
31.55136510322609
 20
4.580373279729429
 30
0.0
 11
32.05463805362615
 21
1.726170545824061
 31
0.0
1001
REVIT
1002
{
1070
     3
1000
162980
1002
}
  0
LINE
  5
18D3
330
188F
100
AcDbEntity
  8
0
  6
Dash
 62
     8
 48
0.1
370
    18
100
AcDbLine
 10
31.33639905821929
 20
4.204362550368387
 30
0.0
 11
31.55136510322609
 21
4.580373279729429
 31
0.0
1001
REVIT
1002
{
1070
     3
1000
162980
1002
}
  0
LINE
  5
18D4
330
188F
100
AcDbEntity
  8
0
  6
Dash
 62
     8
 48
0.1
370
    18
100
AcDbLine
 10
32.05463805362615
 20
1.726170545824061
 30
0.0
 11
32.26960409863295
 21
2.102181275185103
 31
0.0
1001
REVIT
1002
{
1070
     3
1000
162980
1002
}
  0
LINE
  5
18D5
330
188F
100
AcDbEntity
  8
0
  6
Dash
 62
     8
 48
0.1
370
    18
100
AcDbLine
 10
33.52813548704125
 20
4.580373279729884
 30
0.0
 11
34.0314084374404
 21
1.726170545824061
 31
0.0
1001
REVIT
1002
{
1070
     3
1000
162980
1002
}
  0
LINE
  5
18D6
330
188F
100
AcDbEntity
  8
0
  6
Dash
 62
     8
 48
0.1
370
    18
100
AcDbLine
 10
33.31316944203445
 20
4.204362550368842
 30
0.0
 11
33.52813548704125
 21
4.580373279729884
 31
0.0
1001
REVIT
1002
{
1070
     3
1000
162980
1002
}
  0
LINE
  5
18D7
330
188F
100
AcDbEntity
  8
0
  6
Dash
 62
     8
 48
0.1
370
    18
100
AcDbLine
 10
34.0314084374404
 20
1.726170545824061
 30
0.0
 11
34.24637448244721
 21
2.102181275185103
 31
0.0
1001
REVIT
1002
{
1070
     3
1000
162980
1002
}
  0
LINE
  5
18D8
330
188F
100
AcDbEntity
  8
0
  6
Dash
 62
     8
 48
0.1
370
    18
100
AcDbLine
 10
35.50490587085551
 20
4.580373279729884
 30
0.0
 11
36.00817882125466
 21
1.726170545824061
 31
0.0
1001
REVIT
1002
{
1070
     3
1000
162980
1002
}
  0
LINE
  5
18D9
330
188F
100
AcDbEntity
  8
0
  6
Dash
 62
     8
 48
0.1
370
    18
100
AcDbLine
 10
35.28993982584871
 20
4.204362550368842
 30
0.0
 11
35.50490587085551
 21
4.580373279729884
 31
0.0
1001
REVIT
1002
{
1070
     3
1000
162980
1002
}
  0
LINE
  5
18DA
330
188F
100
AcDbEntity
  8
0
  6
Dash
 62
     8
 48
0.1
370
    18
100
AcDbLine
 10
36.00817882125466
 20
1.726170545824061
 30
0.0
 11
36.22314486626146
 21
2.102181275185103
 31
0.0
1001
REVIT
1002
{
1070
     3
1000
162980
1002
}
  0
LINE
  5
18DB
330
188F
100
AcDbEntity
  8
0
  6
Dash
 62
     8
 48
0.1
370
    18
100
AcDbLine
 10
37.48167625466976
 20
4.580373279729884
 30
0.0
 11
37.98494920506892
 21
1.726170545824061
 31
0.0
1001
REVIT
1002
{
1070
     3
1000
162980
1002
}
  0
LINE
  5
18DC
330
188F
100
AcDbEntity
  8
0
  6
Dash
 62
     8
 48
0.1
370
    18
100
AcDbLine
 10
37.26671020966296
 20
4.204362550368842
 30
0.0
 11
37.48167625466976
 21
4.580373279729884
 31
0.0
1001
REVIT
1002
{
1070
     3
1000
162980
1002
}
  0
LINE
  5
18DD
330
188F
100
AcDbEntity
  8
0
  6
Dash
 62
     8
 48
0.1
370
    18
100
AcDbLine
 10
37.98494920506892
 20
1.726170545824061
 30
0.0
 11
38.19991525007663
 21
2.102181275185103
 31
0.0
1001
REVIT
1002
{
1070
     3
1000
162980
1002
}
  0
LINE
  5
18DE
330
188F
100
AcDbEntity
  8
0
  6
Dash
 62
     8
 48
0.1
370
    18
100
AcDbLine
 10
39.45844663848402
 20
4.580373279729884
 30
0.0
 11
39.96171958888408
 21
1.726170545824061
 31
0.0
1001
REVIT
1002
{
1070
     3
1000
162980
1002
}
  0
LINE
  5
18DF
330
188F
100
AcDbEntity
  8
0
  6
Dash
 62
     8
 48
0.1
370
    18
100
AcDbLine
 10
39.24348059347722
 20
4.204362550368842
 30
0.0
 11
39.45844663848402
 21
4.580373279729884
 31
0.0
1001
REVIT
1002
{
1070
     3
1000
162980
1002
}
  0
LINE
  5
18E0
330
188F
100
AcDbEntity
  8
0
  6
Dash
 62
     8
 48
0.1
370
    18
100
AcDbLine
 10
39.96171958888408
 20
1.726170545824061
 30
0.0
 11
40.17668563389088
 21
2.102181275185103
 31
0.0
1001
REVIT
1002
{
1070
     3
1000
162980
1002
}
  0
LINE
  5
18E1
330
188F
100
AcDbEntity
  8
0
  6
Dash
 62
     8
 48
0.1
370
    18
100
AcDbLine
 10
2.618048341416397
 20
0.7372192214475035
 30
0.0
 11
1.959124880145282
 21
0.7372192214475035
 31
0.0
1001
REVIT
1002
{
1070
     3
1000
162980
1002
}
  0
LINE
  5
18E2
330
188F
100
AcDbEntity
  8
0
  6
Dash
 62
     8
 48
0.1
370
    18
100
AcDbLine
 10
1.959124880145282
 20
0.7372192214475035
 30
0.0
 11
1.959124880145282
 21
5.569324604104168
 31
0.0
1001
REVIT
1002
{
1070
     3
1000
162980
1002
}
  0
LINE
  5
18E3
330
188F
100
AcDbEntity
  8
0
  6
Dash
 62
     8
 48
0.1
370
    18
100
AcDbLine
 10
1.959124880145282
 20
5.569324604104168
 30
0.0
 11
2.618048341416397
 21
5.569324604104168
 31
0.0
1001
REVIT
1002
{
1070
     3
1000
162980
1002
}
  0
LINE
  5
18E4
330
188F
100
AcDbEntity
  8
0
  6
Dash
 62
     8
 48
0.1
370
    18
100
AcDbLine
 10
2.618048341416397
 20
5.569324604104168
 30
0.0
 11
2.618048341416397
 21
0.7372192214475035
 31
0.0
1001
REVIT
1002
{
1070
     3
1000
162980
1002
}
  0
ENDBLK
  5
18E5
330
188F
100
AcDbEntity
  8
_lines
100
AcDbBlockEnd
  0
BLOCK
  5
1B9F
330
1B9E
100
AcDbEntity
  8
GE FLASHING
100
AcDbBlockBegin
  2
G$CFFEEE416
 70
     0
 10
0.0
 20
0.0
 30
0.0
  3
G$CFFEEE416
  1

  0
LWPOLYLINE
  5
1BA0
330
1B9E
100
AcDbEntity
  8
GE FLASHING
 62
     1
 48
0.5
370
    -3
100
AcDbPolyline
 90
        8
 70
     0
 43
1.0
 10
120.2506355166174
 20
102.3073795712119
 10
120.2506355166174
 20
127.2726251936328
 42
0.4261215697160685
 10
11.90508573276247
 20
109.1114543666113
 42
0.1263024924240355
 10
0.4987492207874311
 20
74.9233762122708
 42
0.1378201073506474
 10
8.421211949048484
 20
36.46658780623329
 42
0.0596632094150468
 10
18.01550678228477
 20
22.32968965646114
 42
0.0456468013572097
 10
26.30985579481467
 20
14.38111016126413
 10
42.66844770816624
 20
0.3798622972080921
  0
ENDBLK
  5
1BA1
330
1B9E
100
AcDbEntity
  8
GE FLASHING
100
AcDbBlockEnd
  0
BLOCK
  5
1D08
330
1D07
100
AcDbEntity
  8
GE FLASHING
100
AcDbBlockBegin
  2
G$C71E0D0B6
 70
     0
 10
0.0
 20
0.0
 30
0.0
  3
G$C71E0D0B6
  1

  0
LWPOLYLINE
  5
1D09
330
1D07
100
AcDbEntity
  8
GE FLASHING
 62
     1
 48
0.5
370
    -3
100
AcDbPolyline
 90
        6
 70
     0
 10
84.8906824743417
 20
0.1303657658017983
 40
1.0
 41
1.0
 10
82.21464028448554
 20
10.03895441472287
 40
1.0
 41
1.0
 10
82.21464028448554
 20
132.2328268406391
 40
1.0
 41
1.0
 42
0.397073853822023
 10
81.43768398112206
 20
133.0638825915184
 40
1.0
 41
1.0
 10
5.255401401899704
 20
133.0638825915184
 40
1.0
 41
1.0
 10
4.46406023068225
 20
102.3833992841342
 40
1.0
 41
0.0
  0
ENDBLK
  5
1D0A
330
1D07
100
AcDbEntity
  8
GE FLASHING
100
AcDbBlockEnd
  0
BLOCK
  5
1F7F
330
1F7C
100
AcDbEntity
  8
GE FLASHING
100
AcDbBlockBegin
  2
G$CD8E13982
 70
     0
 10
0.0
 20
0.0
 30
0.0
  3
G$CD8E13982
  1

  0
LWPOLYLINE
  5
1F80
330
1F7C
100
AcDbEntity
  8
GE FLASHING
 62
     1
 48
0.5
370
    -3
100
AcDbPolyline
 90
        5
 70
     0
 43
1.0
 10
90.3716796521282
 20
102.0890183531688
 10
90.3716796521282
 20
137.7740636299386
 10
0.5
 20
137.7740636299386
 10
0.5
 20
44.19081537009652
 10
9.5
 20
0.0999999999999091
  0
ENDBLK
  5
1F81
330
1F7C
100
AcDbEntity
  8
GE FLASHING
100
AcDbBlockEnd
  0
BLOCK
  5
2169
330
2168
100
AcDbEntity
  8
DEFPOINTS
100
AcDbBlockBegin
  2
G$C453E252E
 70
     0
 10
0.0
 20
0.0
 30
0.0
  3
G$C453E252E
  1

  0
LWPOLYLINE
  5
216A
330
2168
100
AcDbEntity
  8
0
 62
     1
 48
0.5
370
    -3
100
AcDbPolyline
 90
       98
 70
     0
 43
0.55
 10
0.5
 20
166.1106642134437
 10
0.5
 20
126.1106642134437
 10
22.02312594964496
 20
118.6255800442577
 42
0.3144374898271473
 10
25.12528432434829
 20
119.5010886588498
 42
-0.0952816377930046
 10
30.81299492805829
 20
124.2373921770413
 42
-0.1507717279415002
 10
36.54814827388236
 20
125.4304525161251
 42
-0.0890307948874332
 10
39.67443872233434
 20
124.559225961787
 42
-0.1464817733278774
 10
43.93328675721204
 20
120.6684076561032
 42
-0.0085850172702223
 10
45.36580605647578
 20
118.1806848346077
 42
0.1851250302374373
 10
48.89007182185287
 20
115.2158579567167
 42
0.0161362627762171
 10
52.04569498363981
 20
114.2361690877551
 42
0.1680002659188674
 10
55.99459588555328
 20
114.4897917569624
 42
-0.0485798954908245
 10
61.51884086103746
 20
116.1983170767799
 42
-0.1983824016748921
 10
66.42038571826015
 20
115.2616676094322
 42
-0.047523137941845
 10
69.83042668281723
 20
112.5295519981837
 42
-0.1630622330458971
 10
71.47831087985833
 20
109.3415045516294
 42
0.0298243649624302
 10
72.55264691199591
 20
104.3843442757052
 42
-0.0554847166023468
 10
72.97288900448893
 20
101.8161971691543
 42
0.3144581315813627
 10
73.70769723363901
 20
100.8707326562289
 42
-0.1075480814737937
 10
74.58922572250958
 20
100.3717753404399
 10
85.05247246159706
 20
96.74501989411965
 42
0.2677971490740892
 10
88.09539067171227
 20
97.32914746538972
 10
92.6278224178227
 20
101.9811841682367
 42
-0.2909805391793188
 10
97.3006729976496
 20
103.0856405879858
 10
111.6329235114986
 20
98.15296824369034
 10
117.2100212751839
 20
96.93059740718854
 10
120.4621871855052
 20
95.75874603424836
 10
124.0223379080671
 20
93.92247937233424
 10
127.7979355302332
 20
91.30208897451848
 10
130.2919066896525
 20
89.02768394314717
 10
132.668010892045
 20
86.5253835389758
 10
134.5892993910675
 20
85.15877973963325
 10
136.6978135855152
 20
84.35644151244469
 10
138.8382282491766
 20
84.09805634147506
 10
140.6858550277871
 20
84.2857376870561
 10
144.3639631342262
 20
84.93578306011841
 42
-0.2343085133768697
 10
159.1435541811957
 20
78.51996758138466
 42
-0.0369830761216474
 10
160.6560290981815
 20
76.43243261199314
 42
0.0452840395304961
 10
162.2884987569992
 20
74.25612651468145
 42
0.0839199469717881
 10
164.529813391528
 20
72.48309420676651
 42
0.0577814066399808
 10
167.5016539546159
 20
71.27403115437392
 42
0.0817118573763595
 10
170.2498351544114
 20
70.9763659473092
 42
0.060460522145006
 10
173.5204849444876
 20
71.55782469231508
 42
-0.0175628328589988
 10
176.5656328960322
 20
72.37310104678818
 42
-0.1193038223792303
 10
179.7101921324925
 20
72.33846963497217
 42
-0.0466804696993966
 10
183.8134474489921
 20
70.87872297427657
 42
-0.1224255899562275
 10
186.3692897707069
 20
68.81730439706098
 42
-0.0021976574366095
 10
187.7817157249392
 20
66.9361794008837
 42
0.0598692057381186
 10
189.6949583765413
 20
64.92012839859854
 42
0.0805518231819641
 10
195.326551026611
 20
61.61136351863024
 42
0.1085830654256639
 10
201.2339584046185
 20
60.69357931000559
 42
0.0431621048222569
 10
205.2670358421597
 20
61.29676763988755
 42
-0.073120503309113
 10
213.3841783468383
 20
62.0190562300395
 42
-0.2135351777441864
 10
218.3940902408526
 20
59.42367137106794
 42
0.0277003729638193
 10
220.5147825783447
 20
57.0417624169977
 42
0.0666138996187925
 10
223.6128186410219
 20
54.66243114936333
 42
0.1383936215819727
 10
229.4297437736118
 20
53.19657600923711
 42
0.071769835774096
 10
233.548625897045
 20
53.90986896988852
 42
-0.0511818591444494
 10
237.0719040026443
 20
54.67002450581549
 42
-0.1776902975007202
 10
240.2445093092924
 20
53.88862637640341
 42
-0.2052507455354989
 10
241.8154037958761
 20
51.45241993762465
 10
242.5945433755633
 20
43.92933609552801
 42
0.2911769892817301
 10
244.6611305053079
 20
41.32022495346155
 10
255.3549358027376
 20
37.64745181595845
 42
0.2667636498253825
 10
258.2419635365877
 20
38.67765162791784
 10
264.3601998182708
 20
44.59027878911002
 42
-0.1913380611813692
 10
267.0785426506113
 20
44.70963481481522
 10
275.9867713133722
 20
41.59098407405418
 42
-0.1941050331233009
 10
279.197081221851
 20
38.27057742300804
 42
0.0713673250360073
 10
280.2546019079532
 20
36.45567619474514
 42
0.1305424751270063
 10
284.3178145591905
 20
33.42352268993272
 42
0.1537998043526602
 10
289.3682064088403
 20
33.03758655785532
 42
-0.0342019839470086
 10
292.1523430241359
 20
33.48849445486303
 42
-0.1759827198152869
 10
294.4100892652473
 20
32.89703029549128
 42
-0.0245861296963565
 10
296.2505755042871
 20
31.48689332938648
 42
-0.1390652413202865
 10
297.0937823088648
 20
30.23162312605291
 42
0.1892836867809608
 10
298.1725472104567
 20
28.92265654193034
 42
-0.0012892425160863
 10
299.7446583843575
 20
28.0433881336503
 42
0.22312029341888
 10
302.3723808448917
 20
27.84995985360638
 42
-0.0259294320993023
 10
303.7010168155466
 20
28.28102034215317
 42
-0.0668917843344885
 10
308.0934838137873
 20
28.8476509588063
 42
-0.2028112030561561
 10
311.6220431038864
 20
27.33292512411299
 42
0.0033231228805357
 10
313.0900863962893
 20
25.82428678313227
 42
0.0339765351938608
 10
316.9471917091246
 20
22.41077530119219
 42
0.174403570499621
 10
322.2635551519579
 20
20.70075445461225
 42
-0.0142766282042484
 10
324.9192275910646
 20
20.71557694172498
 42
0.1273253406553399
 10
328.2063991200912
 20
21.48634860503989
 42
-0.2836931045728486
 10
332.8854379625404
 20
21.16178565795417
 42
-0.0046855754428039
 10
336.2127067987499
 20
18.72824650365146
 42
-0.195884940313394
 10
337.5325457073159
 20
16.54166466127026
 42
0.2728160678700086
 10
338.9729704788197
 20
14.79237108640791
 42
-0.0576703196817088
 10
341.1706721630449
 20
13.6912505804903
 42
0.2597477929231045
 10
343.5095777461311
 20
13.52391458390866
 42
-0.0797956924462406
 10
345.3610609986713
 20
14.051482481118
 42
0.1930007918767561
 10
347.5129816439303
 20
15.22609317261504
 42
-0.3447979284179001
 10
349.4711990277619
 20
15.65760512016095
 42
0.1498657568152403
 10
351.4027832807506
 20
15.36635558821854
 10
358.7209800373239
 20
12.81779899982166
 42
-0.4664497104991921
  0
ENDBLK
  5
216B
330
2168
100
AcDbEntity
  8
DEFPOINTS
100
AcDbBlockEnd
  0
BLOCK
  5
2192
330
218F
100
AcDbEntity
  8
_lines
100
AcDbBlockBegin
  2
G$C34E990A1
 70
     0
 10
0.0
 20
0.0
 30
0.0
  3
G$C34E990A1
  1

  0
LINE
  5
2193
330
218F
100
AcDbEntity
  8
0
  6
Dash
 62
     8
 48
0.1
370
    18
100
AcDbLine
 10
6.387056972178183
 20
7.540172313074436
 30
0.0
 11
19.46220542609397
 21
7.211774602193145
 31
0.0
  0
LINE
  5
2194
330
218F
100
AcDbEntity
  8
0
  6
Dash
 62
     8
 48
0.1
370
    18
100
AcDbLine
 10
23.39934705136364
 20
2.311529939132015
 30
0.0
 11
23.4369132631431
 21
6.173179565977989
 31
0.0
  0
LINE
  5
2195
330
218F
100
AcDbEntity
  8
0
  6
Dash
 62
     8
 48
0.1
370
    18
100
AcDbLine
 10
6.350990872779274
 20
10.54203421581769
 30
0.0
 11
0.0
 21
9.20163850382778
 31
0.0
  0
LINE
  5
2196
330
218F
100
AcDbEntity
  8
0
  6
Dash
 62
     8
 48
0.1
370
    18
100
AcDbLine
 10
0.0
 20
9.20163850382778
 30
0.0
 11
6.387056972178183
 21
7.540172313074436
 31
0.0
  0
LINE
  5
2197
330
218F
100
AcDbEntity
  8
0
  6
Dash
 62
     8
 48
0.1
370
    18
100
AcDbLine
 10
20.03134322612171
 20
10.1984330665282
 30
0.0
 11
6.350990872779274
 21
10.54203421581769
 31
0.0
  0
LINE
  5
2198
330
218F
100
AcDbEntity
  8
0
  6
Dash
 62
     8
 48
0.1
370
    18
100
AcDbLine
 10
20.43704985802329
 20
6.202362524075397
 30
0.0
 11
20.39948449607834
 21
2.340712335273565
 31
0.0
  0
ARC
  5
2199
330
218F
100
AcDbEntity
  8
0
  6
Dash
 62
     8
 48
0.1
370
    18
100
AcDbCircle
 10
19.43709716971503
 20
6.212089864156951
 30
0.0
 40
1.0
100
AcDbArc
 50
359.4426556777765
 51
88.56125168117025
  0
ARC
  5
219A
330
218F
100
AcDbEntity
  8
0
  6
Dash
 62
     8
 48
0.1
370
    18
100
AcDbCircle
 10
19.43709716971503
 20
6.212089864156951
 30
0.0
 40
4.0
100
AcDbArc
 50
359.4426556777374
 51
88.56125168116938
  0
ARC
  5
219B
330
218F
100
AcDbEntity
  8
0
  6
Dash
 62
     8
 48
0.1
370
    18
100
AcDbCircle
 10
21.89941577533669
 20
2.326121303293803
 30
0.0
 40
1.500002246902295
100
AcDbArc
 50
179.4426556777365
 51
359.4426429887364
  0
ARC
  5
219C
330
218F
100
AcDbEntity
  8
0
  6
Dash
 62
     8
 48
0.1
370
    18
100
AcDbCircle
 10
21.89941577533669
 20
2.326121303293803
 30
0.0
 40
2.326121303293777
100
AcDbArc
 50
129.5971798420052
 51
49.28811882450213
  0
ENDBLK
  5
219D
330
218F
100
AcDbEntity
  8
_lines
100
AcDbBlockEnd
  0
BLOCK
  5
2322
330
2321
100
AcDbEntity
  8
DEFPOINTS
100
AcDbBlockBegin
  2
G$CC91778B9
 70
     0
 10
0.0
 20
0.0
 30
0.0
  3
G$CC91778B9
  1

  0
SPLINE
  5
2323
330
2321
100
AcDbEntity
  8
0
 62
   253
 48
0.5
370
    25
100
AcDbSpline
210
0.0
220
0.0
230
1.0
 70
    12
 71
     3
 72
    11
 73
     7
 74
     0
 42
0.0
 43
0.0
 40
0.0
 40
0.0
 40
0.0
 40
0.0
 40
1.0
 40
1.0
 40
1.0
 40
2.0
 40
2.0
 40
2.0
 40
2.0
 10
145.0614020853754
 20
27.56350566559877
 30
0.0
 41
1.0
 10
145.0614020853754
 20
67.58890670406481
 30
0.0
 41
1.0
 10
112.5867973686545
 20
100.0635056655979
 30
0.0
 41
1.0
 10
72.56139019132388
 20
100.0635056655979
 30
0.0
 41
1.0
 10
32.47460510040037
 20
100.0635056655979
 30
0.0
 41
1.0
 10
0.0614020853754482
 20
67.58890670406481
 30
0.0
 41
1.0
 10
0.0614020853754482
 20
27.56350566559877
 30
0.0
 41
1.0
  0
SPLINE
  5
2324
330
2321
100
AcDbEntity
  8
0
  6
PHANTOM
 62
   253
 48
2.0
370
    25
100
AcDbSpline
210
0.0
220
0.0
230
1.0
 70
    12
 71
     3
 72
    11
 73
     7
 74
     0
 42
0.000000001
 43
0.0
 40
0.0395325300710462
 40
0.0395325300710462
 40
0.0395325300710462
 40
0.0395325300710462
 40
1.0
 40
1.0
 40
1.0
 40
1.962280804529156
 40
1.962280804529156
 40
1.962280804529156
 40
1.962280804529156
 10
144.910685958139
 20
27.43048775926983
 30
0.0
 41
1.0
 10
142.4819949582047
 20
65.31268931277147
 30
0.0
 41
1.0
 10
111.0044917558108
 20
95.21380217730757
 30
0.0
 41
1.0
 10
72.56139019132388
 20
95.21380217730757
 30
0.0
 41
1.0
 10
33.98664638304261
 20
95.21380217730757
 30
0.0
 41
1.0
 10
2.517519460662063
 20
65.19967787237762
 30
0.0
 41
1.0
 10
0.1984209038506081
 20
27.21584108406187
 30
0.0
 41
1.0
  0
LWPOLYLINE
  5
2325
330
2321
100
AcDbEntity
  8
0
 62
   253
 48
0.5
370
    25
100
AcDbPolyline
 90
        2
 70
     0
 43
0.0
 10
0.0614020853754482
 20
27.56350566559877
 10
8.02958532874161
 20
7.345442747353901
  0
SPLINE
  5
2326
330
2321
100
AcDbEntity
  8
0
  6
PHANTOM
 62
   253
 48
2.0
370
    25
100
AcDbSpline
210
0.0
220
0.0
230
1.0
 70
    12
 71
     3
 72
    11
 73
     7
 74
     0
 42
0.000000001
 43
0.0
 40
0.0404789136530578
 40
0.0404789136530578
 40
0.0404789136530578
 40
0.0404789136530578
 40
1.0
 40
1.0
 40
1.0
 40
1.940506743829165
 40
1.940506743829165
 40
1.940506743829165
 40
1.940506743829165
 10
143.7794202889968
 20
24.5521973549576
 30
0.0
 41
1.0
 10
132.4899536236396
 20
61.75429359618732
 30
0.0
 41
1.0
 10
94.08473180061324
 20
84.3411146015617
 30
0.0
 41
1.0
 10
55.67950962434224
 20
75.44665321507091
 30
0.0
 41
1.0
 10
28.83207580272765
 20
69.15337956933995
 30
0.0
 41
1.0
 10
8.772310827306173
 20
49.12182397407415
 30
0.0
 41
1.0
 10
1.271255763118209
 20
24.49368447406959
 30
0.0
 41
1.0
  0
LWPOLYLINE
  5
2327
330
2321
100
AcDbEntity
  8
0
 62
   253
 48
0.5
370
    25
100
AcDbPolyline
 90
        2
 70
     0
 43
0.0
 10
144.9895561603271
 20
27.6311579929175
 10
137.0402519312767
 20
7.405664806347967
  0
ENDBLK
  5
2328
330
2321
100
AcDbEntity
  8
DEFPOINTS
100
AcDbBlockEnd
  0
BLOCK
  5
237D
330
237A
100
AcDbEntity
  8
GE FLASHING
100
AcDbBlockBegin
  2
G$CBE61CC38
 70
     0
 10
0.0
 20
0.0
 30
0.0
  3
G$CBE61CC38
  1

  0
INSERT
  5
237E
330
237A
100
AcDbEntity
  8
GE FLASHING
 62
     1
 48
0.5
370
    -3
100
AcDbBlockReference
  2
G$CC91778B9
 10
0.2341937276260069
 20
-7.198113014906085
 30
0.0
  0
LWPOLYLINE
  5
237F
330
237A
100
AcDbEntity
  8
GE FLASHING
 62
     1
 48
0.5
370
    -3
100
AcDbPolyline
 90
        5
 70
     0
 10
137.2744456589026
 20
0.2075517914418015
 40
0.55
 41
0.55
 10
145.111790591819
 20
20.72271966905009
 40
0.55
 41
0.55
 10
144.2728895898535
 20
32.56263202062382
 40
0.55
 41
0.55
 42
0.9187922265646195
 10
0.2955958130014551
 20
20.36539265069314
 40
0.5500000000000002
 41
0.55
 10
8.282104181509567
 20
0.1008324918866492
 40
0.55
 41
0.0
  0
ENDBLK
  5
2380
330
237A
100
AcDbEntity
  8
GE FLASHING
100
AcDbBlockEnd
  0
BLOCK
  5
2383
330
2382
100
AcDbEntity
  8
DEFPOINTS
100
AcDbBlockBegin
  2
G$CB27C112C
 70
     0
 10
0.0
 20
0.0
 30
0.0
  3
G$CB27C112C
  1

  0
LWPOLYLINE
  5
2384
330
2382
100
AcDbEntity
  8
0
 62
     1
 48
0.5
370
    -3
100
AcDbPolyline
 90
      100
 70
     0
 43
0.55
 10
0.5
 20
33.56416563160383
 10
0.5
 20
0.506401914597518
 10
14.1725153997686
 20
0.500118431415558
 42
0.3144374898271473
 10
16.81581283750165
 20
2.344808262156221
 42
-0.0952816377930046
 10
20.63509879313187
 20
8.684814391263444
 42
-0.1507717279415002
 10
25.66152323887854
 20
11.69320834219798
 42
-0.0890307948874332
 10
28.90061418777259
 20
11.89573612264667
 42
-0.1464817733278774
 10
34.20013489598841
 20
9.617286225188764
 42
-0.0085850172702223
 10
36.36945415475475
 20
7.737145184496057
 42
0.1851250302374373
 10
40.67128017781943
 20
6.092474862468862
 42
0.0161362627762171
 10
43.97366053396672
 20
6.202164435833765
 42
0.1680002659188674
 10
47.62084806579151
 20
7.737145184629753
 42
-0.0485798954908245
 10
52.27894242697039
 20
11.16329436993465
 42
-0.1983824016748921
 10
57.21651403806118
 20
11.88637168073956
 42
-0.047523137941845
 10
61.33409766229579
 20
10.42406521811972
 42
-0.1630622330458971
 10
63.93659805260813
 20
7.953000555517974
 42
0.0298243649624302
 10
66.57762552654731
 20
3.622572194136865
 42
-0.0554847166023468
 10
67.81706495662638
 20
1.33439106573951
 42
0.3144581315813627
 10
68.82136102408822
 20
0.6822900860524896
 42
-0.1075480814737937
 10
69.8177868205812
 20
0.500118431415558
 10
80.89175846141552
 20
0.5064024137050183
 42
0.2677971490740892
 10
83.57467810244816
 20
2.056401914584967
 10
86.33025617792191
 20
7.937827973607455
 42
-0.2909805391793188
 10
90.38222667345235
 20
10.51404450718292
 10
105.539499278756
 20
10.55585857672531
 10
111.2089692617174
 20
11.23063264256552
 10
114.6655868486605
 20
11.19046292570647
 10
118.6311006377946
 20
10.62367477374619
 10
123.0573623773744
 20
9.386827873678612
 10
126.1594207850212
 20
8.056397858123091
 10
129.2248930004716
 20
6.47201829828191
 10
131.4881645881032
 20
5.811293573851344
 10
133.7432006337431
 20
5.74502765606303
 10
135.8499342378982
 20
6.203079345412789
 10
137.5337544901186
 20
6.986468366736517
 10
140.7950917390208
 20
8.807104952828468
 42
-0.2343085133768697
 10
156.8614793675533
 20
7.594591718855554
 42
-0.0369830761216474
 10
158.9750527230408
 20
6.11872238388105
 42
0.0452840395304961
 10
161.2311011927886
 20
4.59835705992009
 42
0.0839199469717881
 10
163.9300143321916
 20
3.658674814784263
 42
0.0577814066399808
 10
167.1340254517172
 20
3.491394980279438
 42
0.0817118573763595
 10
169.8277797613273
 20
4.111711191467748
 42
0.060460522145006
 10
172.7267047677788
 20
5.73389432799695
 42
-0.0175628328589988
 10
175.3359050103627
 20
7.502983267269883
 42
-0.1193038223792303
 10
178.3178182144256
 20
8.501805458517993
 42
-0.0466804696993966
 10
182.6728703623321
 20
8.468861645591005
 42
-0.1224255899562275
 10
185.7635084384356
 20
7.359928461627078
 42
-0.0021976574366095
 10
187.7148586459762
 20
6.046227317925513
 42
0.0598692057381186
 10
190.1835734509341
 20
4.769353675192178
 42
0.0805518231819641
 10
196.5889408784378
 20
3.491062266356948
 42
0.1085830654256639
 10
202.470526338966
 20
4.561922786614105
 42
0.0431621048222569
 10
206.0825613577226
 20
6.454738890144654
 42
-0.073120503309113
 10
213.5135972274193
 20
9.799796311475802
 42
-0.2135351777441864
 10
219.0976687736083
 20
8.991474148594534
 42
0.0277003729638193
 10
221.8823694662906
 20
7.437039103971074
 42
0.0666138996187925
 10
225.5894862758341
 20
6.205645711431771
 42
0.1383936215819727
 10
231.5653848895408
 20
6.729081522864362
 42
0.071769835774096
 10
235.2223579450556
 20
8.754056798192778
 42
-0.0511818591444494
 10
238.3013124250056
 20
10.62792028270633
 42
-0.1776902975007202
 10
241.5546881623677
 20
10.93049883443064
 42
-0.2052507455354989
 10
243.8378261473599
 20
9.144415901918364
 10
247.0417144123421
 20
2.293215352718562
 42
0.2911769892817301
 10
249.8498349677729
 20
0.506401914597518
 10
261.1567026265111
 20
0.5448467670753416
 42
0.2667636498253825
 10
263.5460291287709
 20
2.465096660755535
 10
267.3861375849601
 20
10.05756280756714
 42
-0.1913380611813692
 10
269.9149055353237
 20
11.06203593723512
 10
279.353229131154
 20
11.03820211102266
 42
-0.1941050331233009
 10
283.4751162140983
 20
8.954638598132533
 42
0.0713673250360073
 10
285.0694761338123
 20
7.587074005034992
 42
0.1305424751270063
 10
289.9025117658671
 20
6.055598081225071
 42
0.1537998043526602
 10
294.8000385041751
 20
7.347742183331775
 42
-0.0342019839470086
 10
297.2821976325763
 20
8.687003429507058
 42
-0.1759827198152869
 10
299.609032997389
 20
8.86889660181123
 42
-0.0245861296963565
 10
301.8102541421395
 20
8.140541378602848
 42
-0.1390652413202865
 10
303.0185787390719
 20
7.231336964232469
 42
0.1892836867809608
 10
304.4670411471247
 20
6.348679678694225
 42
-0.0012892425160863
 10
306.240592503932
 20
6.033779596651584
 42
0.22312029341888
 10
308.7863599962434
 20
6.713049575530476
 42
-0.0259294320993023
 10
309.90007038779
 20
7.556101087043771
 42
-0.0668917843344885
 10
313.8636002301564
 20
9.532276123581596
 42
-0.2028112030561561
 10
317.6937928740622
 20
9.258872889142367
 42
0.0033231228805357
 10
319.5754927409284
 20
8.31529122162192
 42
0.0339765351938608
 10
324.3389263245299
 20
6.355948850759432
 42
0.174403570499621
 10
329.9220580049969
 20
6.484526417232246
 42
-0.0142766282042484
 10
332.4259145242595
 20
7.369692131039301
 42
0.1273253406553399
 10
335.278345056076
 20
9.176132187994881
 42
-0.2836931045728486
 10
339.8049350942242
 20
10.40443517272979
 42
-0.0046855754428039
 10
343.7463822015347
 20
9.197030756550248
 42
-0.195884940313394
 10
345.7104704139006
 20
7.564403306076656
 42
0.2728160678700086
 10
347.6450242904602
 20
6.384423292642623
 42
-0.0576703196817088
 10
350.0823247332728
 20
6.065165383007297
 42
0.2597477929231045
 10
352.3466979607565
 20
6.674340685362495
 42
-0.0797956924462406
 10
353.9226653300943
 20
7.780073461120082
 42
0.1930007918767561
 10
355.5701900673371
 20
9.595599550231327
 42
-0.3447979284179001
 10
357.2784954296867
 20
10.64560463221051
 42
0.1498657568152403
 10
359.1987351896905
 20
11.00410606923788
 10
374.6972637832068
 20
10.99034944575214
 42
-0.3059463717492144
 10
377.8929074820962
 20
8.552612251653045
 10
380.8102808585181
 20
2.296285237615848
  0
ENDBLK
  5
2385
330
2382
100
AcDbEntity
  8
DEFPOINTS
100
AcDbBlockEnd
  0
BLOCK
  5
24C5
330
24C2
100
AcDbEntity
  8
DEFPOINTS
100
AcDbBlockBegin
  2
G$C56DAE06E
 70
     0
 10
0.0
 20
0.0
 30
0.0
  3
G$C56DAE06E
  1

  0
LWPOLYLINE
  5
24C6
330
24C2
100
AcDbEntity
  8
0
 62
     1
 48
0.5
370
    25
100
AcDbPolyline
 90
        2
 70
     0
 43
0.0
 10
8.676479720583757
 20
0.0
 10
0.0
 20
44.15561911759687
  0
LWPOLYLINE
  5
24C7
330
24C2
100
AcDbEntity
  8
0
 62
     1
 48
0.5
370
    25
100
AcDbPolyline
 90
        2
 70
     0
 43
0.0
 10
0.0
 20
44.15561911759687
 10
88.16312269611262
 20
75.54173310664282
  0
LWPOLYLINE
  5
24C8
330
24C2
100
AcDbEntity
  8
0
 62
     1
 48
0.5
370
    25
100
AcDbPolyline
 90
        2
 70
     0
 43
0.0
 10
167.6497656716415
 20
0.0
 10
176.3262453922252
 20
44.15561911759687
  0
LWPOLYLINE
  5
24C9
330
24C2
100
AcDbEntity
  8
0
 62
     1
 48
0.5
370
    25
100
AcDbPolyline
 90
        2
 70
     0
 43
0.0
 10
176.3262453922252
 20
44.15561911759687
 10
88.16312269611262
 20
75.54173310664282
  0
ENDBLK
  5
24CA
330
24C2
100
AcDbEntity
  8
DEFPOINTS
100
AcDbBlockEnd
  0
BLOCK
  5
24FF
330
24FE
100
AcDbEntity
  8
GE FLASHING
100
AcDbBlockBegin
  2
G$C83A38C16
 70
     0
 10
0.0
 20
0.0
 30
0.0
  3
G$C83A38C16
  1

  0
LWPOLYLINE
  5
2500
330
24FE
100
AcDbEntity
  8
GE FLASHING
  6
PHANTOM
 62
   253
 48
2.0
370
    25
284
     3
100
AcDbPolyline
 90
        2
 70
     0
 43
0.0
 10
82.77500000000009
 20
68.14953201398657
 10
5.327276129679831
 20
26.9919478836855
  0
LWPOLYLINE
  5
2501
330
24FE
100
AcDbEntity
  8
GE FLASHING
  6
PHANTOM
 62
   253
 48
2.0
370
    25
284
     3
100
AcDbPolyline
 90
        2
 70
     0
 43
0.0
 10
82.77500000000009
 20
68.14953201398657
 10
160.1611211205259
 20
26.9919478836855
  0
LWPOLYLINE
  5
2502
330
24FE
100
AcDbEntity
  8
GE FLASHING
  6
PHANTOM
 62
   253
 48
2.0
370
    25
284
     3
100
AcDbPolyline
 90
        2
 70
     0
 43
0.0
 10
82.77500000000009
 20
79.7944160293373
 10
0.2750000000000909
 20
35.67940084239672
  0
LWPOLYLINE
  5
2503
330
24FE
100
AcDbEntity
  8
GE FLASHING
 62
     1
 48
0.5
370
    25
100
AcDbPolyline
 90
        2
 70
     0
 43
0.0
 10
0.2750000000000909
 20
42.9497541153778
 10
82.77500000000009
 20
87.12638090900327
  0
LWPOLYLINE
  5
2504
330
24FE
100
AcDbEntity
  8
GE FLASHING
  6
PHANTOM
 62
   253
 48
2.0
370
    25
284
     3
100
AcDbPolyline
 90
        2
 70
     0
 43
0.0
 10
82.77500000000009
 20
79.7944160293373
 10
165.2750000000001
 20
35.67940084239672
  0
LWPOLYLINE
  5
2505
330
24FE
100
AcDbEntity
  8
GE FLASHING
 62
     1
 48
0.5
370
    -3
100
AcDbPolyline
 90
        2
 70
     0
 43
0.55
 10
82.77500000000009
 20
87.12638090900327
 10
165.2750000000001
 20
42.9497541153778
  0
LWPOLYLINE
  5
2506
330
24FE
100
AcDbEntity
  8
GE FLASHING
 62
     1
 48
0.5
370
    -3
100
AcDbPolyline
 90
        7
 70
     0
 43
0.55
 10
12.80558552290086
 20
0.0913316534270052
 10
0.2750000000000909
 20
35.67940084239672
 10
0.2750000000000909
 20
42.9497541153778
 10
82.77500000000009
 20
87.12638090900327
 10
165.2750000000001
 20
42.9497541153778
 10
165.1430072284843
 20
35.67940084239672
 10
152.6124217055835
 20
0.0913316534270052
  0
ENDBLK
  5
2507
330
24FE
100
AcDbEntity
  8
GE FLASHING
100
AcDbBlockEnd
  0
BLOCK
  5
26E3
330
26E0
100
AcDbEntity
  8
_lines
100
AcDbBlockBegin
  2
G$C2E32D176
 70
     0
 10
0.0
 20
0.0
 30
0.0
  3
G$C2E32D176
  1

  0
LINE
  5
26E4
330
26E0
100
AcDbEntity
  8
_lines
100
AcDbLine
 10
0.0
 20
34.59574063353011
 30
0.0
 11
22.81445918237296
 21
0.0
 31
0.0
  0
LINE
  5
26E5
330
26E0
100
AcDbEntity
  8
_lines
100
AcDbLine
 10
44.6333521152701
 20
49.31266490453982
 30
0.0
 11
0.0
 21
34.59574063353011
 31
0.0
  0
LINE
  5
26E6
330
26E0
100
AcDbEntity
  8
_lines
100
AcDbLine
 10
67.44781129764306
 20
14.7169242710097
 30
0.0
 11
44.6333521152701
 21
49.31266490453982
 31
0.0
  0
LINE
  5
26E7
330
26E0
100
AcDbEntity
  8
_lines
100
AcDbLine
 10
22.81445918237296
 20
0.0
 30
0.0
 11
67.44781129764306
 21
14.7169242710097
 31
0.0
  0
LINE
  5
26E8
330
26E0
100
AcDbEntity
  8
_lines
 62
     1
 48
0.5
370
    -3
100
AcDbLine
 10
0.0
 20
34.59574063353011
 30
0.0
 11
67.44781129764306
 21
14.7169242710097
 31
0.0
  0
LINE
  5
26E9
330
26E0
100
AcDbEntity
  8
_lines
 62
     1
 48
0.5
370
    -3
100
AcDbLine
 10
22.81445918237296
 20
0.0
 30
0.0
 11
44.6333521152701
 21
49.31266490453982
 31
0.0
  0
ENDBLK
  5
26EA
330
26E0
100
AcDbEntity
  8
_lines
100
AcDbBlockEnd
  0
BLOCK
  5
4ADA
330
4AD7
100
AcDbEntity
  8
0
100
AcDbBlockBegin
  2
G$C1C019EEB
 70
     0
 10
0.0
 20
0.0
 30
0.0
  3
G$C1C019EEB
  1

  0
HATCH
  5
4ADB
330
4AD7
100
AcDbEntity
  8
_hatch
100
AcDbHatch
 10
0.0
 20
0.0
 30
0.0
210
0.0
220
0.0
230
1.0
  2
SOLID
 70
     1
 71
     0
 91
        2
 92
        0
 93
        5
 72
     1
 10
450.8370047849194
 20
128.9940923609456
 11
498.3246932415232
 21
144.6439947583594
 72
     1
 10
498.3246932415232
 20
144.6439947583585
 11
485.8047713235919
 21
182.6341455236416
 72
     1
 10
485.8047713235928
 20
182.6341455236416
 11
438.317082866989
 21
166.9842431262277
 72
     1
 10
438.317082866989
 20
166.9842431262277
 11
450.2127816441953
 21
130.8882200865628
 72
     1
 10
450.2127816441962
 20
130.8882200865628
 11
450.8370047849212
 21
128.9940923609447
 97
        0
 92
        0
 93
        4
 72
     1
 10
451.7921383666971
 20
130.8882200865628
 11
440.2112105926099
 21
166.0291095444527
 72
     1
 10
440.2112105926126
 20
166.0291095444518
 11
484.8496377418187
 21
180.7400177980207
 72
     1
 10
484.8496377418151
 20
180.7400177980207
 11
496.4305655159023
 21
145.5991283401308
 72
     1
 10
496.4305655159033
 20
145.5991283401308
 11
451.7921383666971
 21
130.8882200865619
 97
        0
 75
     0
 76
     1
 98
        1
 10
99.42811020605495
 20
13.18481462008458
  0
HATCH
  5
4ADC
330
4AD7
100
AcDbEntity
  8
_hatch
100
AcDbHatch
 10
0.0
 20
0.0
 30
0.0
210
0.0
220
0.0
230
1.0
  2
SOLID
 70
     1
 71
     0
 91
        2
 92
        0
 93
        5
 72
     1
 10
100.8057323784806
 20
13.63881971571482
 11
148.2934208350844
 21
29.28872211312864
 72
     1
 10
148.2934208350844
 20
29.28872211312864
 11
135.7734989171531
 21
67.27887287841168
 72
     1
 10
135.773498917154
 20
67.27887287841168
 11
88.28581046055024
 21
51.62897048099785
 72
     1
 10
88.28581046055024
 20
51.62897048099785
 11
100.1815092377565
 21
15.53294744133291
 72
     1
 10
100.1815092377574
 20
15.53294744133291
 11
100.8057323784824
 21
13.63881971571482
 97
        0
 92
        0
 93
        4
 72
     1
 10
101.7608659602583
 20
15.532947441332
 11
90.17993818617106
 21
50.6738368992219
 72
     1
 10
90.17993818617015
 20
50.6738368992219
 11
134.8183653353763
 21
65.38474515278995
 72
     1
 10
134.8183653353763
 20
65.38474515279086
 11
146.3992931094635
 21
30.24385569490096
 72
     1
 10
146.3992931094645
 20
30.24385569490096
 11
101.7608659602583
 21
15.532947441332
 97
        0
 75
     0
 76
     1
 98
        1
 10
-250.6031622003838
 20
-102.1704580251462
  0
LINE
  5
4ADD
330
4AD7
100
AcDbEntity
  8
_lines
100
AcDbLine
 10
440.2112105926126
 20
166.02910954445
 30
0.0
 11
496.4305655159033
 21
145.5991283401345
 31
0.0
1001
REVIT
1002
{
1070
     3
1000
156446
1002
}
  0
LINE
  5
4ADE
330
4AD7
100
AcDbEntity
  8
_lines
100
AcDbLine
 10
451.7921383666971
 20
130.8882200865628
 30
0.0
 11
484.8496377418151
 21
180.7400177980207
 31
0.0
1001
REVIT
1002
{
1070
     3
1000
156446
1002
}
  0
LINE
  5
4ADF
330
4AD7
100
AcDbEntity
  8
_lines
100
AcDbLine
 10
90.17993818617015
 20
50.67383689921917
 30
0.0
 11
146.3992931094645
 21
30.24385569490369
 31
0.0
1001
REVIT
1002
{
1070
     3
1000
156446
1002
}
  0
LINE
  5
4AE0
330
4AD7
100
AcDbEntity
  8
_lines
100
AcDbLine
 10
101.7608659602583
 20
15.532947441332
 30
0.0
 11
134.8183653353763
 21
65.38474515279086
 31
0.0
1001
REVIT
1002
{
1070
     3
1000
156446
1002
}
  0
INSERT
  5
4AE1
330
4AD7
100
AcDbEntity
  8
0
 62
     1
 48
0.5
370
    -3
100
AcDbBlockReference
  2
G$C2A2A107F
 10
81.02037887487222
 20
41.66892867981733
 30
0.0
 50
353.3524738901561
  0
HATCH
  5
4AE2
330
4AD7
100
AcDbEntity
  8
_hatch
100
AcDbHatch
 10
0.0
 20
0.0
 30
0.0
210
0.0
220
0.0
230
1.0
  2
SOLID
 70
     1
 71
     0
 91
        2
 92
        0
 93
        5
 72
     1
 10
276.5101796679146
 20
71.5434585861376
 11
323.9978681245184
 21
87.19336098355143
 72
     1
 10
323.9978681245184
 20
87.19336098355052
 11
311.4779462065871
 21
125.1835117488336
 72
     1
 10
311.4779462065881
 20
125.1835117488336
 11
263.9902577499843
 21
109.5336093514197
 72
     1
 10
263.9902577499843
 20
109.5336093514197
 11
275.8859565271905
 21
73.43758631175479
 72
     1
 10
275.8859565271914
 20
73.43758631175479
 11
276.5101796679164
 21
71.5434585861367
 97
        0
 92
        0
 93
        4
 72
     1
 10
277.4653132496924
 20
73.43758631175479
 11
265.8843854756051
 21
108.5784757696447
 72
     1
 10
265.8843854756078
 20
108.5784757696438
 11
310.5228126248139
 21
123.2893840232127
 72
     1
 10
310.5228126248103
 20
123.2893840232127
 11
322.1037403988976
 21
88.14849456532284
 72
     1
 10
322.1037403988985
 20
88.14849456532284
 11
277.4653132496924
 21
73.43758631175388
 97
        0
 75
     0
 76
     1
 98
        1
 10
-74.89871491094982
 20
-44.26581915472343
  0
LINE
  5
4AE3
330
4AD7
100
AcDbEntity
  8
_lines
100
AcDbLine
 10
265.8843854756078
 20
108.578475769642
 30
0.0
 11
322.1037403988985
 21
88.14849456532647
 31
0.0
1001
REVIT
1002
{
1070
     3
1000
156446
1002
}
  0
LINE
  5
4AE4
330
4AD7
100
AcDbEntity
  8
_lines
100
AcDbLine
 10
277.4653132496924
 20
73.43758631175479
 30
0.0
 11
310.5228126248103
 21
123.2893840232127
 31
0.0
1001
REVIT
1002
{
1070
     3
1000
156446
1002
}
  0
LWPOLYLINE
  5
4AE5
330
4AD7
100
AcDbEntity
  8
0
 62
     1
 48
0.5
370
    -3
100
AcDbPolyline
 90
        6
 70
     0
 43
0.39
 10
0.0425028792951707
 20
19.93513909285139
 10
84.86131285661122
 20
38.87798668925825
 42
0.4195131113913144
 10
87.0847607890837
 20
42.53603788875171
 10
85.20347076524104
 20
50.18930412590089
 42
-0.3849086565160594
 10
89.19571743526194
 20
55.57601085711394
 10
108.8049789392071
 20
59.51300743209777
  0
LWPOLYLINE
  5
4AE6
330
4AD7
100
AcDbEntity
  8
0
 62
     1
 48
0.5
370
    -3
100
AcDbPolyline
 90
       10
 70
     0
 43
0.39
 10
435.1884527923239
 20
158.0244645810881
 10
432.9606158225024
 20
168.9261436278684
 42
-0.280356701621205
 10
435.7403428757452
 20
173.4014137399945
 10
607.4641185852875
 20
212.739353078201
 42
0.4124364612283579
 10
613.4864874135583
 20
222.2763318053885
 10
612.7094763255741
 20
226.3620497292004
 42
-0.3237623364692393
 10
616.1877130910088
 20
231.0792487504596
 10
784.2598167801084
 20
284.7719244699647
 42
0.4142135623725477
 10
785.5563404065097
 20
287.2856918590005
 10
778.5387140211683
 20
309.2526959928637
  0
HATCH
  5
4AE7
330
4AD7
100
AcDbEntity
  8
_hatch
100
AcDbHatch
 10
0.0
 20
0.0
 30
0.0
210
0.0
220
0.0
230
1.0
  2
SOLID
 70
     1
 71
     0
 91
        2
 92
        0
 93
        5
 72
     1
 10
626.5414520743539
 20
186.8987312313684
 11
674.0291405309576
 21
202.5486336287822
 72
     1
 10
674.0291405309576
 20
202.5486336287813
 11
661.5092186130264
 21
240.5387843940644
 72
     1
 10
661.5092186130273
 20
240.5387843940644
 11
614.0215301564235
 21
224.8888819966505
 72
     1
 10
614.0215301564235
 20
224.8888819966505
 11
625.9172289336298
 21
188.7928589569856
 72
     1
 10
625.9172289336307
 20
188.7928589569856
 11
626.5414520743557
 21
186.8987312313675
 97
        0
 92
        0
 93
        4
 72
     1
 10
627.4965856561316
 20
188.7928589569856
 11
615.9156578820443
 21
223.9337484148755
 72
     1
 10
615.9156578820471
 20
223.9337484148746
 11
660.5540850312532
 21
238.6446566684435
 72
     1
 10
660.5540850312495
 20
238.6446566684435
 11
672.1350128053368
 21
203.5037672105536
 72
     1
 10
672.1350128053377
 20
203.5037672105536
 11
627.4965856561316
 21
188.7928589569847
 97
        0
 75
     0
 76
     1
 98
        1
 10
275.132557495489
 20
71.08945349050737
  0
LINE
  5
4AE8
330
4AD7
100
AcDbEntity
  8
_lines
100
AcDbLine
 10
615.9156578820471
 20
223.9337484148728
 30
0.0
 11
672.1350128053377
 21
203.5037672105573
 31
0.0
1001
REVIT
1002
{
1070
     3
1000
156446
1002
}
  0
LINE
  5
4AE9
330
4AD7
100
AcDbEntity
  8
_lines
100
AcDbLine
 10
627.4965856561316
 20
188.7928589569856
 30
0.0
 11
660.5540850312495
 21
238.6446566684435
 31
0.0
1001
REVIT
1002
{
1070
     3
1000
156446
1002
}
  0
ENDBLK
  5
4AEA
330
4AD7
100
AcDbEntity
  8
0
100
AcDbBlockEnd
  0
BLOCK
  5
5872
330
586F
100
AcDbEntity
  8
0
100
AcDbBlockBegin
  2
G$CB605AD3A
 70
     0
 10
0.0
 20
0.0
 30
0.0
  3
G$CB605AD3A
  1

  0
LWPOLYLINE
  5
5873
330
586F
100
AcDbEntity
  8
GE TILES
 62
     1
 48
0.5
370
    -3
100
AcDbPolyline
 90
       10
 70
     0
 43
1.0
 10
343.4419303125825
 20
164.0561175556422
 10
352.5446488891276
 20
135.8471698896792
 42
-0.4124185222449073
 10
349.350889619439
 20
129.5628022386518
 10
184.6213469642654
 20
75.28875513379262
 42
0.3880649521083298
 10
181.3155793692068
 20
69.40885256204729
 10
182.2073255727656
 20
64.65210663941525
 42
-0.3156884058462939
 10
176.9328287128839
 20
57.13069502767667
 10
3.9621752883005
 20
15.80186334909558
 42
0.3548955582330274
 10
0.512224126580918
 20
10.42496035727618
 10
2.807196027174655
 20
0.1085753157167346
  0
ENDBLK
  5
5874
330
586F
100
AcDbEntity
  8
0
100
AcDbBlockEnd
  0
BLOCK
  5
63EA
330
63E7
100
AcDbEntity
  8
GE FLASHING
100
AcDbBlockBegin
  2
G$C852D9098
 70
     0
 10
0.0
 20
0.0
 30
0.0
  3
G$C852D9098
  1

  0
LWPOLYLINE
  5
63EB
330
63E7
100
AcDbEntity
  8
GE FLASHING
 62
     1
 48
0.5
370
    -3
100
AcDbPolyline
 90
        8
 70
     0
 43
1.0
 10
7.78940745896125
 20
63.70790448396019
 10
0.5
 20
61.94309885805251
 10
0.5
 20
42.94309885805251
 10
117.7107888793253
 20
0.5595932749793064
 42
0.1752476653139592
 10
118.3908923759645
 20
0.5595932749793064
 10
235.6016812552898
 20
42.94309885805251
 10
235.6016812552898
 20
61.94309885805251
 10
228.3122737963286
 20
63.70790448396019
  0
ENDBLK
  5
63EC
330
63E7
100
AcDbEntity
  8
GE FLASHING
100
AcDbBlockEnd
  0
BLOCK
  5
6459
330
6456
100
AcDbEntity
  8
_lines
100
AcDbBlockBegin
  2
G$CB224E557
 70
     0
 10
0.0
 20
0.0
 30
0.0
  3
G$CB224E557
  1

  0
LINE
  5
645A
330
6456
100
AcDbEntity
  8
0
  6
Dash
 62
     8
 48
0.1
370
    18
100
AcDbLine
 10
29.48532853403367
 20
2.316712469846607
 30
0.0
 11
31.82431971754295
 21
1.470045232045777
 31
0.0
  0
LINE
  5
645B
330
6456
100
AcDbEntity
  8
0
  6
Dash
 62
     8
 48
0.1
370
    18
100
AcDbLine
 10
31.82431971754295
 20
1.470045232045777
 30
0.0
 11
31.48395287422363
 21
0.5297525052992569
 31
0.0
  0
LINE
  5
645C
330
6456
100
AcDbEntity
  8
0
  6
Dash
 62
     8
 48
0.1
370
    18
100
AcDbLine
 10
31.48395287422363
 20
0.5297525052992569
 30
0.0
 11
24.00835837531713
 21
3.235765674549839
 31
0.0
  0
LINE
  5
645D
330
6456
100
AcDbEntity
  8
0
  6
Dash
 62
     8
 48
0.1
370
    18
100
AcDbLine
 10
24.00835837531713
 20
3.235765674549839
 30
0.0
 11
24.34872521863554
 21
4.17605840129454
 31
0.0
  0
LINE
  5
645E
330
6456
100
AcDbEntity
  8
0
  6
Dash
 62
     8
 48
0.1
370
    18
100
AcDbLine
 10
24.34872521863554
 20
4.17605840129454
 30
0.0
 11
26.66445031700414
 21
3.337813013122286
 31
0.0
  0
LINE
  5
645F
330
6456
100
AcDbEntity
  8
0
  6
Dash
 62
     8
 48
0.1
370
    18
100
AcDbLine
 10
26.66445031700414
 20
3.337813013122286
 30
0.0
 11
33.39344174226926
 21
21.91785411608089
 31
0.0
  0
LINE
  5
6460
330
6456
100
AcDbEntity
  8
0
  6
Dash
 62
     8
 48
0.1
370
    18
100
AcDbLine
 10
32.15915129028781
 20
24.49162631272247
 30
0.0
 11
13.84490456735375
 21
30.74416215859037
 31
0.0
  0
LINE
  5
6461
330
6456
100
AcDbEntity
  8
0
  6
Dash
 62
     8
 48
0.1
370
    18
100
AcDbLine
 10
0.5880363517917431
 20
6.573368992980249
 30
0.0
 11
8.726295114838194
 21
31.25449533236861
 31
0.0
  0
LINE
  5
6462
330
6456
100
AcDbEntity
  8
0
  6
Dash
 62
     8
 48
0.1
370
    18
100
AcDbLine
 10
11.29931313719226
 20
29.47773028027223
 30
0.0
 11
3.40216868394009
 21
5.527838092503771
 31
0.0
  0
LINE
  5
6463
330
6456
100
AcDbEntity
  8
0
  6
Dash
 62
     8
 48
0.1
370
    18
100
AcDbLine
 10
3.40216868394009
 20
5.527838092503771
 30
0.0
 11
0.0
 21
0.0
 31
0.0
  0
LINE
  5
6464
330
6456
100
AcDbEntity
  8
0
  6
Dash
 62
     8
 48
0.1
370
    18
100
AcDbLine
 10
0.0
 20
0.0
 30
0.0
 11
0.5880363517917431
 21
6.573368992980249
 31
0.0
  0
ARC
  5
6465
330
6456
100
AcDbEntity
  8
0
  6
Dash
 62
     8
 48
0.1
370
    18
100
AcDbCircle
 10
13.19871954107884
 20
28.8514273879955
 30
0.0
 40
2.0
100
AcDbArc
 50
71.14994954366165
 51
161.7507457036485
  0
ARC
  5
6466
330
6456
100
AcDbEntity
  8
0
  6
Dash
 62
     8
 48
0.1
370
    18
100
AcDbCircle
 10
13.19871954107884
 20
28.8514273879955
 30
0.0
 40
5.0
100
AcDbArc
 50
71.14994954365997
 51
161.7507457036493
  0
LINE
  5
6467
330
6456
100
AcDbEntity
  8
0
  6
Dash
 62
     8
 48
0.1
370
    18
100
AcDbLine
 10
14.81418210676566
 20
33.58326431448222
 30
0.0
 11
33.12842882970017
 21
27.33072846861523
 31
0.0
  0
ARC
  5
6468
330
6456
100
AcDbEntity
  8
0
  6
Dash
 62
     8
 48
0.1
370
    18
100
AcDbCircle
 10
31.5129662640129
 20
22.5988915421276
 30
0.0
 40
2.0
100
AcDbArc
 50
340.0915199872278
 51
71.14994954366165
  0
ARC
  5
6469
330
6456
100
AcDbEntity
  8
0
  6
Dash
 62
     8
 48
0.1
370
    18
100
AcDbCircle
 10
31.5129662640129
 20
22.5988915421276
 30
0.0
 40
5.0
100
AcDbArc
 50
340.091519987222
 51
71.14994954365997
  0
LINE
  5
646A
330
6456
100
AcDbEntity
  8
0
  6
Dash
 62
     8
 48
0.1
370
    18
100
AcDbLine
 10
36.21415495965311
 20
20.89629797701036
 30
0.0
 11
29.48532853403367
 21
2.316712469846607
 31
0.0
  0
ENDBLK
  5
646B
330
6456
100
AcDbEntity
  8
_lines
100
AcDbBlockEnd
  0
BLOCK
  5
65E9
330
65E8
100
AcDbEntity
  8
0
100
AcDbBlockBegin
  2
*D467
 70
     1
 10
0.0
 20
0.0
 30
0.0
  3
*D467
  1

  0
LINE
  5
65EB
330
65E8
100
AcDbEntity
  8
0
  6
XAR-1873-FP03-17_off$0$HIDDEN
 62
     8
370
    -2
100
AcDbLine
 10
521.8536327644201
 20
326.6748576416691
 30
0.0
 11
501.1792035119748
 21
266.6319553169786
 31
0.0
  0
LINE
  5
65EC
330
65E8
100
AcDbEntity
  8
0
  6
XAR-1873-FP03-17_off$0$HIDDEN
 62
     8
370
    -2
100
AcDbLine
 10
640.0434547143327
 20
285.9788383345245
 30
0.0
 11
619.3690254618875
 21
225.9359360098344
 31
0.0
  0
LINE
  5
65ED
330
65E8
100
AcDbEntity
  8
0
 62
    24
370
    -2
100
AcDbLine
 10
496.8395505639797
 20
275.529562427374
 30
0.0
 11
628.2666325722828
 21
230.2755889578295
 31
0.0
  0
INSERT
  5
65EE
330
65E8
100
AcDbEntity
  8
0
  6
ByBlock
 62
    24
370
    -2
100
AcDbBlockReference
  2
_OBLIQUE
 10
503.4581805931749
 20
273.2505853461739
 30
0.0
 41
5.0
 42
5.0
 43
5.0
 50
160.9999999999999
  0
INSERT
  5
65EF
330
65E8
100
AcDbEntity
  8
0
  6
ByBlock
 62
    24
370
    -2
100
AcDbBlockReference
  2
_OBLIQUE
 10
621.6480025430876
 20
232.5545660390296
 30
0.0
 41
5.0
 42
5.0
 43
5.0
 50
340.9999999999999
  0
MTEXT
  5
65F0
330
65E8
100
AcDbEntity
  8
0
 62
     4
100
AcDbMText
 10
564.1809323404171
 20
257.6301685705983
 30
0.0
 40
8.0
 41
0.0
 46
0.0
 71
     5
 72
     1
  1
\A1;125
  7
RS
 11
0.945518575599316
 21
-0.3255681544571591
 31
0.0
 73
     1
 44
1.0
  0
POINT
  5
65F1
330
65E8
100
AcDbEntity
  8
DEFPOINTS
 62
     0
100
AcDbPoint
 10
521.8536327644201
 20
326.6748576416691
 30
0.0
  0
POINT
  5
65F2
330
65E8
100
AcDbEntity
  8
DEFPOINTS
 62
     0
100
AcDbPoint
 10
640.0434547143327
 20
285.9788383345245
 30
0.0
  0
POINT
  5
65F3
330
65E8
100
AcDbEntity
  8
DEFPOINTS
 62
     0
100
AcDbPoint
 10
621.6480025430876
 20
232.5545660390296
 30
0.0
  0
ENDBLK
  5
65EA
330
65E8
100
AcDbEntity
  8
0
100
AcDbBlockEnd
  0
BLOCK
  5
65F5
330
65F4
100
AcDbEntity
  8
0
100
AcDbBlockBegin
  2
*D468
 70
     1
 10
0.0
 20
0.0
 30
0.0
  3
*D468
  1

  0
LINE
  5
65F7
330
65F4
100
AcDbEntity
  8
0
  6
XAR-1873-FP03-17_off$0$HIDDEN
 62
     8
370
    -2
100
AcDbLine
 10
759.3826613148399
 20
326.5074999200848
 30
0.0
 11
780.0570905672855
 21
266.4645975953932
 31
0.0
  0
LINE
  5
65F8
330
65F4
100
AcDbEntity
  8
0
  6
XAR-1873-FP03-17_off$0$HIDDEN
 62
     8
370
    -2
100
AcDbLine
 10
641.1928393649273
 20
285.8114806129403
 30
0.0
 11
661.8672686173728
 21
225.768578288249
 31
0.0
  0
LINE
  5
65F9
330
65F4
100
AcDbEntity
  8
0
 62
    24
370
    -2
100
AcDbLine
 10
784.3967435152806
 20
275.3622047057885
 30
0.0
 11
652.9696615069776
 21
230.1082312362441
 31
0.0
  0
INSERT
  5
65FA
330
65F4
100
AcDbEntity
  8
0
  6
ByBlock
 62
    24
370
    -2
100
AcDbBlockReference
  2
_OBLIQUE
 10
777.7781134860854
 20
273.0832276245884
 30
0.0
 41
5.0
 42
5.0
 43
5.0
 50
19.00000000000012
  0
INSERT
  5
65FB
330
65F4
100
AcDbEntity
  8
0
  6
ByBlock
 62
    24
370
    -2
100
AcDbBlockReference
  2
_OBLIQUE
 10
659.5882915361727
 20
232.3872083174442
 30
0.0
 41
5.0
 42
5.0
 43
5.0
 50
199.0000000000001
  0
MTEXT
  5
65FC
330
65F4
100
AcDbEntity
  8
0
 62
     4
100
AcDbMText
 10
717.0553617388433
 20
257.4628108490129
 30
0.0
 40
8.0
 41
0.0
 46
0.0
 71
     5
 72
     1
  1
\A1;125
  7
RS
 11
0.9455185755993162
 21
0.3255681544571587
 31
0.0
 73
     1
 44
1.0
  0
POINT
  5
65FD
330
65F4
100
AcDbEntity
  8
DEFPOINTS
 62
     0
100
AcDbPoint
 10
759.3826613148399
 20
326.5074999200848
 30
0.0
  0
POINT
  5
65FE
330
65F4
100
AcDbEntity
  8
DEFPOINTS
 62
     0
100
AcDbPoint
 10
641.1928393649273
 20
285.8114806129403
 30
0.0
  0
POINT
  5
65FF
330
65F4
100
AcDbEntity
  8
DEFPOINTS
 62
     0
100
AcDbPoint
 10
659.5882915361727
 20
232.3872083174442
 30
0.0
  0
ENDBLK
  5
65F6
330
65F4
100
AcDbEntity
  8
0
100
AcDbBlockEnd
  0
BLOCK
  5
663E
330
663D
100
AcDbEntity
  8
0
100
AcDbBlockBegin
  2
*D474
 70
     1
 10
0.0
 20
0.0
 30
0.0
  3
*D474
  1

  0
LINE
  5
6640
330
663D
100
AcDbEntity
  8
0
  6
XAR-1873-FP03-17_off$0$HIDDEN
 62
     8
370
    -2
100
AcDbLine
 10
577.8907964276318
 20
300.1544268469785
 30
0.0
 11
569.3943477827659
 21
275.4789482709449
 31
0.0
  0
LINE
  5
6641
330
663D
100
AcDbEntity
  8
0
  6
XAR-1873-FP03-17_off$0$HIDDEN
 62
     8
370
    -2
100
AcDbLine
 10
637.8192889871575
 20
279.5193920359094
 30
0.0
 11
629.3228403422916
 21
254.8439134598758
 31
0.0
  0
LINE
  5
6642
330
663D
100
AcDbEntity
  8
0
 62
    24
370
    -2
100
AcDbLine
 10
565.0546948347708
 20
284.3765553813403
 30
0.0
 11
638.2204474526868
 21
259.1835664078709
 31
0.0
  0
INSERT
  5
6643
330
663D
100
AcDbEntity
  8
0
  6
ByBlock
 62
    24
370
    -2
100
AcDbBlockReference
  2
_OBLIQUE
 10
571.673324863966
 20
282.0975783001401
 30
0.0
 41
5.0
 42
5.0
 43
5.0
 50
160.9999999999999
  0
INSERT
  5
6644
330
663D
100
AcDbEntity
  8
0
  6
ByBlock
 62
    24
370
    -2
100
AcDbBlockReference
  2
_OBLIQUE
 10
631.6018174234916
 20
261.462543489071
 30
0.0
 41
5.0
 42
5.0
 43
5.0
 50
340.9999999999999
  0
MTEXT
  5
6645
330
663D
100
AcDbEntity
  8
0
 62
     4
100
AcDbMText
 10
603.2654119160146
 20
276.5076537726022
 30
0.0
 40
8.0
 41
0.0
 46
0.0
 71
     5
 72
     1
  1
\A1;63
  7
RS
 11
0.9455185755993161
 21
-0.3255681544571588
 31
0.0
 73
     1
 44
1.0
  0
POINT
  5
6646
330
663D
100
AcDbEntity
  8
DEFPOINTS
 62
     0
100
AcDbPoint
 10
577.8907964276318
 20
300.1544268469785
 30
0.0
  0
POINT
  5
6647
330
663D
100
AcDbEntity
  8
DEFPOINTS
 62
     0
100
AcDbPoint
 10
637.8192889871575
 20
279.5193920359094
 30
0.0
  0
POINT
  5
6648
330
663D
100
AcDbEntity
  8
DEFPOINTS
 62
     0
100
AcDbPoint
 10
631.6018174234916
 20
261.462543489071
 30
0.0
  0
ENDBLK
  5
663F
330
663D
100
AcDbEntity
  8
0
100
AcDbBlockEnd
  0
BLOCK
  5
664A
330
6649
100
AcDbEntity
  8
0
100
AcDbBlockBegin
  2
*D475
 70
     1
 10
0.0
 20
0.0
 30
0.0
  3
*D475
  1

  0
LINE
  5
664C
330
6649
100
AcDbEntity
  8
0
  6
XAR-1873-FP03-17_off$0$HIDDEN
 62
     8
370
    -2
100
AcDbLine
 10
703.2878717667877
 20
300.1544268469748
 30
0.0
 11
711.784320411652
 21
275.4789482709409
 31
0.0
  0
LINE
  5
664D
330
6649
100
AcDbEntity
  8
0
  6
XAR-1873-FP03-17_off$0$HIDDEN
 62
     8
370
    -2
100
AcDbLine
 10
643.3593792072602
 20
279.5193920359094
 30
0.0
 11
651.8558278521244
 21
254.8439134598754
 31
0.0
  0
LINE
  5
664E
330
6649
100
AcDbEntity
  8
0
 62
    24
370
    -2
100
AcDbLine
 10
716.1239733596477
 20
284.3765553813359
 30
0.0
 11
642.9582207417294
 21
259.1835664078711
 31
0.0
  0
INSERT
  5
664F
330
6649
100
AcDbEntity
  8
0
  6
ByBlock
 62
    24
370
    -2
100
AcDbBlockReference
  2
_OBLIQUE
 10
709.5053433304523
 20
282.0975783001362
 30
0.0
 41
5.0
 42
5.0
 43
5.0
 50
18.99999999999648
  0
INSERT
  5
6650
330
6649
100
AcDbEntity
  8
0
  6
ByBlock
 62
    24
370
    -2
100
AcDbBlockReference
  2
_OBLIQUE
 10
649.5768507709248
 20
261.4625434890708
 30
0.0
 41
5.0
 42
5.0
 43
5.0
 50
198.9999999999965
  0
MTEXT
  5
6651
330
6649
100
AcDbEntity
  8
0
 62
     4
100
AcDbMText
 10
677.9132562784031
 20
276.5076537726002
 30
0.0
 40
8.0
 41
0.0
 46
0.0
 71
     5
 72
     1
  1
\A1;63
  7
RS
 11
0.9455185755993369
 21
0.3255681544570986
 31
0.0
 73
     1
 44
1.0
  0
POINT
  5
6652
330
6649
100
AcDbEntity
  8
DEFPOINTS
 62
     0
100
AcDbPoint
 10
703.2878717667877
 20
300.1544268469748
 30
0.0
  0
POINT
  5
6653
330
6649
100
AcDbEntity
  8
DEFPOINTS
 62
     0
100
AcDbPoint
 10
643.3593792072602
 20
279.5193920359094
 30
0.0
  0
POINT
  5
6654
330
6649
100
AcDbEntity
  8
DEFPOINTS
 62
     0
100
AcDbPoint
 10
649.5768507709248
 20
261.4625434890708
 30
0.0
  0
ENDBLK
  5
664B
330
6649
100
AcDbEntity
  8
0
100
AcDbBlockEnd
  0
BLOCK
  5
6656
330
6655
100
AcDbEntity
  8
0
100
AcDbBlockBegin
  2
*D476
 70
     1
 10
0.0
 20
0.0
 30
0.0
  3
*D476
  1

  0
LINE
  5
6658
330
6655
100
AcDbEntity
  8
0
  6
XAR-1873-FP03-17_off$0$HIDDEN
 62
     8
370
    -2
100
AcDbLine
 10
570.9962647372836
 20
353.9783561987518
 30
0.0
 11
570.9962647372836
 21
445.9602133699349
 31
0.0
  0
LINE
  5
6659
330
6655
100
AcDbEntity
  8
0
  6
XAR-1873-FP03-17_off$0$HIDDEN
 62
     8
370
    -2
100
AcDbLine
 10
710.1824034571314
 20
353.9783561987518
 30
0.0
 11
710.1824034571314
 21
445.9602133699349
 31
0.0
  0
LINE
  5
665A
330
6655
100
AcDbEntity
  8
0
 62
    24
370
    -2
100
AcDbLine
 10
563.9962647372836
 20
438.9602133699349
 30
0.0
 11
717.1824034571314
 21
438.9602133699349
 31
0.0
  0
INSERT
  5
665B
330
6655
100
AcDbEntity
  8
0
  6
ByBlock
 62
    24
370
    -2
100
AcDbBlockReference
  2
_OBLIQUE
 10
570.9962647372836
 20
438.9602133699349
 30
0.0
 41
5.0
 42
5.0
 43
5.0
 50
180.0
  0
INSERT
  5
665C
330
6655
100
AcDbEntity
  8
0
  6
ByBlock
 62
    24
370
    -2
100
AcDbBlockReference
  2
_OBLIQUE
 10
710.1824034571314
 20
438.9602133699349
 30
0.0
 41
5.0
 42
5.0
 43
5.0
  0
MTEXT
  5
665D
330
6655
100
AcDbEntity
  8
0
 62
     4
100
AcDbMText
 10
629.7475224334007
 20
456.3638841559044
 30
0.0
 40
8.0
 41
0.0
 46
0.0
 71
     5
 72
     1
  1
\A1;\A1;50mm\P(Min. clearance between tiles)
  7
RS
 73
     1
 44
1.0
  0
POINT
  5
665E
330
6655
100
AcDbEntity
  8
DEFPOINTS
 62
     0
100
AcDbPoint
 10
570.9962647372836
 20
353.9783561987518
 30
0.0
  0
POINT
  5
665F
330
6655
100
AcDbEntity
  8
DEFPOINTS
 62
     0
100
AcDbPoint
 10
710.1824034571314
 20
353.9783561987518
 30
0.0
  0
POINT
  5
6660
330
6655
100
AcDbEntity
  8
DEFPOINTS
 62
     0
100
AcDbPoint
 10
710.1824034571314
 20
438.9602133699349
 30
0.0
  0
ENDBLK
  5
6657
330
6655
100
AcDbEntity
  8
0
100
AcDbBlockEnd
  0
BLOCK
  5
6662
330
6661
100
AcDbEntity
  8
0
100
AcDbBlockBegin
  2
*D477
 70
     1
 10
0.0
 20
0.0
 30
0.0
  3
*D477
  1

  0
LINE
  5
6664
330
6661
100
AcDbEntity
  8
0
  6
XAR-1873-FP03-17_off$0$HIDDEN
 62
     8
370
    -2
100
AcDbLine
 10
525.6675132017722
 20
366.6716552904996
 30
0.0
 11
537.7175016027472
 21
400.0089979568783
 31
0.0
  0
LINE
  5
6665
330
6661
100
AcDbEntity
  8
0
  6
XAR-1873-FP03-17_off$0$HIDDEN
 62
     8
370
    -2
100
AcDbLine
 10
570.264304337074
 20
350.5518697011381
 30
0.0
 11
582.3142927380491
 21
383.8892123675167
 31
0.0
  0
LINE
  5
6666
330
6661
100
AcDbEntity
  8
0
 62
    24
370
    -2
100
AcDbLine
 10
528.7548295870488
 20
395.8053673428714
 30
0.0
 11
586.517923352056
 21
374.9265403518182
 31
0.0
  0
INSERT
  5
6667
330
6661
100
AcDbEntity
  8
0
  6
ByBlock
 62
    24
370
    -2
100
AcDbBlockReference
  2
_OBLIQUE
 10
535.3379809019015
 20
393.4258466420256
 30
0.0
 41
5.0
 42
5.0
 43
5.0
 50
160.1272975156449
  0
INSERT
  5
6668
330
6661
100
AcDbEntity
  8
0
  6
ByBlock
 62
    24
370
    -2
100
AcDbBlockReference
  2
_OBLIQUE
 10
579.9347720372033
 20
377.3060610526641
 30
0.0
 41
5.0
 42
5.0
 43
5.0
 50
340.1272975156449
  0
MTEXT
  5
6669
330
6661
100
AcDbEntity
  8
0
 62
     4
100
AcDbMText
 10
561.8855205782056
 20
397.121581195296
 30
0.0
 40
8.0
 41
0.0
 46
0.0
 71
     5
 72
     1
  1
\A1;\A1;50mm min.
  7
RS
 11
0.9404501878360932
 21
-0.3399315286922604
 31
0.0
 73
     1
 44
1.0
  0
POINT
  5
666A
330
6661
100
AcDbEntity
  8
DEFPOINTS
 62
     0
100
AcDbPoint
 10
525.6675132017722
 20
366.6716552904996
 30
0.0
  0
POINT
  5
666B
330
6661
100
AcDbEntity
  8
DEFPOINTS
 62
     0
100
AcDbPoint
 10
570.264304337074
 20
350.5518697011381
 30
0.0
  0
POINT
  5
666C
330
6661
100
AcDbEntity
  8
DEFPOINTS
 62
     0
100
AcDbPoint
 10
579.9347720372033
 20
377.3060610526641
 30
0.0
  0
ENDBLK
  5
6663
330
6661
100
AcDbEntity
  8
0
100
AcDbBlockEnd
  0
BLOCK
  5
666E
330
666D
100
AcDbEntity
  8
0
100
AcDbBlockBegin
  2
*D478
 70
     1
 10
0.0
 20
0.0
 30
0.0
  3
*D478
  1

  0
LINE
  5
6670
330
666D
100
AcDbEntity
  8
0
  6
XAR-1873-FP03-17_off$0$HIDDEN
 62
     8
370
    -2
100
AcDbLine
 10
755.5111549926428
 20
366.6716552904996
 30
0.0
 11
743.4611665916677
 21
400.0089979568783
 31
0.0
  0
LINE
  5
6671
330
666D
100
AcDbEntity
  8
0
  6
XAR-1873-FP03-17_off$0$HIDDEN
 62
     8
370
    -2
100
AcDbLine
 10
710.914363857341
 20
350.5518697011381
 30
0.0
 11
698.8643754563659
 21
383.8892123675167
 31
0.0
  0
LINE
  5
6672
330
666D
100
AcDbEntity
  8
0
 62
    24
370
    -2
100
AcDbLine
 10
752.4238386073662
 20
395.8053673428714
 30
0.0
 11
694.660744842359
 21
374.9265403518182
 31
0.0
  0
INSERT
  5
6673
330
666D
100
AcDbEntity
  8
0
  6
ByBlock
 62
    24
370
    -2
100
AcDbBlockReference
  2
_OBLIQUE
 10
745.8406872925135
 20
393.4258466420256
 30
0.0
 41
5.0
 42
5.0
 43
5.0
 50
19.87270248435512
  0
INSERT
  5
6674
330
666D
100
AcDbEntity
  8
0
  6
ByBlock
 62
    24
370
    -2
100
AcDbBlockReference
  2
_OBLIQUE
 10
701.2438961572117
 20
377.3060610526641
 30
0.0
 41
5.0
 42
5.0
 43
5.0
 50
199.8727024843551
  0
MTEXT
  5
6675
330
666D
100
AcDbEntity
  8
0
 62
     4
100
AcDbMText
 10
719.2931476162094
 20
397.121581195296
 30
0.0
 40
8.0
 41
0.0
 46
0.0
 71
     5
 72
     1
  1
\A1;\A1;50mm min.
  7
RS
 11
0.9404501878360932
 21
0.3399315286922604
 31
0.0
 73
     1
 44
1.0
  0
POINT
  5
6676
330
666D
100
AcDbEntity
  8
DEFPOINTS
 62
     0
100
AcDbPoint
 10
755.5111549926428
 20
366.6716552904996
 30
0.0
  0
POINT
  5
6677
330
666D
100
AcDbEntity
  8
DEFPOINTS
 62
     0
100
AcDbPoint
 10
710.914363857341
 20
350.5518697011381
 30
0.0
  0
POINT
  5
6678
330
666D
100
AcDbEntity
  8
DEFPOINTS
 62
     0
100
AcDbPoint
 10
701.2438961572117
 20
377.3060610526641
 30
0.0
  0
ENDBLK
  5
666F
330
666D
100
AcDbEntity
  8
0
100
AcDbBlockEnd
  0
BLOCK
  5
667A
330
6679
100
AcDbEntity
  8
0
100
AcDbBlockBegin
  2
*D479
 70
     1
 10
0.0
 20
0.0
 30
0.0
  3
*D479
  1

  0
LINE
  5
667C
330
6679
100
AcDbEntity
  8
0
  6
XAR-1873-FP03-17_off$0$HIDDEN
 62
     8
370
    -2
100
AcDbLine
 10
522.6984417212466
 20
344.4979485025839
 30
0.0
 11
647.6914940206675
 21
344.4979485025839
 31
0.0
  0
LINE
  5
667D
330
6679
100
AcDbEntity
  8
0
  6
XAR-1873-FP03-17_off$0$HIDDEN
 62
     8
370
    -2
100
AcDbLine
 10
640.2492823488915
 20
283.0548496445314
 30
0.0
 11
647.6914940206675
 21
283.0548496445314
 31
0.0
  0
LINE
  5
667E
330
6679
100
AcDbEntity
  8
0
 62
    24
370
    -2
100
AcDbLine
 10
640.6914940206675
 20
351.4979485025839
 30
0.0
 11
640.6914940206675
 21
276.0548496445314
 31
0.0
  0
INSERT
  5
667F
330
6679
100
AcDbEntity
  8
0
  6
ByBlock
 62
    24
370
    -2
100
AcDbBlockReference
  2
_OBLIQUE
 10
640.6914940206675
 20
344.4979485025839
 30
0.0
 41
5.0
 42
5.0
 43
5.0
 50
90.0
  0
INSERT
  5
6680
330
6679
100
AcDbEntity
  8
0
  6
ByBlock
 62
    24
370
    -2
100
AcDbBlockReference
  2
_OBLIQUE
 10
640.6914940206675
 20
283.0548496445314
 30
0.0
 41
5.0
 42
5.0
 43
5.0
 50
270.0
  0
MTEXT
  5
6681
330
6679
100
AcDbEntity
  8
0
 62
     4
100
AcDbMText
 10
626.3581606873345
 20
369.4397655649251
 30
0.0
 40
8.0
 41
0.0
 46
0.0
 71
     5
 72
     1
  1
\A1;\A1;50mm \Pmin.
  7
RS
 11
0.0
 21
1.0
 31
0.0
 73
     1
 44
1.0
  0
POINT
  5
6682
330
6679
100
AcDbEntity
  8
DEFPOINTS
 62
     0
100
AcDbPoint
 10
522.6984417212466
 20
344.4979485025839
 30
0.0
  0
POINT
  5
6683
330
6679
100
AcDbEntity
  8
DEFPOINTS
 62
     0
100
AcDbPoint
 10
640.2492823488915
 20
283.0548496445314
 30
0.0
  0
POINT
  5
6684
330
6679
100
AcDbEntity
  8
DEFPOINTS
 62
     0
100
AcDbPoint
 10
640.6914940206675
 20
283.0548496445314
 30
0.0
  0
ENDBLK
  5
667B
330
6679
100
AcDbEntity
  8
0
100
AcDbBlockEnd
  0
BLOCK
  5
6686
330
6685
100
AcDbEntity
  8
0
100
AcDbBlockBegin
  2
*D480
 70
     1
 10
0.0
 20
0.0
 30
0.0
  3
*D480
  1

  0
LINE
  5
6688
330
6685
100
AcDbEntity
  8
0
  6
XAR-1873-FP03-17_off$0$HIDDEN
 62
     8
370
    -2
100
AcDbLine
 10
522.7609417212466
 20
344.4979485025839
 30
0.0
 11
587.0349999002364
 21
321.2564028247249
 31
0.0
  0
LINE
  5
6689
330
6685
100
AcDbEntity
  8
0
  6
XAR-1873-FP03-17_off$0$HIDDEN
 62
     8
370
    -2
100
AcDbLine
 10
516.6777624532565
 20
327.6750304573139
 30
0.0
 11
580.9518206322463
 21
304.433484779455
 31
0.0
  0
LINE
  5
668A
330
6685
100
AcDbEntity
  8
0
 62
    24
370
    -2
100
AcDbLine
 10
582.8325150633237
 20
330.2196121381082
 30
0.0
 11
571.988611318863
 21
300.2309999425425
 31
0.0
  0
INSERT
  5
668B
330
6685
100
AcDbEntity
  8
0
  6
ByBlock
 62
    24
370
    -2
100
AcDbBlockReference
  2
_OBLIQUE
 10
580.4521528250884
 20
323.6367650629603
 30
0.0
 41
5.0
 42
5.0
 43
5.0
 50
70.11997311240113
  0
INSERT
  5
668C
330
6685
100
AcDbEntity
  8
0
  6
ByBlock
 62
    24
370
    -2
100
AcDbBlockReference
  2
_OBLIQUE
 10
574.3689735570983
 20
306.8138470176904
 30
0.0
 41
5.0
 42
5.0
 43
5.0
 50
250.1199731124011
  0
MTEXT
  5
668D
330
6685
100
AcDbEntity
  8
0
 62
     4
100
AcDbMText
 10
572.7085295659878
 20
316.925564781922
 30
0.0
 40
8.0
 41
0.0
 46
0.0
 71
     5
 72
     1
  1
\A1;\A1;20
  7
RS
 11
0.3400517483193377
 21
0.9404067250211273
 31
0.0
 73
     1
 44
1.0
  0
POINT
  5
668E
330
6685
100
AcDbEntity
  8
DEFPOINTS
 62
     0
100
AcDbPoint
 10
522.7609417212466
 20
344.4979485025839
 30
0.0
  0
POINT
  5
668F
330
6685
100
AcDbEntity
  8
DEFPOINTS
 62
     0
100
AcDbPoint
 10
516.6777624532565
 20
327.6750304573139
 30
0.0
  0
POINT
  5
6690
330
6685
100
AcDbEntity
  8
DEFPOINTS
 62
     0
100
AcDbPoint
 10
574.3689735570983
 20
306.8138470176904
 30
0.0
  0
ENDBLK
  5
6687
330
6685
100
AcDbEntity
  8
0
100
AcDbBlockEnd
  0
ENDSEC
  0
SECTION
  2
ENTITIES
  0
LWPOLYLINE
  5
6519
330
1F
100
AcDbEntity
  8
DEFPOINTS
370
    -3
100
AcDbPolyline
 90
        4
 70
     1
 43
0.0
 10
2.121518365837346
 20
939.834999082144
 10
1272.136314479724
 20
939.834999082144
 10
1272.136314479724
 20
1.490733711908092
 10
2.121518365837346
 20
1.490733711908092
  0
MTEXT
  5
651A
330
1F
100
AcDbEntity
  8
DEFPOINTS
100
AcDbMText
 10
32.48274051299677
 20
58.96253598197347
 30
0.0
 40
25.0
 41
1348.503418991208
 46
74.31942797098108
 71
     1
 72
     1
  1
116 VALLEY WIDE 150x25 valley board
  7
Arial
 73
     2
 44
0.9385317878468564
1001
REVIT
1002
{
1070
     1
1000
266659
1002
}
1002
{
1070
     5
1000
190735
1002
}
1002
{
1070
     2
1000
-2005028
1002
}
1001
AcadAnnotative
1000
AnnotativeData
1002
{
1070
     1
1070
     0
1002
}
  0
HATCH
  5
651B
330
1F
100
AcDbEntity
  8
_hatch
100
AcDbHatch
 10
0.0
 20
0.0
 30
0.0
210
0.0
220
0.0
230
1.0
  2
SOLID
 70
     1
 71
     0
 91
        2
 92
        0
 93
        4
 72
     1
 10
711.427618319
 20
276.5176156145541
 11
853.2554046588975
 21
325.352838783128
 72
     1
 10
853.255404658898
 20
325.352838783128
 11
845.116200797469
 21
348.9908031731117
 72
     1
 10
845.1162007974694
 20
348.9908031731117
 11
703.2884144575714
 21
300.1555800045377
 72
     1
 10
703.2884144575714
 20
300.1555800045368
 11
711.4276183190009
 21
276.5176156145532
 97
        0
 92
        0
 93
        5
 72
     1
 10
712.6675191612799
 20
279.0597890746664
 11
705.8305879176801
 21
298.9156791622514
 72
     1
 10
705.8305879176792
 20
298.9156791622514
 11
843.8762999551827
 21
346.4486297129985
 72
     1
 10
843.8762999551823
 20
346.4486297129985
 11
850.7132311987821
 21
326.5927396254134
 72
     1
 10
850.713231198783
 20
326.5927396254134
 11
732.024821080317
 21
285.7250426441766
 72
     1
 10
732.024821080317
 20
285.7250426441766
 11
712.667519161279
 21
279.0597890746673
 97
        0
 75
     0
 76
     1
 98
        1
 10
778.2719095582347
 20
312.7542093938333
  0
HATCH
  5
651C
330
1F
100
AcDbEntity
  8
_hatch
100
AcDbHatch
 10
0.0
 20
0.0
 30
0.0
210
0.0
220
0.0
230
1.0
  2
SOLID
 70
     1
 71
     0
 91
        2
 92
        0
 93
        4
 72
     1
 10
569.7515925662033
 20
276.5174287511323
 11
577.8907964276327
 21
300.155393141116
 72
     1
 10
577.8907964276318
 20
300.155393141115
 11
436.0630100877338
 21
348.990616309689
 72
     1
 10
436.0630100877338
 20
348.990616309689
 11
427.9238062263044
 21
325.3526519197054
 72
     1
 10
427.9238062263053
 20
325.3526519197063
 11
569.7515925662033
 21
276.5174287511323
 97
        0
 92
        0
 93
        4
 72
     1
 10
568.5116917239197
 20
279.0596022112446
 11
430.4659796864166
 21
326.5925527619917
 72
     1
 10
430.4659796864166
 20
326.5925527619917
 11
437.3029109300173
 21
346.4484428495767
 72
     1
 10
437.3029109300173
 20
346.4484428495758
 11
575.3486229675204
 21
298.9154922988297
 72
     1
 10
575.3486229675204
 20
298.9154922988297
 11
568.5116917239206
 21
279.0596022112446
 97
        0
 75
     0
 76
     1
 98
        1
 10
502.9073013269685
 20
312.7540225304107
  0
LINE
  5
651D
330
1F
100
AcDbEntity
  8
_lines
100
AcDbLine
 10
710.6588019544456
 20
351.2589039692135
 30
0.0
 11
718.199349156052
 21
330.3973232284712
 31
0.0
1001
REVIT
1002
{
1070
     3
1000
541600
1002
}
  0
ARC
  5
651E
330
1F
100
AcDbEntity
  8
_lines
100
AcDbCircle
 10
718.182403457135
 20
353.9783561987512
 30
0.0
 40
8.0
100
AcDbArc
 50
108.8665030839635
 51
199.8727024843504
1001
REVIT
1002
{
1070
     3
1000
541600
1002
}
  0
LINE
  5
651F
330
1F
100
AcDbEntity
  8
_lines
100
AcDbLine
 10
715.5954894443771
 20
361.548552754362
 30
0.0
 11
969.5733025746872
 21
447.8473308764566
 31
0.0
1001
REVIT
1002
{
1070
     3
1000
541600
1002
}
  0
LINE
  5
6520
102
{ACAD_REACTORS
330
65DF
102
}
330
1F
100
AcDbEntity
  8
_lines
100
AcDbLine
 10
570.519866239973
 20
351.2589039692135
 30
0.0
 11
562.9793190383666
 21
330.3973232284712
 31
0.0
1001
REVIT
1002
{
1070
     3
1000
541600
1002
}
  0
ARC
  5
6521
330
1F
100
AcDbEntity
  8
_lines
100
AcDbCircle
 10
562.9962647372836
 20
353.9783561987512
 30
0.0
 40
8.0
100
AcDbArc
 50
340.1272975156412
 51
71.13349691603648
1001
REVIT
1002
{
1070
     3
1000
541600
1002
}
  0
LINE
  5
6522
330
1F
100
AcDbEntity
  8
_lines
100
AcDbLine
 10
565.5831787500451
 20
361.548552754362
 30
0.0
 11
311.605365619735
 21
447.8473308764575
 31
0.0
1001
REVIT
1002
{
1070
     3
1000
541600
1002
}
  0
LWPOLYLINE
  5
6523
330
1F
100
AcDbEntity
  8
_pline
100
AcDbPolyline
 90
        4
 70
   128
 43
0.0
 10
690.7286398466372
 20
604.1336566785818
 10
678.9739771885675
 20
650.0848992728294
 10
680.4165657610488
 20
646.5117074109181
 10
691.3094838405545
 20
603.9291905160641
1001
REVIT
1002
{
1070
     3
1000
113087
1002
}
  0
LWPOLYLINE
  5
6524
330
1F
100
AcDbEntity
  8
_pline
100
AcDbPolyline
 90
        4
 70
   128
 43
0.0
 10
652.7446455177546
 20
601.8139832423018
 10
651.3334077474087
 20
607.3307837690041
 10
678.9739771885675
 20
650.0848992728294
 10
689.0188066180258
 20
665.6221220605026
1001
REVIT
1002
{
1070
     3
1000
113087
1002
}
  0
LWPOLYLINE
  5
6525
330
1F
100
AcDbEntity
  8
_pline
100
AcDbPolyline
 90
        4
 70
   128
 43
0.0
 10
644.4903013998105
 20
784.8882362807523
 10
635.2439564581241
 20
821.0339813254883
 10
636.6865450306054
 20
817.4607894635761
 10
645.0711453937279
 20
784.6837701182345
1001
REVIT
1002
{
1070
     3
1000
113087
1002
}
  0
LINE
  5
6526
330
1F
100
AcDbEntity
  8
_lines
100
AcDbLine
 10
649.7526758473273
 20
766.382764990021
 30
0.0
 11
669.5114100013366
 21
689.1420637570878
 31
0.0
1001
REVIT
1002
{
1070
     3
1000
113087
1002
}
  0
LINE
  5
6527
330
1F
100
AcDbEntity
  8
_lines
100
AcDbLine
 10
674.192940454936
 20
670.8410586288734
 30
0.0
 11
676.4373400574682
 21
662.0672678690422
 31
0.0
1001
REVIT
1002
{
1070
     3
1000
113087
1002
}
  0
LINE
  5
6528
330
1F
100
AcDbEntity
  8
_lines
100
AcDbLine
 10
649.1718318534136
 20
766.5872311525387
 30
0.0
 11
668.9305660074192
 21
689.3465299196047
 31
0.0
1001
REVIT
1002
{
1070
     3
1000
113087
1002
}
  0
LWPOLYLINE
  5
6529
330
1F
100
AcDbEntity
  8
_pline
100
AcDbPolyline
 90
        3
 70
   128
 43
0.0
 10
859.3841269753816
 20
605.6508670515419
 10
673.6120963744638
 20
671.0455251297659
 10
676.058642473205
 20
661.4815047430071
1001
REVIT
1002
{
1070
     3
1000
113087
1002
}
  0
LWPOLYLINE
  5
652A
330
1F
100
AcDbEntity
  8
_pline
100
AcDbPolyline
 90
        4
 70
   128
 43
0.0
 10
676.058642473205
 20
661.4815047430071
 10
648.4180730320463
 20
618.7273892391819
 10
607.603387016969
 20
778.2798658216631
 10
635.2439564581241
 20
821.0339813254883
1001
REVIT
1002
{
1070
     3
1000
113087
1002
}
  0
LWPOLYLINE
  5
652B
330
1F
100
AcDbEntity
  8
_pline
100
AcDbPolyline
 90
        3
 70
   128
 43
0.0
 10
604.6880479769811
 20
789.6764881976347
 10
581.908041966612
 20
878.7279236092651
 10
600.1865132078115
 20
884.3980854933103
1001
REVIT
1002
{
1070
     3
1000
113087
1002
}
  0
LWPOLYLINE
  5
652C
330
1F
100
AcDbEntity
  8
_pline
100
AcDbPolyline
 90
        4
 70
   128
 43
0.0
 10
604.7531267587824
 20
885.8146940134753
 10
617.6492221675348
 20
889.8151898796119
 10
619.0918111110536
 20
886.2419965672476
 10
620.6308807861192
 20
880.2254764793821
1001
REVIT
1002
{
1070
     3
1000
113087
1002
}
  0
LINE
  5
652D
330
1F
100
AcDbEntity
  8
_lines
100
AcDbLine
 10
625.3124112397186
 20
861.9244713511686
 30
0.0
 11
632.7073149139637
 21
833.016367173214
 31
0.0
1001
REVIT
1002
{
1070
     3
1000
113087
1002
}
  0
LINE
  5
652E
330
1F
100
AcDbEntity
  8
_lines
100
AcDbLine
 10
617.6492221675348
 20
889.8151898796119
 30
0.0
 11
620.0500367922018
 21
880.429942641899
 31
0.0
1001
REVIT
1002
{
1070
     3
1000
113087
1002
}
  0
LINE
  5
652F
330
1F
100
AcDbEntity
  8
_lines
100
AcDbLine
 10
624.7315672458049
 20
862.1289375136854
 30
0.0
 11
632.3286176834577
 21
832.4306026642658
 31
0.0
1001
REVIT
1002
{
1070
     3
1000
113087
1002
}
  0
LWPOLYLINE
  5
6530
330
1F
100
AcDbEntity
  8
_pline
100
AcDbPolyline
 90
        4
 70
   128
 43
0.0
 10
595.330453277506
 20
588.7601578984155
 10
583.3806220734355
 20
635.4743519668979
 10
585.5932573804407
 20
639.4633073454221
 10
597.9983278251698
 20
590.9694953164523
1001
REVIT
1002
{
1070
     3
1000
113087
1002
}
  0
LWPOLYLINE
  5
6531
330
1F
100
AcDbEntity
  8
_pline
100
AcDbPolyline
 90
        4
 70
   128
 43
0.0
 10
629.5468329234632
 20
598.5824978470224
 10
627.9882277953716
 20
604.6753857871514
 10
585.5932573804407
 20
639.4633073454221
 10
570.1865470595317
 20
652.1055442119319
1001
REVIT
1002
{
1070
     3
1000
113087
1002
}
  0
LINE
  5
6532
330
1F
100
AcDbEntity
  8
_lines
100
AcDbLine
 10
553.1232383991978
 20
753.75629828269
 30
0.0
 11
573.5323802788103
 21
673.9730278536878
 31
0.0
1001
REVIT
1002
{
1070
     3
1000
113087
1002
}
  0
LINE
  5
6533
330
1F
100
AcDbEntity
  8
_lines
100
AcDbLine
 10
577.5635020644027
 20
658.2145956055662
 30
0.0
 11
578.5859500845604
 21
654.217649169848
 31
0.0
1001
REVIT
1002
{
1070
     3
1000
113087
1002
}
  0
LWPOLYLINE
  5
6534
330
1F
100
AcDbEntity
  8
_pline
100
AcDbPolyline
 90
        4
 70
   128
 43
0.0
 10
549.0921166136054
 20
769.5147305308125
 10
539.6506013429957
 20
806.4234340195568
 10
541.8632366500046
 20
810.412389398081
 10
551.7599911612656
 20
771.7240679488492
1001
REVIT
1002
{
1070
     3
1000
113087
1002
}
  0
LINE
  5
6535
330
1F
100
AcDbEntity
  8
_lines
100
AcDbLine
 10
555.791112946858
 20
755.9656357007267
 30
0.0
 11
576.2002548264704
 21
676.1823652717245
 31
0.0
1001
REVIT
1002
{
1070
     3
1000
113087
1002
}
  0
LWPOLYLINE
  5
6536
330
1F
100
AcDbEntity
  8
_pline
100
AcDbPolyline
 90
        3
 70
   128
 43
0.0
 10
459.1121808879238
 20
560.1219261731018
 10
580.2313765663371
 20
660.4239332023586
 10
582.6779226650783
 20
650.8599128155998
1001
REVIT
1002
{
1070
     3
1000
113087
1002
}
  0
LWPOLYLINE
  5
6537
330
1F
100
AcDbEntity
  8
_pline
100
AcDbPolyline
 90
        4
 70
   128
 43
0.0
 10
582.6779226650783
 20
650.8599128155998
 10
625.0728930800092
 20
616.0719912573292
 10
584.2582070649355
 20
775.6244678398112
 10
541.8632366500046
 20
810.4123893980819
1001
REVIT
1002
{
1070
     3
1000
113087
1002
}
  0
LWPOLYLINE
  5
6538
330
1F
100
AcDbEntity
  8
_pline
100
AcDbPolyline
 90
        3
 70
   128
 43
0.0
 10
581.3428647102287
 20
787.0211031736595
 10
558.5628620145822
 20
876.0725256274133
 10
545.5687134431705
 20
877.2551013599328
1001
REVIT
1002
{
1070
     3
1000
113087
1002
}
  0
LWPOLYLINE
  5
6539
330
1F
100
AcDbEntity
  8
_pline
100
AcDbPolyline
 90
        4
 70
   128
 43
0.0
 10
539.9948443518392
 20
877.7623698652457
 10
524.2685023594154
 20
879.1935979522056
 10
522.0558674234476
 20
875.2046411232283
 10
524.6518529484006
 20
865.0564332079363
1001
REVIT
1002
{
1070
     3
1000
113087
1002
}
  0
LINE
  5
653A
330
1F
100
AcDbEntity
  8
_lines
100
AcDbLine
 10
524.2685023594154
 20
879.1935979522056
 30
0.0
 11
527.3197274960608
 21
867.265770625973
 31
0.0
1001
REVIT
1002
{
1070
     3
1000
113087
1002
}
  0
LINE
  5
653B
330
1F
100
AcDbEntity
  8
_lines
100
AcDbLine
 10
531.3508492816532
 20
851.5073383778514
 30
0.0
 11
538.9478947639823
 21
821.8090228997513
 31
0.0
1001
REVIT
1002
{
1070
     3
1000
113087
1002
}
  0
LINE
  5
653C
330
1F
100
AcDbEntity
  8
_lines
100
AcDbLine
 10
528.682974733993
 20
849.2980009598147
 30
0.0
 11
534.8559215585542
 21
825.1667616968813
 31
0.0
1001
REVIT
1002
{
1070
     3
1000
113087
1002
}
  0
LWPOLYLINE
  5
653D
330
1F
100
AcDbEntity
  8
_pline
100
AcDbPolyline
 90
        7
 70
   128
 43
0.0
 10
817.9467287286484
 20
543.6602683931147
 10
815.3525045207703
 20
541.5119227678448
 10
815.3525045207703
 20
503.6347012613929
 10
817.9467287286484
 20
505.783046886662
 10
817.9467287286484
 20
543.6602683931147
 10
639.2045498849898
 20
606.580308491683
 10
522.6686599424452
 20
510.073858284
1001
REVIT
1002
{
1070
     3
1000
113087
1002
}
  0
LWPOLYLINE
  5
653E
330
1F
100
AcDbEntity
  8
_pline
100
AcDbPolyline
 90
        4
 70
   129
 43
0.0
 10
522.6686599424452
 20
472.1966367775473
 10
522.6686599424452
 20
510.073858284
 10
526.6476683625428
 20
508.6731851414621
 10
526.6476683625428
 20
470.7959636350103
1001
REVIT
1002
{
1070
     3
1000
113087
1002
}
  0
LINE
  5
653F
330
1F
100
AcDbEntity
  8
_lines
100
AcDbLine
 10
526.6476683625428
 20
470.7959636350103
 30
0.0
 11
640.5893340972093
 21
565.1540682174233
 31
0.0
1001
REVIT
1002
{
1070
     3
1000
113087
1002
}
  0
LINE
  5
6540
330
1F
100
AcDbEntity
  8
_lines
100
AcDbLine
 10
526.6476683625428
 20
508.6731851414621
 30
0.0
 11
640.5893340972093
 21
603.0312897238742
 31
0.0
1001
REVIT
1002
{
1070
     3
1000
113087
1002
}
  0
LWPOLYLINE
  5
6541
330
1F
100
AcDbEntity
  8
_pline
100
AcDbPolyline
 90
        4
 70
   129
 43
0.0
 10
824.7353788728492
 20
552.0565830612983
 10
818.5481024259666
 20
542.4861752058983
 10
816.2399619603043
 20
548.203284118919
 10
822.4272384071869
 20
557.7736919743189
1001
REVIT
1002
{
1070
     3
1000
113087
1002
}
  0
LWPOLYLINE
  5
6542
330
1F
100
AcDbEntity
  8
_pline
100
AcDbPolyline
 90
        4
 70
   128
 43
0.0
 10
822.4272384071869
 20
557.7736919743189
 10
670.0149718862981
 20
611.4251914863395
 10
673.3177105287564
 20
598.5141500221285
 10
816.2399619603043
 20
548.203284118919
1001
REVIT
1002
{
1070
     3
1000
113087
1002
}
  0
LINE
  5
6543
330
1F
100
AcDbEntity
  8
_lines
100
AcDbLine
 10
673.3177105287564
 20
598.5141500221285
 30
0.0
 11
675.1729385806125
 21
593.9188736045722
 31
0.0
1001
REVIT
1002
{
1070
     3
1000
113087
1002
}
  0
LINE
  5
6544
330
1F
100
AcDbEntity
  8
_lines
100
AcDbLine
 10
818.5481024259666
 20
542.4861752058983
 30
0.0
 11
817.9467287286484
 21
542.6978681448251
 31
0.0
1001
REVIT
1002
{
1070
     3
1000
113087
1002
}
  0
LWPOLYLINE
  5
6545
330
1F
100
AcDbEntity
  8
_pline
100
AcDbPolyline
 90
        4
 70
   129
 43
0.0
 10
512.256261506393
 20
516.513639321705
 10
521.7462759025498
 20
508.7264452410978
 10
525.2864904760413
 20
515.1087754203514
 10
515.7964760798882
 20
522.8959695009586
1001
REVIT
1002
{
1070
     3
1000
113087
1002
}
  0
LWPOLYLINE
  5
6546
330
1F
100
AcDbEntity
  8
_pline
100
AcDbPolyline
 90
        4
 70
   128
 43
0.0
 10
515.7964760798882
 20
522.8959695009586
 10
615.1658539854093
 20
605.1863774236659
 10
618.4685914827483
 20
592.2753358292035
 10
525.2864904760413
 20
515.1087754203514
1001
REVIT
1002
{
1070
     3
1000
113087
1002
}
  0
LINE
  5
6547
330
1F
100
AcDbEntity
  8
_lines
100
AcDbLine
 10
618.4685914827483
 20
592.2753358292035
 30
0.0
 11
615.5270978648609
 21
586.9723847391612
 31
0.0
1001
REVIT
1002
{
1070
     3
1000
113087
1002
}
  0
LINE
  5
6548
330
1F
100
AcDbEntity
  8
_lines
100
AcDbLine
 10
521.7462759025498
 20
508.7264452410978
 30
0.0
 11
522.6686599424452
 21
509.4902958407944
 31
0.0
1001
REVIT
1002
{
1070
     3
1000
113087
1002
}
  0
LWPOLYLINE
  5
6549
330
1F
100
AcDbEntity
  8
_pline
100
AcDbPolyline
 90
        4
 70
   129
 43
0.0
 10
865.5714034222606
 20
615.2212749069419
 10
859.3841269753816
 20
605.650867051541
 10
857.0759865097193
 20
611.3679759645617
 10
863.2632629565983
 20
620.9383838199625
1001
REVIT
1002
{
1070
     3
1000
113087
1002
}
  0
LWPOLYLINE
  5
654A
330
1F
100
AcDbEntity
  8
_pline
100
AcDbPolyline
 90
        4
 70
   128
 43
0.0
 10
863.2632629565983
 20
620.9383838199625
 10
648.2168968460887
 20
696.63806515013
 10
651.519635488547
 20
683.7270236859191
 10
857.0759865097193
 20
611.3679759645617
1001
REVIT
1002
{
1070
     3
1000
113087
1002
}
  0
LWPOLYLINE
  5
654B
330
1F
100
AcDbEntity
  8
_pline
100
AcDbPolyline
 90
        3
 70
   128
 43
0.0
 10
651.519635488547
 20
683.7270236859191
 10
653.8277752897798
 20
678.0099150067887
 10
671.0295735231616
 20
671.9546132217589
1001
REVIT
1002
{
1070
     3
1000
113087
1002
}
  0
LWPOLYLINE
  5
654C
330
1F
100
AcDbEntity
  8
_pline
100
AcDbPolyline
 90
        4
 70
   129
 43
0.0
 10
449.6221664917671
 20
567.909120253708
 10
459.1121808879238
 20
560.1219261731018
 10
462.6523954614154
 20
566.5042563523554
 10
453.1623810652623
 20
574.2914504329616
1001
REVIT
1002
{
1070
     3
1000
113087
1002
}
  0
LWPOLYLINE
  5
654D
330
1F
100
AcDbEntity
  8
_pline
100
AcDbPolyline
 90
        4
 70
   128
 43
0.0
 10
453.1623810652623
 20
574.2914504329616
 10
593.3677865029954
 20
690.3992519471182
 10
596.6705240003307
 20
677.4882103526558
 10
462.6523954614154
 20
566.5042563523554
1001
REVIT
1002
{
1070
     3
1000
113087
1002
}
  0
LWPOLYLINE
  5
654E
330
1F
100
AcDbEntity
  8
_pline
100
AcDbPolyline
 90
        3
 70
   128
 43
0.0
 10
596.6705240003307
 20
677.4882103526558
 10
593.1303098600315
 20
671.1058805321405
 10
581.9151233966682
 20
661.8182882330644
1001
REVIT
1002
{
1070
     3
1000
113087
1002
}
  0
LWPOLYLINE
  5
654F
330
1F
100
AcDbEntity
  8
_pline
100
AcDbPolyline
 90
        4
 70
   129
 43
0.0
 10
911.3572491291802
 20
686.0422930369047
 10
905.1699726823012
 20
676.4718851815047
 10
902.861832216639
 20
682.1889940945254
 10
909.0491086635179
 20
691.7594019499253
1001
REVIT
1002
{
1070
     3
1000
113087
1002
}
  0
LWPOLYLINE
  5
6550
330
1F
100
AcDbEntity
  8
_pline
100
AcDbPolyline
 90
        4
 70
   128
 43
0.0
 10
909.0491086635179
 20
691.7594019499253
 10
623.7766308919149
 20
792.1797719852899
 10
627.0793695343732
 20
779.268730521079
 10
902.861832216639
 20
682.1889940945254
1001
REVIT
1002
{
1070
     3
1000
113087
1002
}
  0
LWPOLYLINE
  5
6551
330
1F
100
AcDbEntity
  8
_pline
100
AcDbPolyline
 90
        3
 70
   128
 43
0.0
 10
627.0793695343732
 20
779.268730521079
 10
629.3875093356023
 20
773.5516218419476
 10
905.1699726823012
 20
676.4718851815047
1001
REVIT
1002
{
1070
     3
1000
113087
1002
}
  0
LWPOLYLINE
  5
6552
330
1F
100
AcDbEntity
  8
_pline
100
AcDbPolyline
 90
        4
 70
   129
 43
0.0
 10
379.3960599602201
 20
625.5343564501969
 10
388.8860743563732
 20
617.7471623695907
 10
392.4262889298684
 20
624.1294925488443
 10
382.9362745337116
 20
631.9166866294505
1001
REVIT
1002
{
1070
     3
1000
113087
1002
}
  0
LWPOLYLINE
  5
6553
330
1F
100
AcDbEntity
  8
_pline
100
AcDbPolyline
 90
        4
 70
   128
 43
0.0
 10
382.9362745337116
 20
631.9166866294505
 10
568.9275290227147
 20
785.9409597461405
 10
572.23026652005
 20
773.0299181516781
 10
392.4262889298684
 20
624.1294925488443
1001
REVIT
1002
{
1070
     3
1000
113087
1002
}
  0
LWPOLYLINE
  5
6554
330
1F
100
AcDbEntity
  8
_pline
100
AcDbPolyline
 90
        3
 70
   128
 43
0.0
 10
572.23026652005
 20
773.0299181516781
 10
568.6900523797472
 20
766.6475883311629
 10
388.8860743563732
 20
617.7471623695907
1001
REVIT
1002
{
1070
     3
1000
113087
1002
}
  0
LWPOLYLINE
  5
6555
330
1F
100
AcDbEntity
  8
_pline
100
AcDbPolyline
 90
        3
 70
   128
 43
0.0
 10
468.6615319396719
 20
702.9080377871738
 10
413.5443756689333
 20
748.1353657062178
 10
413.5443756689333
 20
753.9486842546127
1001
REVIT
1002
{
1070
     3
1000
113087
1002
}
  0
LWPOLYLINE
  5
6556
330
1F
100
AcDbEntity
  8
_pline
100
AcDbPolyline
 90
        4
 70
   128
 43
0.0
 10
413.5443756689333
 20
773.0453949856488
 10
413.5443756689333
 20
780.6409645923701
 10
419.0058994398701
 20
785.163796761222
 10
423.6129226634534
 20
781.3834248378204
1001
REVIT
1002
{
1070
     3
1000
113087
1002
}
  0
LINE
  5
6557
330
1F
100
AcDbEntity
  8
_lines
100
AcDbLine
 10
592.0255775507744
 20
601.6795542843835
 30
0.0
 11
550.47057357514
 21
635.7782255266262
 31
0.0
1001
REVIT
1002
{
1070
     3
1000
113087
1002
}
  0
LINE
  5
6558
330
1F
100
AcDbEntity
  8
_lines
100
AcDbLine
 10
538.8876384712225
 20
645.2828015906849
 30
0.0
 11
480.2444670435893
 21
693.4034617231151
 31
0.0
1001
REVIT
1002
{
1070
     3
1000
113087
1002
}
  0
LINE
  5
6559
330
1F
100
AcDbEntity
  8
_lines
100
AcDbLine
 10
637.9282113864451
 20
605.5233388506682
 30
0.0
 11
575.6480708304684
 21
656.6283763807847
 31
0.0
1001
REVIT
1002
{
1070
     3
1000
113087
1002
}
  0
LINE
  5
655A
330
1F
100
AcDbEntity
  8
_lines
100
AcDbLine
 10
564.065135726551
 20
666.1329524448435
 30
0.0
 11
505.4219642989178
 21
714.2536125772737
 31
0.0
1001
REVIT
1002
{
1070
     3
1000
113087
1002
}
  0
LINE
  5
655B
330
1F
100
AcDbEntity
  8
_lines
100
AcDbLine
 10
493.8390291950041
 20
723.7581886413324
 30
0.0
 11
435.1958577673709
 21
771.8788487737626
 31
0.0
1001
REVIT
1002
{
1070
     3
1000
113087
1002
}
  0
LINE
  5
655C
330
1F
100
AcDbEntity
  8
_lines
100
AcDbLine
 10
632.4666876155084
 20
601.0005066818154
 30
0.0
 11
627.9882284713008
 21
604.6753831448237
 31
0.0
1001
REVIT
1002
{
1070
     3
1000
113087
1002
}
  0
LINE
  5
655D
330
1F
100
AcDbEntity
  8
_lines
100
AcDbLine
 10
558.6036119556143
 20
661.6101202759907
 30
0.0
 11
499.9604405279811
 21
709.7307804084209
 31
0.0
1001
REVIT
1002
{
1070
     3
1000
113087
1002
}
  0
LINE
  5
655E
330
1F
100
AcDbEntity
  8
_lines
100
AcDbLine
 10
488.3775054240673
 20
719.2353564724796
 30
0.0
 11
429.7343339964341
 21
767.3560166049098
 31
0.0
1001
REVIT
1002
{
1070
     3
1000
113087
1002
}
  0
LINE
  5
655F
330
1F
100
AcDbEntity
  8
_lines
100
AcDbLine
 10
418.1513988925167
 20
776.8605926689685
 30
0.0
 11
413.5443756689333
 21
780.6409645923701
 31
0.0
1001
REVIT
1002
{
1070
     3
1000
113087
1002
}
  0
LWPOLYLINE
  5
6560
330
1F
100
AcDbEntity
  8
_pline
100
AcDbPolyline
 90
        3
 70
   128
 43
0.0
 10
386.7386753756205
 20
635.0655552543864
 10
331.6215191048818
 20
680.2928831734295
 10
331.6215191048818
 20
686.1062017218252
1001
REVIT
1002
{
1070
     3
1000
113087
1002
}
  0
LWPOLYLINE
  5
6561
330
1F
100
AcDbEntity
  8
_pline
100
AcDbPolyline
 90
        4
 70
   128
 43
0.0
 10
331.6215191048818
 20
705.2029124528605
 10
331.6215191048818
 20
712.7984820595817
 10
337.0830428758186
 20
717.3213142284345
 10
341.6900660993983
 20
713.5409423050329
1001
REVIT
1002
{
1070
     3
1000
113087
1002
}
  0
LINE
  5
6562
330
1F
100
AcDbEntity
  8
_lines
100
AcDbLine
 10
519.5988769217934
 20
526.0448381258935
 30
0.0
 11
468.5477170110848
 21
567.9357429938387
 31
0.0
1001
REVIT
1002
{
1070
     3
1000
113087
1002
}
  0
LINE
  5
6563
330
1F
100
AcDbEntity
  8
_lines
100
AcDbLine
 10
456.9647819071674
 20
577.4403190578975
 30
0.0
 11
398.3216104795342
 21
625.5609791903277
 31
0.0
1001
REVIT
1002
{
1070
     3
1000
113087
1002
}
  0
LINE
  5
6564
330
1F
100
AcDbEntity
  8
_lines
100
AcDbLine
 10
544.7763741771219
 20
546.8949889800512
 30
0.0
 11
493.7252142664133
 21
588.7858938479964
 31
0.0
1001
REVIT
1002
{
1070
     3
1000
113087
1002
}
  0
LINE
  5
6565
330
1F
100
AcDbEntity
  8
_lines
100
AcDbLine
 10
482.1422791624996
 20
598.2904699120551
 30
0.0
 11
423.4991077348664
 21
646.4111300444853
 31
0.0
1001
REVIT
1002
{
1070
     3
1000
113087
1002
}
  0
LINE
  5
6566
330
1F
100
AcDbEntity
  8
_lines
100
AcDbLine
 10
411.9161726309489
 20
655.915706108544
 30
0.0
 11
353.2730012033157
 21
704.0363662409742
 31
0.0
1001
REVIT
1002
{
1070
     3
1000
113087
1002
}
  0
LINE
  5
6567
330
1F
100
AcDbEntity
  8
_lines
100
AcDbLine
 10
539.3148504061851
 20
542.3721568111993
 30
0.0
 11
488.2636904954766
 21
584.2630616791445
 31
0.0
1001
REVIT
1002
{
1070
     3
1000
113087
1002
}
  0
LINE
  5
6568
330
1F
100
AcDbEntity
  8
_lines
100
AcDbLine
 10
476.6807553915628
 20
593.7676377432023
 30
0.0
 11
418.0375839639296
 21
641.8882978756325
 31
0.0
1001
REVIT
1002
{
1070
     3
1000
113087
1002
}
  0
LINE
  5
6569
330
1F
100
AcDbEntity
  8
_lines
100
AcDbLine
 10
406.4546488600122
 20
651.3928739396912
 30
0.0
 11
347.811477432379
 21
699.5135340721214
 31
0.0
1001
REVIT
1002
{
1070
     3
1000
113087
1002
}
  0
LINE
  5
656A
330
1F
100
AcDbEntity
  8
_lines
100
AcDbLine
 10
336.2285423284616
 20
709.0181101361801
 30
0.0
 11
331.6215191048818
 21
712.7984820595817
 31
0.0
1001
REVIT
1002
{
1070
     3
1000
113087
1002
}
  0
LWPOLYLINE
  5
656B
330
1F
100
AcDbEntity
  8
_pline
100
AcDbPolyline
 90
        4
 70
   128
 43
0.0
 10
495.4672322329884
 20
840.8878775184372
 10
495.4672322329884
 20
848.4834471251576
 10
500.9287560039252
 20
853.0062792940104
 10
505.5357792275086
 20
849.2259073706088
1001
REVIT
1002
{
1070
     3
1000
113087
1002
}
  0
LWPOLYLINE
  5
656C
330
1F
100
AcDbEntity
  8
_pline
100
AcDbPolyline
 90
        3
 70
   128
 43
0.0
 10
548.2955490247682
 20
772.6286668114168
 10
495.4672322329884
 20
815.9778482390062
 10
495.4672322329884
 20
821.791166787401
1001
REVIT
1002
{
1070
     3
1000
113087
1002
}
  0
LWPOLYLINE
  5
656D
330
1F
100
AcDbEntity
  8
_pline
100
AcDbPolyline
 90
        4
 70
   128
 43
0.0
 10
613.5611745016163
 20
754.989725900538
 10
598.3898638699161
 20
731.5229175733344
 10
598.3898638699161
 20
764.0285164594867
 10
511.6571905604892
 20
835.1984991376981
1001
REVIT
1002
{
1070
     3
1000
113087
1002
}
  0
LINE
  5
656E
330
1F
100
AcDbEntity
  8
_lines
100
AcDbLine
 10
500.0742554565718
 20
844.703075201756
 30
0.0
 11
495.4672322329884
 21
848.4834471251576
 31
0.0
1001
REVIT
1002
{
1070
     3
1000
113087
1002
}
  0
LWPOLYLINE
  5
656F
330
1F
100
AcDbEntity
  8
_pline
100
AcDbPolyline
 90
        4
 70
   128
 43
0.0
 10
791.1459875868954
 20
820.2014943016726
 10
791.1459875868954
 20
823.5912678366045
 10
782.7691291005926
 20
826.5400529262112
 10
780.9839141093712
 20
823.7787029651614
1001
REVIT
1002
{
1070
     3
1000
113087
1002
}
  0
LWPOLYLINE
  5
6570
330
1F
100
AcDbEntity
  8
_pline
100
AcDbPolyline
 90
        3
 70
   128
 43
0.0
 10
760.6939119278127
 20
743.9827494990592
 10
791.1459875868954
 20
791.0856689504523
 10
791.1459875868954
 20
803.548461049873
1001
REVIT
1002
{
1070
     3
1000
113087
1002
}
  0
LINE
  5
6571
330
1F
100
AcDbEntity
  8
_lines
100
AcDbLine
 10
685.310466582107
 20
627.3805055719455
 30
0.0
 11
706.1377916570841
 21
659.5959718139699
 31
0.0
1001
REVIT
1002
{
1070
     3
1000
113087
1002
}
  0
LINE
  5
6572
330
1F
100
AcDbEntity
  8
_lines
100
AcDbLine
 10
714.908066220893
 20
673.1617313690955
 30
0.0
 11
751.9236373640038
 21
730.4169899439336
 31
0.0
1001
REVIT
1002
{
1070
     3
1000
113087
1002
}
  0
LINE
  5
6573
330
1F
100
AcDbEntity
  8
_lines
100
AcDbLine
 10
640.3127690494498
 20
606.1901980280151
 30
0.0
 11
680.641948131723
 21
668.5709071501093
 31
0.0
1001
REVIT
1002
{
1070
     3
1000
113087
1002
}
  0
LINE
  5
6574
330
1F
100
AcDbEntity
  8
_lines
100
AcDbLine
 10
689.4122226955319
 20
682.1366667052349
 30
0.0
 11
726.4277938386426
 21
739.391925280073
 31
0.0
1001
REVIT
1002
{
1070
     3
1000
113087
1002
}
  0
LINE
  5
6575
330
1F
100
AcDbEntity
  8
_lines
100
AcDbLine
 10
735.1980684024516
 20
752.9576848351986
 30
0.0
 11
772.2136395455623
 21
810.2129434100358
 31
0.0
1001
REVIT
1002
{
1070
     3
1000
113087
1002
}
  0
LINE
  5
6576
330
1F
100
AcDbEntity
  8
_lines
100
AcDbLine
 10
648.689627535749
 20
603.2414129384084
 30
0.0
 11
651.3334081300513
 21
607.3307822731855
 31
0.0
1001
REVIT
1002
{
1070
     3
1000
113087
1002
}
  0
LINE
  5
6577
330
1F
100
AcDbEntity
  8
_lines
100
AcDbLine
 10
697.7890811818311
 20
679.1878816156283
 30
0.0
 11
734.8046523249418
 21
736.4431401904664
 31
0.0
1001
REVIT
1002
{
1070
     3
1000
113087
1002
}
  0
LINE
  5
6578
330
1F
100
AcDbEntity
  8
_lines
100
AcDbLine
 10
743.5749268887507
 20
750.008899745592
 30
0.0
 11
780.5904980318614
 21
807.2641583204291
 31
0.0
1001
REVIT
1002
{
1070
     3
1000
113087
1002
}
  0
LINE
  5
6579
330
1F
100
AcDbEntity
  8
_lines
100
AcDbLine
 10
789.3607725956704
 20
820.8299178755548
 30
0.0
 11
791.1459875868954
 21
823.5912678366045
 31
0.0
1001
REVIT
1002
{
1070
     3
1000
113087
1002
}
  0
LWPOLYLINE
  5
657A
330
1F
100
AcDbEntity
  8
_pline
100
AcDbPolyline
 90
        4
 70
   128
 43
0.0
 10
916.7988648813866
 20
775.9697179575711
 10
916.7988648813866
 20
779.3594914925021
 10
908.4220063950875
 20
782.3082765821088
 10
906.6367914038624
 20
779.5469266210599
1001
REVIT
1002
{
1070
     3
1000
113087
1002
}
  0
LWPOLYLINE
  5
657B
330
1F
100
AcDbEntity
  8
_pline
100
AcDbPolyline
 90
        3
 70
   128
 43
0.0
 10
886.3467892223039
 20
699.7509731549568
 10
916.7988648813866
 20
746.8538926063508
 10
916.7988648813866
 20
759.3166847057706
1001
REVIT
1002
{
1070
     3
1000
113087
1002
}
  0
LINE
  5
657C
330
1F
100
AcDbEntity
  8
_lines
100
AcDbLine
 10
799.7249189659728
 20
565.7652631793513
 30
0.0
 11
831.7906689515789
 21
615.3641954698684
 31
0.0
1001
REVIT
1002
{
1070
     3
1000
113087
1002
}
  0
LINE
  5
657D
330
1F
100
AcDbEntity
  8
_lines
100
AcDbLine
 10
840.5609435153879
 20
628.929955024994
 30
0.0
 11
877.5765146584986
 21
686.1852135998312
 31
0.0
1001
REVIT
1002
{
1070
     3
1000
113087
1002
}
  0
LINE
  5
657E
330
1F
100
AcDbEntity
  8
_lines
100
AcDbLine
 10
774.2290754406117
 20
574.7401985154908
 30
0.0
 11
806.2948254262178
 21
624.3391308060078
 31
0.0
1001
REVIT
1002
{
1070
     3
1000
113087
1002
}
  0
LINE
  5
657F
330
1F
100
AcDbEntity
  8
_lines
100
AcDbLine
 10
815.0650999900267
 20
637.9048903611334
 30
0.0
 11
852.0806711331375
 21
695.1601489359706
 31
0.0
1001
REVIT
1002
{
1070
     3
1000
113087
1002
}
  0
LINE
  5
6580
330
1F
100
AcDbEntity
  8
_lines
100
AcDbLine
 10
860.8509456969464
 20
708.7259084910962
 30
0.0
 11
897.8665168400571
 21
765.9811670659343
 31
0.0
1001
REVIT
1002
{
1070
     3
1000
113087
1002
}
  0
LINE
  5
6581
330
1F
100
AcDbEntity
  8
_lines
100
AcDbLine
 10
782.6059339269109
 20
571.7914134258841
 30
0.0
 11
814.6716839125206
 21
621.3903457164012
 31
0.0
1001
REVIT
1002
{
1070
     3
1000
113087
1002
}
  0
LINE
  5
6582
330
1F
100
AcDbEntity
  8
_lines
100
AcDbLine
 10
823.4419584763259
 20
634.9561052715268
 30
0.0
 11
860.4575296194366
 21
692.211363846364
 31
0.0
1001
REVIT
1002
{
1070
     3
1000
113087
1002
}
  0
LINE
  5
6583
330
1F
100
AcDbEntity
  8
_lines
100
AcDbLine
 10
869.2278041832456
 20
705.7771234014896
 30
0.0
 11
906.2433753263563
 21
763.0323819763277
 31
0.0
1001
REVIT
1002
{
1070
     3
1000
113087
1002
}
  0
LINE
  5
6584
330
1F
100
AcDbEntity
  8
_lines
100
AcDbLine
 10
915.0136498901652
 20
776.5981415314524
 30
0.0
 11
916.7988648813866
 21
779.3594914925021
 31
0.0
1001
REVIT
1002
{
1070
     3
1000
113087
1002
}
  0
LWPOLYLINE
  5
6585
330
1F
100
AcDbEntity
  8
_pline
100
AcDbPolyline
 90
        4
 70
   128
 43
0.0
 10
665.4931102924006
 20
864.433270645775
 10
665.4931102924006
 20
867.823044180706
 10
657.1162518061014
 20
870.7718292703127
 10
655.3310368148764
 20
868.0104793092638
1001
REVIT
1002
{
1070
     3
1000
113087
1002
}
  0
LWPOLYLINE
  5
6586
330
1F
100
AcDbEntity
  8
_pline
100
AcDbPolyline
 90
        3
 70
   128
 43
0.0
 10
641.5804414385989
 20
798.3296048761173
 10
665.4931102924006
 20
835.3174452945547
 10
665.4931102924006
 20
847.7802373939754
1001
REVIT
1002
{
1070
     3
1000
113087
1002
}
  0
LWPOLYLINE
  5
6587
330
1F
100
AcDbEntity
  8
_pline
100
AcDbPolyline
 90
        4
 70
   128
 43
0.0
 10
654.9376207373666
 20
851.4959346645315
 10
598.3898638699161
 20
764.0285164594867
 10
595.47452915455
 20
775.4251235348362
 10
646.5607622510674
 20
854.4447197541382
1001
REVIT
1002
{
1070
     3
1000
113087
1002
}
  0
LINE
  5
6588
330
1F
100
AcDbEntity
  8
_lines
100
AcDbLine
 10
663.7078953011755
 20
865.0616942196572
 30
0.0
 11
665.4931102924006
 21
867.823044180706
 31
0.0
1001
REVIT
1002
{
1070
     3
1000
113087
1002
}
  0
LWPOLYLINE
  5
6589
330
1F
100
AcDbEntity
  8
_pline
100
AcDbPolyline
 90
        4
 70
   129
 43
0.0
 10
957.1430948360999
 20
756.8633111668684
 10
950.9558183892173
 20
747.2929033114675
 10
948.647677923555
 20
753.0100122244882
 10
954.8349543704376
 20
762.5804200798881
1001
REVIT
1002
{
1070
     3
1000
113087
1002
}
  0
LWPOLYLINE
  5
658A
330
1F
100
AcDbEntity
  8
_pline
100
AcDbPolyline
 90
        4
 70
   128
 43
0.0
 10
954.8349543704376
 20
762.5804200798881
 10
599.3363649377411
 20
887.7214788204489
 10
602.6391035801958
 20
874.8104373562379
 10
948.647677923555
 20
753.0100122244882
1001
REVIT
1002
{
1070
     3
1000
113087
1002
}
  0
LWPOLYLINE
  5
658B
330
1F
100
AcDbEntity
  8
_pline
100
AcDbPolyline
 90
        3
 70
   128
 43
0.0
 10
602.6391035801958
 20
874.8104373562379
 10
604.9472433814285
 20
869.0933286771075
 10
950.9558183892173
 20
747.2929033114675
1001
REVIT
1002
{
1070
     3
1000
113087
1002
}
  0
LWPOLYLINE
  5
658C
330
1F
100
AcDbEntity
  8
_pline
100
AcDbPolyline
 90
        4
 70
   129
 43
0.0
 10
309.1699534286695
 20
683.1595926466858
 10
318.6599678248263
 20
675.3723985660796
 10
322.2001823983214
 20
681.7547287453332
 10
312.7101680021647
 20
689.5419228259394
1001
REVIT
1002
{
1070
     3
1000
113087
1002
}
  0
LWPOLYLINE
  5
658D
330
1F
100
AcDbEntity
  8
_pline
100
AcDbPolyline
 90
        4
 70
   128
 43
0.0
 10
312.7101680021647
 20
689.5419228259394
 10
544.4872715424303
 20
881.4826675451628
 10
547.7900090397657
 20
868.5716259507004
 10
322.2001823983214
 20
681.7547287453332
1001
REVIT
1002
{
1070
     3
1000
113087
1002
}
  0
LWPOLYLINE
  5
658E
330
1F
100
AcDbEntity
  8
_pline
100
AcDbPolyline
 90
        3
 70
   128
 43
0.0
 10
547.7900090397657
 20
868.5716259507004
 10
544.2497948994665
 20
862.1892961301861
 10
318.6599678248263
 20
675.3723985660796
1001
REVIT
1002
{
1070
     3
1000
113087
1002
}
  0
LINE
  5
658F
330
1F
100
AcDbEntity
  8
_lines
  6
Dash
100
AcDbLine
 10
817.0766077351386
 20
341.4502720845827
 30
0.0
 11
640.5893340972093
 21
280.6808303768345
 31
0.0
1001
REVIT
1002
{
1070
     3
1000
191813
1002
}
  0
LINE
  5
6590
102
{ACAD_REACTORS
330
65D8
102
}
330
1F
100
AcDbEntity
  8
_lines
100
AcDbLine
 10
640.5893340972093
 20
278.5655890144595
 30
0.0
 11
577.8907964276318
 21
300.1544268469785
 31
0.0
  0
LINE
  5
6591
330
1F
100
AcDbEntity
  8
_lines
100
AcDbLine
 10
436.0630100877338
 20
348.9896500155515
 30
0.0
 11
294.3657739260111
 21
397.7799211528587
 31
0.0
  0
LINE
  5
6592
330
1F
100
AcDbEntity
  8
_lines
100
AcDbLine
 10
986.8128942684075
 20
397.7799211528596
 30
0.0
 11
845.1164982525029
 21
348.989939300957
 31
0.0
1001
REVIT
1002
{
1070
     3
1000
156458
1002
}
  0
LINE
  5
6593
330
1F
100
AcDbEntity
  8
_lines
100
AcDbLine
 10
640.5893340972057
 20
130.4986936483261
 30
0.0
 11
640.5893340972093
 21
278.5655890144604
 31
0.0
1001
REVIT
1002
{
1070
     3
1000
156458
1002
}
  0
LINE
  5
6594
330
1F
100
AcDbEntity
  8
_lines
100
AcDbLine
 10
1032.392435892407
 20
265.4073205689543
 30
0.0
 11
640.5893340972057
 21
130.4986936483261
 31
0.0
  0
LINE
  5
6595
330
1F
100
AcDbEntity
  8
_lines
100
AcDbLine
 10
640.5893340972093
 20
278.5655890144604
 30
0.0
 11
703.2884144575714
 21
300.1546137104011
 31
0.0
  0
LINE
  5
6596
330
1F
100
AcDbEntity
  8
_lines
100
AcDbLine
 10
843.8762999551823
 20
346.4486297129985
 30
0.0
 11
712.6675191612799
 21
279.0597890746664
 31
0.0
1001
REVIT
1002
{
1070
     3
1000
156446
1002
}
  0
LINE
  5
6597
330
1F
100
AcDbEntity
  8
_lines
100
AcDbLine
 10
850.713231198783
 20
326.5927396254134
 30
0.0
 11
705.8305879176792
 21
298.9156791622523
 31
0.0
1001
REVIT
1002
{
1070
     3
1000
156446
1002
}
  0
LINE
  5
6598
330
1F
100
AcDbEntity
  8
_lines
100
AcDbLine
 10
437.3029109300173
 20
346.4484428495758
 30
0.0
 11
568.5116917239197
 21
279.0596022112446
 31
0.0
1001
REVIT
1002
{
1070
     3
1000
156446
1002
}
  0
LINE
  5
6599
330
1F
100
AcDbEntity
  8
_lines
100
AcDbLine
 10
430.4659796864166
 20
326.5925527619917
 30
0.0
 11
575.3486229675204
 21
298.9154922988297
 31
0.0
1001
REVIT
1002
{
1070
     3
1000
156446
1002
}
  0
LINE
  5
659A
330
1F
100
AcDbEntity
  8
_lines
  6
Dash
100
AcDbLine
 10
513.9201626993586
 20
326.4117652040064
 30
0.0
 11
295.6680465438426
 21
401.5619954552564
 31
0.0
  0
LINE
  5
659B
330
1F
100
AcDbEntity
  8
_lines
100
AcDbLine
 10
512.6447870234865
 20
328.850912266527
 30
0.0
 11
525.6675132017722
 21
366.6716552904996
 31
0.0
  0
LINE
  5
659C
330
1F
100
AcDbEntity
  8
_lines
  6
Dash
100
AcDbLine
 10
513.9201626993586
 20
326.4117652040064
 30
0.0
 11
524.9534605573012
 21
358.4547888596786
 31
0.0
  0
LINE
  5
659D
102
{ACAD_REACTORS
330
65DF
102
}
330
1F
100
AcDbEntity
  8
_lines
100
AcDbLine
 10
525.6675132017722
 20
366.6716552904996
 30
0.0
 11
309.3064341974518
 21
441.1707492328356
 31
0.0
  0
LINE
  5
659E
330
1F
100
AcDbEntity
  8
_lines
  6
Dash
100
AcDbLine
 10
767.25850549506
 20
326.4117652040064
 30
0.0
 11
985.5106216505797
 21
401.5619954552554
 31
0.0
  0
LINE
  5
659F
330
1F
100
AcDbEntity
  8
_lines
100
AcDbLine
 10
768.5338811709357
 20
328.850912266527
 30
0.0
 11
755.5111549926464
 21
366.6716552904996
 31
0.0
  0
LINE
  5
65A0
330
1F
100
AcDbEntity
  8
_lines
  6
Dash
100
AcDbLine
 10
767.25850549506
 20
326.4117652040064
 30
0.0
 11
756.225207637121
 21
358.4547888596777
 31
0.0
  0
LINE
  5
65A1
330
1F
100
AcDbEntity
  8
_lines
100
AcDbLine
 10
755.5111549926464
 20
366.6716552904996
 30
0.0
 11
971.8722339969668
 21
441.1707492328347
 31
0.0
  0
DIMENSION
  5
65A2
330
1F
100
AcDbEntity
  8
0
 62
     1
100
AcDbDimension
280
     0
  2
*D467
 10
621.6480025430876
 20
232.5545660390296
 30
0.0
 11
564.1809323404171
 21
257.6301685705983
 31
0.0
 70
    32
 71
     5
 42
124.9999999999981
 73
     0
 74
     0
 75
     0
  3
DIM150
100
AcDbAlignedDimension
 13
521.8536327644201
 23
326.6748576416691
 33
0.0
 14
640.0434547143327
 24
285.9788383345245
 34
0.0
 50
-19.00000000000016
100
AcDbRotatedDimension
1001
REVIT
1002
{
1070
     1
1000
588717
1002
}
1002
{
1070
     5
1000
91566
1002
}
1002
{
1070
     2
1000
-2000260
1002
}
1001
ACAD
1000
DSTYLE
1002
{
1070
   347
1005
51D
1070
   346
1005
51D
1070
   345
1005
0
1070
   340
1005
521
1070
   341
1005
522
1070
   140
1040
8.0
1002
}
  0
DIMENSION
  5
65A3
330
1F
100
AcDbEntity
  8
0
 62
     1
100
AcDbDimension
280
     0
  2
*D468
 10
659.5882915361727
 20
232.3872083174442
 30
0.0
 11
717.0553617388433
 21
257.4628108490129
 31
0.0
 70
    32
 71
     5
 42
124.9999999999981
 73
     0
 74
     0
 75
     0
  3
DIM150
100
AcDbAlignedDimension
 13
759.3826613148399
 23
326.5074999200848
 33
0.0
 14
641.1928393649273
 24
285.8114806129403
 34
0.0
 50
19.00000000000012
100
AcDbRotatedDimension
1001
REVIT
1002
{
1070
     1
1000
588724
1002
}
1002
{
1070
     5
1000
91566
1002
}
1002
{
1070
     2
1000
-2000260
1002
}
1001
ACAD
1000
DSTYLE
1002
{
1070
   347
1005
51D
1070
   346
1005
51D
1070
   345
1005
0
1070
   340
1005
521
1070
   341
1005
522
1070
   140
1040
8.0
1002
}
  0
LINE
  5
65A4
330
1F
100
AcDbEntity
  8
_lines
100
AcDbLine
 10
277.7445975471842
 20
349.5085199136898
 30
0.0
 11
268.5902759811529
 21
354.5828432176501
 31
0.0
  0
LINE
  5
65A5
330
1F
100
AcDbEntity
  8
_lines
100
AcDbLine
 10
268.5902759811529
 20
354.5828432176501
 30
0.0
 11
289.2130530893432
 21
351.1549296756008
 31
0.0
  0
LINE
  5
65A6
330
1F
100
AcDbEntity
  8
_lines
100
AcDbLine
 10
289.2130530893432
 20
351.1549296756008
 30
0.0
 11
280.058731523312
 21
356.229252979561
 31
0.0
  0
LINE
  5
65A7
330
1F
100
AcDbEntity
  8
_lines
100
AcDbLine
 10
280.058731523312
 20
356.229252979561
 30
0.0
 11
311.605365619735
 21
447.8473308764575
 31
0.0
  0
LINE
  5
65A8
330
1F
100
AcDbEntity
  8
_lines
  6
Dash
100
AcDbLine
 10
464.1020604592836
 20
341.4502720845809
 30
0.0
 11
640.5893340972093
 21
280.6808303768345
 31
0.0
1001
REVIT
1002
{
1070
     3
1000
191813
1002
}
  0
LINE
  5
65A9
330
1F
100
AcDbEntity
  8
_lines
100
AcDbLine
 10
512.6447870234865
 20
328.850912266527
 30
0.0
 11
296.2837080191662
 21
403.350006208863
 31
0.0
  0
LINE
  5
65AA
330
1F
100
AcDbEntity
  8
_lines
100
AcDbLine
 10
768.5338811709357
 20
328.850912266527
 30
0.0
 11
984.8949601752524
 21
403.3500062088621
 31
0.0
  0
MULTILEADER
  5
65AB
330
1F
100
AcDbEntity
  8
0
370
    -3
160
              1573
310
25060000180000000C00000013000000993A00000C0000000E000000F1000000EC00000026000000F5E0B8D7E32D614035663BD568B78B40000000000000000000000000000000000000000000000000000000000000F03F000000000000F03F000000000000000000000000000000003100350030007800320035006D006D
310
002000560061006C006C0065007900200042006F0061007200640000001500000001000000FFFFFFFFFFFF2840000000000000F03F0000000000000000000000000000F03F00000000000000000000000000000000000000000000000000000000000000002200000041007200690061006C00000061007200690061006C00
310
2E00740074006600000000000000F800000026000000A7B564FCE648614035663BD568178B40000000000000000000000000000000000000000000000000000000000000F03F000000000000F03F000000000000000000000000000000002800560061006C006C0065007900200062006F0061007200640073002000630075
310
00740020006200650074007700650065006E00000000001A00000001000000FFFFFFFFFFFF2840000000000000F03F0000000000000000000000000000F03F00000000000000000000000000000000000000000000000000000000000000002200000041007200690061006C00000061007200690061006C002E0074007400
310
66000000000000000401000026000000611DA8C7E960614035663BD568778A40000000000000000000000000000000000000000000000000000000000000F03F000000000000F03F000000000000000000000000000000007400720075007300730065007300200066006900780065006400200066006C0075007300680020
310
0077006900740068002000740068006500200074006F007000290000002100000001000000FFFFFFFFFFFF2840000000000000F03F0000000000000000000000000000F03F00000000000000000000000000000000000000000000000000000000000000002200000041007200690061006C00000061007200690061006C00
310
2E007400740066000000000000000C000000130000009A3A00000C0000000E000000030000005400000020000000020000007C3D96C81AF27740E010E67F13568A400000000000000000D0C7A060BC6A6140E010E67F13568A40000000000000000000000000000000000000000000000000000000000000F03F0C00000013
310
000000112700000C0000001300000001000000880000001D000000D2B8D8A79EC60740E85697855C1510400000000000000000D4D3A5C9E3278140E85697855C1510C0D2B8D8A79EC607400000000000000000055A0420B1D38840000000000000000000000000000000000000000000001440000000000000000000000000
310
0000000000000000000000000000000000000000000000000000F03F0C00000012000000FE7F00000C000000140000000100000035000000210000002600000005008000000000000E03F40902000000000000D0BF0000000000000000C00000000000340FC50000000C000000140000000200000054000000200000000200
310
0000000000000000E0BF00000000000000000000000000000000000000000000F0BF0000000000000000000000000000000000000000000000000000000000000000000000000000F03F080000001F000000880000001D000000000000000000F03F0000000000000000000000000000000000000000000000000000000000
310
000000000000000000F03F0000000000000000000000000000000000000000000000000000000000000000000000000000F03F0000000000000000000000000000000000000000000000000000000000000000000000000000F03F080000001F0000000C00000013000000891300000C00000012000000FF7F000054000000
310
20000000020000001BFBFD2A1D108140B3880FD9DBF3884000000000000000003660DD224C0A8040E010E67F13568A40000000000000000000000000000000000000000000000000000000000000F03F0C00000013000000112700005400000020000000020000003660DD224C0A8040E010E67F13568A4000000000000000
310
007C3D96C81AF27740E010E67F13568A40000000000000000000000000000000000000000000000000000000000000F03F
100
AcDbMLeader
270
     2
300
CONTEXT_DATA{
 40
1.0
 10
134.3354952945942
 20
842.759521291151
 30
0.0
 41
12.5
140
5.0
145
5.0
174
     5
175
     5
176
     0
177
     0
290
     1
304
{\C241;150x25mm Valley Board\P(Valley boards cut between \Ptrusses fixed flush with the top)}
 11
0.0
 21
0.0
 31
1.0
340
537
 12
139.3354952945942
 22
899.4261879578177
 32
0.0
 13
1.0
 23
0.0
 33
0.0
 42
0.0
 43
0.0
 44
0.0
 45
0.9600000000000001
170
     2
 90
-1023409921
171
     1
172
     5
 91
-939524096
141
1.5
 92
        0
291
     0
292
     0
173
     0
293
     0
142
0.0
143
0.0
294
     0
295
     0
296
     0
110
552.8399519224427
120
825.7245612946869
130
0.0
111
1.0
121
0.0
131
0.0
112
0.0
122
1.0
132
0.0
297
     0
302
LEADER{
290
     1
291
     1
 10
513.2871758742319
 20
842.759521291151
 30
0.0
 11
-1.0
 21
0.0
 31
0.0
 90
        0
 40
130.1556369234304
304
LEADER_LINE{
 10
548.986224456336
 20
794.4614868488285
 30
0.0
 91
        0
 92
-1056964608
305
}
271
     0
303
}
272
     9
273
     9
301
}
340
D8
 90
856161279
170
     1
 91
-1023410173
341
14
171
    -2
290
     1
291
     1
 41
130.1556369234304
342
639
 42
5.0
172
     2
343
537
173
     5
 95
        5
174
     1
175
     0
 92
-1023409921
292
     0
 93
-1056964608
 10
1.0
 20
1.0
 30
1.0
 43
0.0
176
     0
293
     0
294
     0
178
     0
179
     1
 45
1.0
271
     0
272
     9
273
     9
295
     1
  0
MULTILEADER
  5
65AC
330
1F
100
AcDbEntity
  8
0
370
    -3
160
              1037
310
0D040000160000000C00000013000000993A00000C0000000E000000F1000000D0000000260000008A96AC8EEBC060405D641543E4988640000000000000000000000000000000000000000000000000000000000000F03F000000000000F03F00000000000000000000000000000000520061006600740065007200000000
310
000600000001000000FFFFFFFFFFFF2840000000000000F03F0000000000000000000000000000F03F00000000000000000000000000000000000000000000000000000000000000002200000041007200690061006C00000061007200690061006C002E007400740066000000000000000C000000130000009A3A00000C00
310
00000E000000030000005400000020000000020000004005CC6C405A6740080FC0ED8E778640000000000000000050747665D9EC6040080FC0ED8E778640000000000000000000000000000000000000000000000000000000000000F03F0C00000013000000112700000C0000001300000001000000880000001D0000005A
310
B9D8A79EC60740B55697855C1510400000000000000000A8D8701ED8E07F40B55697855C1510C05AB9D8A79EC6074000000000000000001D58DE8D2CF584400000000000000000000000000000000000000000000014400000000000000000000000000000000000000000000000000000000000000000000000000000F03F
310
0C00000012000000FE7F00000C000000140000000100000035000000210000002600000005008000000000000E03F40902000000000000D0BF0000000000000000C00000000000340FC50000000C0000001400000002000000540000002000000002000000000000000000E0BF000000000000000000000000000000000000
310
00000000F0BF0000000000000000000000000000000000000000000000000000000000000000000000000000F03F080000001F000000880000001D000000000000000000F03F0000000000000000000000000000000000000000000000000000000000000000000000000000F03F0000000000000000000000000000000000
310
000000000000000000000000000000000000000000F03F0000000000000000000000000000000000000000000000000000000000000000000000000000F03F080000001F0000000C00000013000000891300000C00000012000000FF7F0000540000002000000002000000352721E14AB17F40CA86E9465715854000000000
310
0000000040F1DFD0A8A57D40080FC0ED8E778640000000000000000000000000000000000000000000000000000000000000F03F0C000000130000001127000054000000200000000200000040F1DFD0A8A57D40080FC0ED8E77864000000000000000004005CC6C405A6740080FC0ED8E7786400000000000000000000000
310
00000000000000000000000000000000000000F03F
100
AcDbMLeader
270
     2
300
CONTEXT_DATA{
 40
1.0
 10
130.4015376390039
 20
718.9447894100749
 30
0.0
 41
12.5
140
5.0
145
5.0
174
     5
175
     5
176
     0
177
     0
290
     1
304
{\C241;Rafter}
 11
0.0
 21
0.0
 31
1.0
340
537
 12
135.4015376390039
 22
735.6114560767415
 32
0.0
 13
1.0
 23
0.0
 33
0.0
 42
0.0
 43
0.0
 44
0.0
 45
0.9600000000000001
170
     2
 90
-1023409921
171
     1
172
     5
 91
-939524096
141
1.5
 92
        0
291
     0
292
     0
173
     0
293
     0
142
0.0
143
0.0
294
     0
295
     0
296
     0
110
513.9064908717214
120
701.9098294136089
130
0.0
111
1.0
121
0.0
131
0.0
112
0.0
122
1.0
132
0.0
297
     0
302
LEADER{
290
     1
291
     1
 10
474.3537148235082
 20
718.9447894100749
 30
0.0
 11
-1.0
 21
0.0
 31
0.0
 90
        0
 40
287.5333504450773
304
LEADER_LINE{
 10
510.0527634056148
 20
670.6467549677506
 30
0.0
 91
        0
 92
-1056964608
305
}
271
     0
303
}
272
     9
273
     9
301
}
340
D8
 90
856161279
170
     1
 91
-1023410173
341
14
171
    -2
290
     1
291
     1
 41
287.5333504450773
342
639
 42
5.0
172
     2
343
537
173
     5
 95
        5
174
     1
175
     0
 92
-1023409921
292
     0
 93
-1056964608
 10
1.0
 20
1.0
 30
1.0
 43
0.0
176
     0
293
     0
294
     0
178
     0
179
     1
 45
1.0
271
     0
272
     9
273
     9
295
     1
  0
MULTILEADER
  5
65AD
330
1F
100
AcDbEntity
  8
0
370
    -3
160
              1061
310
25040000160000000C00000013000000993A00000C0000000E000000F1000000E8000000260000003CDD57311E1161401DAFEAA4DADB8840000000000000000000000000000000000000000000000000000000000000F03F000000000000F03F00000000000000000000000000000000540069006C00650020004200610074
310
00740065006E002000350030007800340030006D006D0000001300000001000000FFFFFFFFFFFF2840000000000000F03F0000000000000000000000000000F03F00000000000000000000000000000000000000000000000000000000000000002200000041007200690061006C00000061007200690061006C002E007400
310
740066000000000000000C000000130000009A3A00000C0000000E0000000300000054000000200000000200000080DD100486167340C859954F85BA88400000000000000000D0154EFD361E6140C859954F85BA8840000000000000000000000000000000000000000000000000000000000000F03F0C0000001300000011
310
2700000C0000001300000001000000880000001D00000060EA530B955907407577BD0E1B3D1040000000000000000034B026E89B7C80407577BD0E1B3D10C060EA530B955907400000000000000000DD4F6DD0907F874000000000000000000000000000000000000000000000144000000000000000000000000000000000
310
00000000000000000000000000000000000000000000F03F0C00000012000000FE7F00000C000000140000000100000035000000210000002600000005008000000000000E03F40902000000000000D0BF0000000000000000C00000000000340FC50000000C00000014000000020000005400000020000000020000000000
310
00000000E0BF00000000000000000000000000000000000000000000F0BF0000000000000000000000000000000000000000000000000000000000000000000000000000F03F080000001F000000880000001D000000000000000000F03F000000000000000000000000000000000000000000000000000000000000000000
310
0000000000F03F0000000000000000000000000000000000000000000000000000000000000000000000000000F03F0000000000000000000000000000000000000000000000000000000000000000000000000000F03F080000001F0000000C00000013000000891300000C00000012000000FF7F00005400000020000000
310
020000004A5C1B5342658040CCCA8A060BA08740000000000000000080424D8C56347F40C859954F85BA8840000000000000000000000000000000000000000000000000000000000000F03F0C000000130000001127000054000000200000000200000080424D8C56347F40C859954F85BA8840000000000000000080DD10
310
0486167340C859954F85BA8840000000000000000000000000000000000000000000000000000000000000F03F
100
AcDbMLeader
270
     2
300
CONTEXT_DATA{
 40
1.0
 10
131.9442125821211
 20
791.3150931995415
 30
0.0
 41
12.5
140
5.0
145
5.0
174
     5
175
     5
176
     0
177
     0
290
     1
304
{\C241;Tile Batten 50x40mm}
 11
0.0
 21
0.0
 31
1.0
340
537
 12
136.9442125821211
 22
807.9817598662081
 32
0.0
 13
1.0
 23
0.0
 33
0.0
 42
0.0
 43
0.0
 44
0.0
 45
0.9600000000000001
170
     2
 90
-1023409921
171
     1
172
     5
 91
-939524096
141
1.5
 92
        0
291
     0
292
     0
173
     0
293
     0
142
0.0
143
0.0
294
     0
295
     0
296
     0
110
538.8239059441826
120
774.2801332030755
130
0.0
111
1.0
121
0.0
131
0.0
112
0.0
122
1.0
132
0.0
297
     0
302
LEADER{
290
     1
291
     1
 10
499.2711298959694
 20
791.3150931995415
 30
0.0
 11
-1.0
 21
0.0
 31
0.0
 90
        0
 40
193.8634111746942
304
LEADER_LINE{
 10
527.5761263868831
 20
751.9457100429532
 30
0.0
 91
        0
 92
-1056964608
305
}
271
     0
303
}
272
     9
273
     9
301
}
340
D8
 90
856161279
170
     1
 91
-1023410173
341
14
171
    -2
290
     1
291
     1
 41
193.8634111746942
342
639
 42
5.0
172
     2
343
537
173
     5
 95
        5
174
     1
175
     0
 92
-1023409921
292
     0
 93
-1056964608
 10
1.0
 20
1.0
 30
1.0
 43
0.0
176
     0
293
     0
294
     0
178
     0
179
     1
 45
1.0
271
     0
272
     9
273
     9
295
     1
  0
MULTILEADER
  5
65AE
330
1F
100
AcDbEntity
  8
0
370
    -3
160
              1037
310
0D040000160000000C00000013000000993A00000C0000000E000000F1000000D0000000260000004A37365925366140BD0997096FCA8240000000000000000000000000000000000000000000000000000000000000F03F000000000000F03F00000000000000000000000000000000460061007300630069006100000000
310
000600000001000000FFFFFFFFFFFF2840000000000000F03F0000000000000000000000000000F03F00000000000000000000000000000000000000000000000000000000000000002200000041007200690061006C00000061007200690061006C002E007400740066000000000000000C000000130000009A3A00000C00
310
00000E00000003000000540000002000000002000000C4B665313F2C684068B441B419A98240000000000000000050FD1323FC63614068B441B419A98240000000000000000000000000000000000000000000000000000000000000F03F0C00000013000000112700000C0000001300000001000000880000001D0000001E
310
BCD8A79EC60740B05597855C1510400000000000000000548E17FAB95E8440B05597855C1510C01EBCD8A79EC607400000000000000000AD9F52A376C681400000000000000000000000000000000000000000000014400000000000000000000000000000000000000000000000000000000000000000000000000000F03F
310
0C00000012000000FE7F00000C000000140000000100000035000000210000002600000005008000000000000E03F40902000000000000D0BF0000000000000000C00000000000340FC50000000C0000001400000002000000540000002000000002000000000000000000E0BF000000000000000000000000000000000000
310
00000000F0BF0000000000000000000000000000000000000000000000000000000000000000000000000000F03F080000001F000000880000001D000000000000000000F03F0000000000000000000000000000000000000000000000000000000000000000000000000000F03F0000000000000000000000000000000000
310
000000000000000000000000000000000000000000F03F0000000000000000000000000000000000000000000000000000000000000000000000000000F03F080000001F0000000C00000013000000891300000C00000012000000FF7F000054000000200000000200000098B56F5BF346844058CE5D5CA1E6814000000000
310
0000000071878FB735B7834068B441B419A98240000000000000000000000000000000000000000000000000000000000000F03F0C000000130000001127000054000000200000000200000071878FB735B7834068B441B419A982400000000000000000C4B665313F2C684068B441B419A982400000000000000000000000
310
00000000000000000000000000000000000000F03F
100
AcDbMLeader
270
     2
300
CONTEXT_DATA{
 40
1.0
 10
134.1245284452839
 20
597.1375508435422
 30
0.0
 41
12.5
140
5.0
145
5.0
174
     5
175
     5
176
     0
177
     0
290
     1
304
{\C241;Fascia}
 11
0.0
 21
0.0
 31
1.0
340
537
 12
139.1245284452839
 22
613.8042175102088
 32
0.0
 13
1.0
 23
0.0
 33
0.0
 42
0.0
 43
0.0
 44
0.0
 45
0.9600000000000001
170
     2
 90
-1023409921
171
     1
172
     5
 91
-939524096
141
1.5
 92
        0
291
     0
292
     0
173
     0
293
     0
142
0.0
143
0.0
294
     0
295
     0
296
     0
110
670.454005068636
120
580.102590847078
130
0.0
111
1.0
121
0.0
131
0.0
112
0.0
122
1.0
132
0.0
297
     0
302
LEADER{
290
     1
291
     1
 10
630.9012290204247
 20
597.1375508435422
 30
0.0
 11
-1.0
 21
0.0
 31
0.0
 90
        0
 40
437.5185150362595
304
LEADER_LINE{
 10
651.8408090439139
 20
568.8079287009219
 30
0.0
 91
        0
 92
-1056964608
305
}
271
     0
303
}
272
     9
273
     9
301
}
340
D8
 90
856161279
170
     1
 91
-1023410173
341
14
171
    -2
290
     1
291
     1
 41
437.5185150362595
342
639
 42
5.0
172
     2
343
537
173
     5
 95
        5
174
     1
175
     2
 92
-1023409921
292
     0
 93
-1056964608
 10
1.0
 20
1.0
 30
1.0
 43
0.0
176
     0
293
     0
294
     0
178
     0
179
     1
 45
1.0
271
     0
272
     9
273
     9
295
     1
  0
MULTILEADER
  5
65AF
330
1F
100
AcDbEntity
  8
0
370
    -3
160
              1061
310
25040000160000000C00000013000000993A00000C0000000E000000F1000000E800000026000000F04C1CEE583C43403AECDC330AF67940000000000000000000000000000000000000000000000000000000000000F03F000000000000F03F00000000000000000000000000000000540069006C00650020004200610074
310
00740065006E002000350030007800340030006D006D0000001300000001000000FFFFFFFFFFFF2840000000000000F03F0000000000000000000000000000F03F00000000000000000000000000000000000000000000000000000000000000002200000041007200690061006C00000061007200690061006C002E007400
310
740066000000000000000C000000130000009A3A00000C0000000E0000000300000054000000200000000200000000F1501204EB69408F4132895FB379400000000000000000402FF51DBC7043408F4132895FB37940000000000000000000000000000000000000000000000000000000000000F03F0C0000001300000011
310
2700000C0000001300000001000000880000001D000000D2EA530B955907404C77BD0E1B3D1040000000000000000028219CF9904379404C77BD0E1B3D10C0D2EA530B955907400000000000000000BA89A7DF6E0F784000000000000000000000000000000000000000000000144000000000000000000000000000000000
310
00000000000000000000000000000000000000000000F03F0C00000012000000FE7F00000C000000140000000100000035000000210000002600000005008000000000000E03F40902000000000000D0BF0000000000000000C00000000000340FC50000000C00000014000000020000005400000020000000020000000000
310
00000000E0BF00000000000000000000000000000000000000000000F0BF0000000000000000000000000000000000000000000000000000000000000000000000000000F03F080000001F000000880000001D000000000000000000F03F000000000000000000000000000000000000000000000000000000000000000000
310
0000000000F03F0000000000000000000000000000000000000000000000000000000000000000000000000000F03F0000000000000000000000000000000000000000000000000000000000000000000000000000F03F080000001F0000000C00000013000000891300000C00000012000000FF7F00005400000020000000
310
02000000527985CFDD147940977FE24B6350784000000000000000009062F176A51578408F4132895FB37940000000000000000000000000000000000000000000000000000000000000F03F0C00000013000000112700005400000020000000020000009062F176A51578408F4132895FB37940000000000000000000F150
310
1204EB69408F4132895FB37940000000000000000000000000000000000000000000000000000000000000F03F
100
AcDbMLeader
270
     2
300
CONTEXT_DATA{
 40
1.0
 10
33.88074087592986
 20
411.2108241999749
 30
0.0
 41
12.5
140
5.0
145
5.0
174
     5
175
     5
176
     0
177
     0
290
     1
304
{\C241;Tile Batten 50x40mm}
 11
0.0
 21
0.0
 31
1.0
340
537
 12
38.88074087592986
 22
427.8774908666416
 32
0.0
 13
1.0
 23
0.0
 33
0.0
 42
0.0
 43
0.0
 44
0.0
 45
0.9600000000000001
170
     2
 90
-1023409921
171
     1
172
     5
 91
-939524096
141
1.5
 92
        0
291
     0
292
     0
173
     0
293
     0
142
0.0
143
0.0
294
     0
295
     0
296
     0
110
424.9056726841359
120
394.1758642035089
130
0.0
111
1.0
121
0.0
131
0.0
112
0.0
122
1.0
132
0.0
297
     0
302
LEADER{
290
     1
291
     1
 10
385.3528966359236
 20
411.2108241999749
 30
0.0
 11
-1.0
 21
0.0
 31
0.0
 90
        0
 40
178.0086496208396
304
LEADER_LINE{
 10
404.2228942965326
 20
384.9645687622502
 30
0.0
 91
        0
 92
-1056964608
305
}
271
     0
303
}
272
     9
273
     9
301
}
340
D8
 90
856161279
170
     1
 91
-1023410173
341
14
171
    -2
290
     1
291
     1
 41
178.0086496208396
342
639
 42
5.0
172
     2
343
537
173
     5
 95
        5
174
     1
175
     0
 92
-1023409921
292
     0
 93
-1056964608
 10
1.0
 20
1.0
 30
1.0
 43
0.0
176
     0
293
     0
294
     0
178
     0
179
     1
 45
1.0
271
     0
272
     9
273
     9
295
     1
  0
MULTILEADER
  5
65B0
330
1F
100
AcDbEntity
  8
0
370
    -3
160
              1057
310
21040000160000000C00000013000000993A00000C0000000E000000F1000000E400000026000000547D73968E5C43403A6E8C7F48977C40000000000000000000000000000000000000000000000000000000000000F03F000000000000F03F00000000000000000000000000000000470065007200610072006400200052
310
006F006F0066002000540069006C006500000000001000000001000000FFFFFFFFFFFF2840000000000000F03F0000000000000000000000000000F03F00000000000000000000000000000000000000000000000000000000000000002200000041007200690061006C00000061007200690061006C002E00740074006600
310
0000000000000C000000130000009A3A00000C0000000E0000000300000054000000200000000200000090CE8CAB5E8265408FC3E1D49D547C40000000000000000040FF6F2885D343408FC3E1D49D547C40000000000000000000000000000000000000000000000000000000000000F03F0C00000013000000112700000C
310
0000001300000001000000880000001D00000074EB530B955907401277BD0E1B3D10400000000000000000A880F1BA86DA79401277BD0E1B3D10C074EB530B955907400000000000000000DAAF91D6B4DE79400000000000000000000000000000000000000000000014400000000000000000000000000000000000000000
310
000000000000000000000000000000000000F03F0C00000012000000FE7F00000C000000140000000100000035000000210000002600000005008000000000000E03F40902000000000000D0BF0000000000000000C00000000000340FC50000000C0000001400000002000000540000002000000002000000000000000000
310
E0BF00000000000000000000000000000000000000000000F0BF0000000000000000000000000000000000000000000000000000000000000000000000000000F03F080000001F000000880000001D000000000000000000F03F00000000000000000000000000000000000000000000000000000000000000000000000000
310
00F03F0000000000000000000000000000000000000000000000000000000000000000000000000000F03F0000000000000000000000000000000000000000000000000000000000000000000000000000F03F080000001F0000000C00000013000000891300000C00000012000000FF7F0000540000002000000002000000
310
D1D8DA90D3AB7940B6A5CC42A91F7A400000000000000000B862F176A51578408FC3E1D49D547C40000000000000000000000000000000000000000000000000000000000000F03F0C0000001300000011270000540000002000000002000000B862F176A51578408FC3E1D49D547C40000000000000000090CE8CAB5E8265
310
408FC3E1D49D547C40000000000000000000000000000000000000000000000000000000000000F03F
100
AcDbMLeader
270
     2
300
CONTEXT_DATA{
 40
1.0
 10
34.65250115841491
 20
453.2885330981161
 30
0.0
 41
12.5
140
5.0
145
5.0
174
     5
175
     5
176
     0
177
     0
290
     1
304
{\C241;Gerard Roof Tile}
 11
0.0
 21
0.0
 31
1.0
340
537
 12
39.65250115841491
 22
469.9551997647828
 32
0.0
 13
1.0
 23
0.0
 33
0.0
 42
0.0
 43
0.0
 44
0.0
 45
0.9600000000000001
170
     2
 90
-1023409921
171
     1
172
     5
 91
-939524096
141
1.5
 92
        0
291
     0
292
     0
173
     0
293
     0
142
0.0
143
0.0
294
     0
295
     0
296
     0
110
424.9056726841359
120
436.253573101652
130
0.0
111
1.0
121
0.0
131
0.0
112
0.0
122
1.0
132
0.0
297
     0
302
LEADER{
290
     1
291
     1
 10
385.3528966359258
 20
453.2885330981161
 30
0.0
 11
-1.0
 21
0.0
 31
0.0
 90
        0
 40
213.2788402251235
304
LEADER_LINE{
 10
413.65789312684
 20
413.9191499415298
 30
0.0
 91
        0
 92
-1056964608
305
}
271
     0
303
}
272
     9
273
     9
301
}
340
D8
 90
856161279
170
     1
 91
-1023410173
341
14
171
    -2
290
     1
291
     1
 41
213.2788402251235
342
639
 42
5.0
172
     2
343
537
173
     5
 95
        5
174
     1
175
     0
 92
-1023409921
292
     0
 93
-1056964608
 10
1.0
 20
1.0
 30
1.0
 43
0.0
176
     0
293
     0
294
     0
178
     0
179
     1
 45
1.0
271
     0
272
     9
273
     9
295
     1
  0
MULTILEADER
  5
65B1
330
1F
100
AcDbEntity
  8
0
370
    -3
160
              1293
310
0D050000170000000C00000013000000993A00000C0000000E000000F1000000D400000026000000282C18BFA5A94240FA4CAB94CCE87740000000000000000000000000000000000000000000000000000000000000F03F000000000000F03F0000000000000000000000000000000055006E006400650072006C00610079
310
00310000000900000001000000FFFFFFFFFFFF2840000000000000F03F0000000000000000000000000000F03F00000000000000000000000000000000000000000000000000000000000000002200000041007200690061006C00000061007200690061006C002E00740074006600000000000000FC000000260000009B5A
310
4F8907D24240FA4CAB94CCA87640000000000000000000000000000000000000000000000000000000000000F03F000000000000F03F000000000000000000000000000000002800430061007200720069006500640020006F00760065007200200074006F0020006500640067006500200067007500740074006500720029
310
0000001D00000001000000FFFFFFFFFFFF2840000000000000F03F0000000000000000000000000000F03F00000000000000000000000000000000000000000000000000000000000000002200000041007200690061006C00000061007200690061006C002E007400740066000000000000000C000000130000009A3A0000
310
0C0000000E00000003000000540000002000000002000000BE9CFE9C656570404FA200EA21667640000000000000000040A33F1A5D5943404FA200EA21667640000000000000000000000000000000000000000000000000000000000000F03F0C00000013000000112700000C0000001300000001000000880000001D0000
310
00A9E7530B955907406F78BD0E1B3D10C00000000000000000E828AE470A8778406F78BD0E1B3D1040A9E7530B9559074000000000000000005A59550EDA0377400000000000000000000000000000000000000000000014400000000000000000000000000000000000000000000000000000000000000000000000000000
310
F03F0C00000012000000FE7F00000C000000140000000100000035000000210000002600000005008000000000000E03F40902000000000000D0BF0000000000000000C00000000000340FC50000000C0000001400000002000000540000002000000002000000000000000000E0BF00000000000000000000000000000000
310
000000000000F0BF0000000000000000000000000000000000000000000000000000000000000000000000000000F03F080000001F000000880000001D000000000000000000F03F0000000000000000000000000000000000000000000000000000000000000000000000000000F03F000000000000000000000000000000
310
0000000000000000000000000000000000000000000000F03F0000000000000000000000000000000000000000000000000000000000000000000000000000F03F080000001F0000000C00000013000000891300000C00000012000000FF7F00005400000020000000020000001981971D5758784078631AA2E5C276400000
310
000000000000AE62F176A51578404FA200EA21667640000000000000000000000000000000000000000000000000000000000000F03F0C0000001300000011270000540000002000000002000000AE62F176A51578404FA200EA216676400000000000000000BE9CFE9C656570404FA200EA21667640000000000000000000
310
000000000000000000000000000000000000000000F03F
100
AcDbMLeader
270
     2
300
CONTEXT_DATA{
 40
1.0
 10
33.69815376384076
 20
358.3832798027769
 30
0.0
 41
12.5
140
5.0
145
5.0
174
     5
175
     5
176
     0
177
     0
290
     1
304
{\C241;Underlay1 \P(Carried over to edge gutter)}
 11
0.0
 21
0.0
 31
1.0
340
537
 12
38.69815376384076
 22
395.0499464694436
 32
0.0
 13
1.0
 23
0.0
 33
0.0
 42
0.0
 43
0.0
 44
0.0
 45
0.9600000000000001
170
     2
 90
-1023409921
171
     1
172
     5
 91
-939524096
141
1.5
 92
        0
291
     0
292
     0
173
     0
293
     0
142
0.0
143
0.0
294
     0
295
     0
296
     0
110
424.9056726841359
120
375.4182397992405
130
0.0
111
1.0
121
0.0
131
0.0
112
0.0
122
1.0
132
0.0
297
     0
302
LEADER{
290
     1
291
     1
 10
385.3528966359253
 20
358.3832798027769
 30
0.0
 11
-1.0
 21
0.0
 31
0.0
 90
        0
 40
123.0155887111023
304
LEADER_LINE{
 10
392.4400097659222
 20
368.2407363256403
 30
0.0
 91
        0
 92
-1056964608
305
}
271
     0
303
}
272
     9
273
     9
301
}
340
D8
 90
856161279
170
     1
 91
-1023410173
341
14
171
    -2
290
     1
291
     1
 41
123.0155887111023
342
639
 42
5.0
172
     2
343
537
173
     5
 95
        5
174
     1
175
     0
 92
-1023409921
292
     0
 93
-1056964608
 10
1.0
 20
1.0
 30
1.0
 43
0.0
176
     0
293
     0
294
     0
178
     0
179
     1
 45
1.0
271
     0
272
     9
273
     9
295
     1
  0
MULTILEADER
  5
65B2
330
1F
100
AcDbEntity
  8
0
370
    -3
160
              1037
310
0D040000160000000C00000013000000993A00000C0000000E000000F1000000D00000002600000028445C8040574440F48D8B70A4EA6840000000000000000000000000000000000000000000000000000000000000F03F000000000000F03F00000000000000000000000000000000520061006600740065007200000000
310
000600000001000000FFFFFFFFFFFF2840000000000000F03F0000000000000000000000000000F03F00000000000000000000000000000000000000000000000000000000000000002200000041007200690061006C00000061007200690061006C002E007400740066000000000000000C000000130000009A3A00000C00
310
00000E0000000300000054000000200000000200000080FF6CFC495E57409F38361B4F656840000000000000000040BB83DBF70645409F38361B4F656840000000000000000000000000000000000000000000000000000000000000F03F0C00000013000000112700000C0000001300000001000000880000001D00000050
310
EC530B95590740C376BD0E1B3D10C00000000000000000A880F1BA86DA7940C376BD0E1B3D104050EC530B9559074000000000000000003460D61721516D400000000000000000000000000000000000000000000014400000000000000000000000000000000000000000000000000000000000000000000000000000F03F
310
0C00000012000000FE7F00000C000000140000000100000035000000210000002600000005008000000000000E03F40902000000000000D0BF0000000000000000C00000000000340FC50000000C0000001400000002000000540000002000000002000000000000000000E0BF000000000000000000000000000000000000
310
00000000F0BF0000000000000000000000000000000000000000000000000000000000000000000000000000F03F080000001F000000880000001D000000000000000000F03F0000000000000000000000000000000000000000000000000000000000000000000000000000F03F0000000000000000000000000000000000
310
000000000000000000000000000000000000000000F03F0000000000000000000000000000000000000000000000000000000000000000000000000000F03F080000001F0000000C00000013000000891300000C00000012000000FF7F0000540000002000000002000000CFD8DA90D3AB79407E74603F38CF6C4000000000
310
000000009062F176A51578409F38361B4F656840000000000000000000000000000000000000000000000000000000000000F03F0C00000013000000112700005400000020000000020000009062F176A51578409F38361B4F656840000000000000000080FF6CFC495E57409F38361B4F6568400000000000000000000000
310
00000000000000000000000000000000000000F03F
100
AcDbMLeader
270
     2
300
CONTEXT_DATA{
 40
1.0
 10
37.05443900997352
 20
195.1659065302856
 30
0.0
 41
12.5
140
5.0
145
5.0
174
     5
175
     5
176
     0
177
     0
290
     1
304
{\C241;Rafter}
 11
0.0
 21
0.0
 31
1.0
340
537
 12
42.05443900997352
 22
211.8325731969522
 32
0.0
 13
1.0
 23
0.0
 33
0.0
 42
0.0
 43
0.0
 44
0.0
 45
0.9600000000000001
170
     2
 90
-1023409921
171
     1
172
     5
 91
-939524096
141
1.5
 92
        0
291
     0
292
     0
173
     0
293
     0
142
0.0
143
0.0
294
     0
295
     0
296
     0
110
424.9056726841359
120
212.2008665267509
130
0.0
111
1.0
121
0.0
131
0.0
112
0.0
122
1.0
132
0.0
297
     0
302
LEADER{
290
     1
291
     1
 10
385.3528966359236
 20
195.1659065302856
 30
0.0
 11
-1.0
 21
0.0
 31
0.0
 90
        0
 40
291.879630886523
304
LEADER_LINE{
 10
413.65789312684
 20
234.5352896868732
 30
0.0
 91
        0
 92
-1056964608
305
}
271
     0
303
}
272
     9
273
     9
301
}
340
D8
 90
856161279
170
     1
 91
-1023410173
341
14
171
    -2
290
     1
291
     1
 41
291.879630886523
342
639
 42
5.0
172
     2
343
537
173
     5
 95
        5
174
     1
175
     0
 92
-1023409921
292
     0
 93
-1056964608
 10
1.0
 20
1.0
 30
1.0
 43
0.0
176
     0
293
     0
294
     0
178
     0
179
     1
 45
1.0
271
     0
272
     9
273
     9
295
     1
  0
MULTILEADER
  5
65B3
330
1F
100
AcDbEntity
  8
0
370
    -3
160
              1765
310
E5060000190000000C00000013000000993A00000C0000000E000000F1000000EC00000026000000D6033824B30C4340FA2CAEF08A4E7440000000000000000000000000000000000000000000000000000000000000F03F000000000000F03F000000000000000000000000000000003100350030007800320035006D006D
310
002000560061006C006C0065007900200042006F0061007200640000001500000001000000FFFFFFFFFFFF2840000000000000F03F0000000000000000000000000000F03F00000000000000000000000000000000000000000000000000000000000000002200000041007200690061006C00000061007200690061006C00
310
2E00740074006600000000000000E8000000260000009B56E7B6BF784340FA2CAEF08A0E7340000000000000000000000000000000000000000000000000000000000000F03F000000000000F03F000000000000000000000000000000002800560061006C006C0065007900200062006F0061007200640073002000630075
310
007400000000001200000001000000FFFFFFFFFFFF2840000000000000F03F0000000000000000000000000000F03F00000000000000000000000000000000000000000000000000000000000000002200000041007200690061006C00000061007200690061006C002E00740074006600000000000000EC00000026000000
310
75279AB7D56D4340FA2CAEF08ACE7140000000000000000000000000000000000000000000000000000000000000F03F000000000000F03F000000000000000000000000000000006200650074007700650065006E002000740072007500730073006500730020006600690078006500640000001500000001000000FFFFFF
310
FFFFFF2840000000000000F03F0000000000000000000000000000F03F00000000000000000000000000000000000000000000000000000000000000002200000041007200690061006C00000061007200690061006C002E00740074006600000000000000E800000026000000ABC591AF58EB4340FA2CAEF08A8E70400000
310
00000000000000000000000000000000000000000000000000000000F03F000000000000F03F0000000000000000000000000000000066006C00750073006800200077006900740068002000740068006500200074006F007000290000001300000001000000FFFFFFFFFFFF2840000000000000F03F000000000000000000
310
0000000000F03F00000000000000000000000000000000000000000000000000000000000000002200000041007200690061006C00000061007200690061006C002E007400740066000000000000000C000000130000009A3A00000C0000000E000000030000005400000020000000020000000C8E6AACA6026D404F820346
310
E04B70400000000000000000409FD747150044404F820346E04B7040000000000000000000000000000000000000000000000000000000000000F03F0C00000013000000112700000C0000001300000001000000880000001D000000543F938088CC044003CAC796691511C0000000000000000028696748B3B67B4003CAC7
310
9669151140543F938088CC044000000000000000009AEDD905E44174400000000000000000000000000000000000000000000014400000000000000000000000000000000000000000000000000000000000000000000000000000F03F0C00000012000000FE7F00000C000000140000000100000035000000210000002600
310
000005008000000000000E03F40902000000000000D0BF0000000000000000C00000000000340FC50000000C0000001400000002000000540000002000000002000000000000000000E0BF00000000000000000000000000000000000000000000F0BF00000000000000000000000000000000000000000000000000000000
310
00000000000000000000F03F080000001F000000880000001D000000000000000000F03F0000000000000000000000000000000000000000000000000000000000000000000000000000F03F0000000000000000000000000000000000000000000000000000000000000000000000000000F03F0000000000000000000000
310
000000000000000000000000000000000000000000000000000000F03F080000001F0000000C00000013000000891300000C00000012000000FF7F0000540000002000000002000000A94266371A8D7B4072CE7E5F8EFD73400000000000000000E6585C1A6E4D79404F820346E04B70400000000000000000000000000000
310
00000000000000000000000000000000F03F0C0000001300000011270000540000002000000002000000E6585C1A6E4D79404F820346E04B704000000000000000000C8E6AACA6026D404F820346E04B7040000000000000000000000000000000000000000000000000000000000000F03F
100
AcDbMLeader
270
     2
300
CONTEXT_DATA{
 40
1.0
 10
35.00064943340703
 20
260.7422542702743
 30
0.0
 41
12.5
140
5.0
145
5.0
174
     5
175
     5
176
     0
177
     0
290
     1
304
{\C241;150x25mm Valley Board\P(Valley boards cut \Pbetween trusses fixed \Pflush with the top)}
 11
0.0
 21
0.0
 31
1.0
340
537
 12
40.00064943340703
 22
337.4089209369409
 32
0.0
 13
1.0
 23
0.0
 33
0.0
 42
0.0
 43
0.0
 44
0.0
 45
0.9600000000000001
170
     2
 90
-1023409921
171
     1
172
     5
 91
-939524096
141
1.5
 92
        0
291
     0
292
     0
173
     0
293
     0
142
0.0
143
0.0
294
     0
295
     0
296
     0
110
444.3921566565136
120
277.7772142667378
130
0.0
111
1.0
121
0.0
131
0.0
112
0.0
122
1.0
132
0.0
297
     0
302
LEADER{
290
     1
291
     1
 10
404.8393806083026
 20
260.7422542702743
 30
0.0
 11
-1.0
 21
0.0
 31
0.0
 90
        0
 40
172.7565347219625
304
LEADER_LINE{
 10
443.4187702216609
 20
324.1181696427171
 30
0.0
 91
        0
 92
-1056964608
305
}
271
     0
303
}
272
     9
273
     9
301
}
340
D8
 90
856161279
170
     1
 91
-1023410173
341
14
171
    -2
290
     1
291
     1
 41
172.7565347219625
342
639
 42
5.0
172
     2
343
537
173
     5
 95
        5
174
     1
175
     0
 92
-1023409921
292
     0
 93
-1056964608
 10
1.0
 20
1.0
 30
1.0
 43
0.0
176
     0
293
     0
294
     0
178
     0
179
     1
 45
1.0
271
     0
272
     9
273
     9
295
     1
  0
MULTILEADER
  5
65B4
330
1F
100
AcDbEntity
  8
0
370
    -3
160
              1501
310
DD050000180000000C00000013000000993A00000C0000000E000000F1000000D800000026000000D36AEA3AA9999140341290ED41926F40000000000000000000000000000000000000000000000000000000000000F03F000000000000F03F0000000000000000000000000000000055006E006400650072006C00610079
310
0020003200000000000A00000001000000FFFFFFFFFFFF2840000000000000F03F0000000000000000000000000000F03F00000000000000000000000000000000000000000000000000000000000000002200000041007200690061006C00000061007200690061006C002E00740074006600000000000000EC0000002600
310
0000D1284BA261459040341290ED41126D40000000000000000000000000000000000000000000000000000000000000F03F000000000000F03F000000000000000000000000000000002800530065007000610072006100740065002000540069006D00620065007200200061006E006400000000001400000001000000FF
310
FFFFFFFFFF2840000000000000F03F0000000000000000000000000000F03F00000000000000000000000000000000000000000000000000000000000000002200000041007200690061006C00000061007200690061006C002E00740074006600000000000000DC0000002600000062F337C5AD759140341290ED41926A40
310
000000000000000000000000000000000000000000000000000000000000F03F000000000000F03F00000000000000000000000000000000560061006C006C0065007900200054007200610079002900000000000C00000001000000FFFFFFFFFFFF2840000000000000F03F0000000000000000000000000000F03F000000
310
00000000000000000000000000000000000000000000000000000000002200000041007200690061006C00000061007200690061006C002E007400740066000000000000000C000000130000009A3A00000C0000000E0000000300000054000000200000000200000016ABD24E9C359040DFBC3A98EC0C6A40000000000000
310
00002A9EBB78C4E79240DFBC3A98EC0C6A40000000000000000000000000000000000000000000000000000000000000F03F0C00000013000000112700000C0000001300000001000000880000001D000000D0EF45847C4702C0074A82841ECA11C00000000000000000346F6A74EBA88540074A82841ECA1140D0EF45847C
310
4702C00000000000000000CA8D680B45AC72400000000000000000000000000000000000000000000014400000000000000000000000000000000000000000000000000000000000000000000000000000F03F0C00000012000000FE7F00000C00000014000000010000003500000021000000260000000500800000000000
310
0E03F40902000000000000D0BF0000000000000000C00000000000340FC50000000C0000001400000002000000540000002000000002000000000000000000E0BF00000000000000000000000000000000000000000000F0BF0000000000000000000000000000000000000000000000000000000000000000000000000000
310
F03F080000001F000000880000001D000000000000000000F03F0000000000000000000000000000000000000000000000000000000000000000000000000000F03F0000000000000000000000000000000000000000000000000000000000000000000000000000F03F000000000000000000000000000000000000000000
310
0000000000000000000000000000000000F03F080000001F0000000C00000013000000891300000C00000012000000FF7F000054000000200000000200000024B5EEF032BB8540A28456911C6572400000000000000000A426D061521C8740DFBC3A98EC0C6A40000000000000000000000000000000000000000000000000
310
000000000000F03F0C0000001300000011270000540000002000000002000000A426D061521C8740DFBC3A98EC0C6A40000000000000000016ABD24E9C359040DFBC3A98EC0C6A40000000000000000000000000000000000000000000000000000000000000F03F
100
AcDbMLeader
270
     2
300
CONTEXT_DATA{
 40
1.0
 10
1037.402644435589
 20
208.4038811824057
 30
0.0
 41
12.5
140
5.0
145
5.0
174
     5
175
     5
176
     2
177
     0
290
     1
304
{\C241;Underlay 2 \P(Separate Timber and \PValley Tray)}
 11
0.0
 21
0.0
 31
1.0
340
537
 12
1209.941866809395
 22
265.0705478490723
 32
0.0
 13
1.0
 23
0.0
 33
0.0
 42
0.0
 43
0.0
 44
0.0
 45
0.9600000000000001
170
     2
 90
-1023409921
171
     3
172
     5
 91
-939524096
141
1.5
 92
        0
291
     0
292
     0
173
     0
293
     0
142
0.0
143
0.0
294
     0
295
     0
296
     0
110
672.8004468463937
120
267.688701282366
130
0.0
111
1.0
121
0.0
131
0.0
112
0.0
122
1.0
132
0.0
297
     0
302
LEADER{
290
     1
291
     1
 10
739.5402256261627
 20
208.4038811824057
 30
0.0
 11
1.0
 21
0.0
 31
0.0
 90
        0
 40
297.8624188094263
304
LEADER_LINE{
 10
693.1149681391894
 20
298.766856583036
 30
0.0
 91
        0
 92
-1056964608
305
}
271
     0
303
}
272
     9
273
     9
301
}
340
D8
 90
856161279
170
     1
 91
-1023410173
341
14
171
    -2
290
     1
291
     1
 41
297.8624188094263
342
639
 42
5.0
172
     2
343
537
173
     5
 95
        5
174
     1
175
     2
 92
-1023409921
292
     0
 93
-1056964608
 10
1.0
 20
1.0
 30
1.0
 43
0.0
176
     0
293
     0
294
     0
178
     0
179
     1
 45
1.0
271
     0
272
     9
273
     9
295
     1
  0
LINE
  5
65B5
330
1F
100
AcDbEntity
  8
_lines
100
AcDbLine
 10
1003.434070647238
 20
349.5085199136898
 30
0.0
 11
1012.588392213269
 21
354.5828432176501
 31
0.0
  0
LINE
  5
65B6
330
1F
100
AcDbEntity
  8
_lines
100
AcDbLine
 10
1012.588392213269
 20
354.5828432176501
 30
0.0
 11
991.965615105079
 21
351.1549296756008
 31
0.0
  0
LINE
  5
65B7
330
1F
100
AcDbEntity
  8
_lines
100
AcDbLine
 10
991.965615105079
 20
351.1549296756008
 30
0.0
 11
1001.11993667111
 21
356.229252979561
 31
0.0
  0
LINE
  5
65B8
330
1F
100
AcDbEntity
  8
_lines
100
AcDbLine
 10
1001.11993667111
 20
356.229252979561
 30
0.0
 11
969.5733025746872
 21
447.8473308764566
 31
0.0
  0
LINE
  5
65B9
330
1F
100
AcDbEntity
  8
_lines
100
AcDbLine
 10
1032.392435892407
 20
265.4073205689543
 30
0.0
 11
1003.434070647238
 21
349.5085199136898
 31
0.0
  0
LINE
  5
65BA
330
1F
100
AcDbEntity
  8
_lines
100
AcDbLine
 10
248.7862323020113
 20
265.4073205689534
 30
0.0
 11
277.7445975471842
 21
349.5085199136898
 31
0.0
  0
LINE
  5
65BB
330
1F
100
AcDbEntity
  8
_lines
100
AcDbLine
 10
248.7862323020113
 20
265.4073205689534
 30
0.0
 11
640.5893340972093
 21
130.4986936483261
 31
0.0
  0
LINE
  5
65BC
330
1F
100
AcDbEntity
  8
_pline
100
AcDbLine
 10
815.3525045207703
 20
503.6347012613929
 30
0.0
 11
640.5893340972093
 21
565.1540682174233
 31
0.0
1001
REVIT
1002
{
1070
     3
1000
113087
1002
}
  0
LINE
  5
65BD
330
1F
100
AcDbEntity
  8
_pline
100
AcDbLine
 10
640.5893340972093
 20
565.1540682174233
 30
0.0
 11
640.5893340972093
 21
603.0312897238751
 31
0.0
1001
REVIT
1002
{
1070
     3
1000
113087
1002
}
  0
LINE
  5
65BE
330
1F
100
AcDbEntity
  8
_pline
100
AcDbLine
 10
640.5893340972093
 20
603.0312897238751
 30
0.0
 11
815.3525045207703
 21
541.5119227678448
 31
0.0
1001
REVIT
1002
{
1070
     3
1000
113087
1002
}
  0
LINE
  5
65BF
330
1F
100
AcDbEntity
  8
_lines
  6
Dash
100
AcDbLine
 10
533.2165873412291
 20
360.3624819933262
 30
0.0
 11
541.7006859767012
 21
351.8783833578551
 31
0.0
  0
LINE
  5
65C0
330
1F
100
AcDbEntity
  8
_lines
  6
Dash
100
AcDbLine
 10
747.9620808531931
 20
360.3624819933253
 30
0.0
 11
739.4779822177211
 21
351.8783833578551
 31
0.0
  0
ARC
  5
65C1
330
1F
100
AcDbEntity
  8
_lines
  6
Dash
100
AcDbCircle
 10
529.6810534352976
 20
356.8269480873929
 30
0.0
 40
5.0
100
AcDbArc
 50
45.0000000000129
 51
161.0000000000002
  0
ARC
  5
65C2
330
1F
100
AcDbEntity
  8
_lines
  6
Dash
100
AcDbCircle
 10
751.4976147591246
 20
356.826948087392
 30
0.0
 40
5.0
100
AcDbArc
 50
19.00000000000126
 51
134.9999999999871
  0
INSERT
  5
65D1
102
{ACAD_REACTORS
330
65E4
102
}
330
1F
100
AcDbEntity
  8
GE FLASHING
 62
     1
 48
0.5
370
    -3
100
AcDbBlockReference
  2
G$C852D9098
 10
522.1984417212466
 20
282.5548496445314
 30
0.0
  0
LWPOLYLINE
  5
65D2
102
{ACAD_REACTORS
330
65DC
102
}
330
1F
100
AcDbEntity
  8
GE FLASHING
 62
     1
 48
0.5
370
    -3
100
AcDbPolyline
 90
        5
 70
     0
 43
0.55
 10
311.605365619735
 20
447.8473308764575
 10
565.5831787500451
 20
361.5485527543611
 42
-0.3207448189362624
 10
570.9962647372836
 20
353.9783561987512
 10
570.8836019043797
 20
352.640480116093
 10
562.9793190383666
 20
330.3973232284712
  0
LWPOLYLINE
  5
65D3
102
{ACAD_REACTORS
330
65DC
102
}
330
1F
100
AcDbEntity
  8
GE FLASHING
 62
     1
 48
0.5
370
    -3
100
AcDbPolyline
 90
        5
 70
     0
 43
0.55
 10
969.5733025746836
 20
447.8473308764575
 10
715.5954894443698
 20
361.5485527543611
 42
0.3207448189362624
 10
710.1824034571314
 20
353.9783561987512
 10
710.2950662900353
 20
352.640480116093
 10
718.199349156052
 20
330.3973232284712
  0
LWPOLYLINE
  5
65D4
330
1F
100
AcDbEntity
  8
_pline
100
AcDbPolyline
 90
        2
 70
     0
 43
0.0
 10
594.7824921764427
 20
734.483008288195
 10
598.3898638699161
 20
731.5229175733344
  0
LWPOLYLINE
  5
65D5
330
1F
100
AcDbEntity
  8
_pline
100
AcDbPolyline
 90
        2
 70
     0
 43
0.0
 10
595.4745291545537
 20
775.4251235348362
 10
517.118714331426
 20
839.72133130655
  0
DIMENSION
  5
65D6
102
{ACAD_REACTORS
330
65D8
102
}
102
{ACAD_XDICTIONARY
360
65D7
102
}
330
1F
100
AcDbEntity
  8
0
 62
     1
100
AcDbDimension
280
     0
  2
*D474
 10
631.6018174234916
 20
261.462543489071
 30
0.0
 11
603.2654119160146
 21
276.5076537726022
 31
0.0
 70
    33
 71
     5
 42
63.38161312329593
 73
     0
 74
     0
 75
     0
  3
DIM150
100
AcDbAlignedDimension
 13
577.8907964276318
 23
300.1544268469785
 33
0.0
 14
637.8192889871575
 24
279.5193920359094
 34
0.0
1001
ACAD
1000
DSTYLE
1002
{
1070
   347
1005
51D
1070
   346
1005
51D
1070
   345
1005
0
1070
   340
1005
521
1070
   341
1005
522
1070
   140
1040
8.0
1002
}
  0
DIMENSION
  5
65D9
330
1F
100
AcDbEntity
  8
0
 62
     1
100
AcDbDimension
280
     0
  2
*D475
 10
649.5768507709248
 20
261.4625434890708
 30
0.0
 11
677.9132562784031
 21
276.5076537726002
 31
0.0
 70
    33
 71
     5
 42
63.38161312329647
 73
     0
 74
     0
 75
     0
  3
DIM150
100
AcDbAlignedDimension
 13
703.2878717667877
 23
300.1544268469748
 33
0.0
 14
643.3593792072602
 24
279.5193920359094
 34
0.0
1001
ACAD
1000
DSTYLE
1002
{
1070
   347
1005
51D
1070
   346
1005
51D
1070
   345
1005
0
1070
   340
1005
521
1070
   341
1005
522
1070
   140
1040
8.0
1002
}
  0
DIMENSION
  5
65DA
102
{ACAD_REACTORS
330
65DC
102
}
102
{ACAD_XDICTIONARY
360
65DB
102
}
330
1F
100
AcDbEntity
  8
0
 62
     1
100
AcDbDimension
280
     0
  2
*D476
 10
710.1824034571314
 20
438.9602133699349
 30
0.0
 11
629.7475224334007
 21
456.3638841559044
 31
0.0
 70
   160
  1
\A1;50mm\P(Min. clearance between tiles)
 71
     5
 42
139.1861387198478
 73
     0
 74
     0
 75
     0
  3
DIM150
100
AcDbAlignedDimension
 13
570.9962647372836
 23
353.9783561987518
 33
0.0
 14
710.1824034571314
 24
353.9783561987518
 34
0.0
100
AcDbRotatedDimension
1001
ACAD
1000
DSTYLE
1002
{
1070
   347
1005
51D
1070
   346
1005
51D
1070
   345
1005
0
1070
   340
1005
521
1070
   341
1005
522
1070
   140
1040
8.0
1002
}
  0
DIMENSION
  5
65DD
102
{ACAD_REACTORS
330
65DF
102
}
102
{ACAD_XDICTIONARY
360
65DE
102
}
330
1F
100
AcDbEntity
  8
0
 62
     1
100
AcDbDimension
280
     0
  2
*D477
 10
579.9347720372033
 20
377.3060610526641
 30
0.0
 11
561.8855205782056
 21
397.121581195296
 31
0.0
 70
    33
  1
\A1;50mm min.
 71
     5
 42
47.42068395766475
 73
     0
 74
     0
 75
     0
  3
DIM150
100
AcDbAlignedDimension
 13
525.6675132017722
 23
366.6716552904996
 33
0.0
 14
570.264304337074
 24
350.5518697011381
 34
0.0
1001
ACAD
1000
DSTYLE
1002
{
1070
   347
1005
51D
1070
   346
1005
51D
1070
   345
1005
0
1070
   340
1005
521
1070
   341
1005
522
1070
   140
1040
8.0
1002
}
  0
MULTILEADER
  5
65E0
330
1F
100
AcDbEntity
  8
0
370
    -3
160
              1265
310
F1040000170000000C00000013000000993A00000C0000000E000000F1000000D8000000260000009F9DC120269C9140CA3269CE5BB37340000000000000000000000000000000000000000000000000000000000000F03F000000000000F03F000000000000000000000000000000003100310036002000560061006C006C
310
0065007900000000000A00000001000000FFFFFFFFFFFF2840000000000000F03F0000000000000000000000000000F03F00000000000000000000000000000000000000000000000000000000000000002200000041007200690061006C00000061007200690061006C002E00740074006600000000000000DC0000002600
310
00006E245826D62B9140CA3269CE5B737240000000000000000000000000000000000000000000000000000000000000F03F000000000000F03F000000000000000000000000000000005700690064006500200046006C0061007300680069006E00670000000D00000001000000FFFFFFFFFFFF2840000000000000F03F00
310
00000000000000000000000000F03F00000000000000000000000000000000000000000000000000000000000000002200000041007200690061006C00000061007200690061006C002E007400740066000000000000000C000000130000009A3A00000C0000000E000000030000005400000020000000020000001D2C4A6E
310
B01891401F88BE23B1307240000000000000000020841E8FBAE192401F88BE23B1307240000000000000000000000000000000000000000000000000000000000000F03F0C00000013000000112700000C0000001300000001000000880000001D00000023EF45847C4702C0344A82841ECA11C00000000000000000043BA3
310
3DC8BB8640344A82841ECA114023EF45847C4702C000000000000000004AB5264281A873400000000000000000000000000000000000000000000014400000000000000000000000000000000000000000000000000000000000000000000000000000F03F0C00000012000000FE7F00000C00000014000000010000003500
310
0000210000002600000005008000000000000E03F40902000000000000D0BF0000000000000000C00000000000340FC50000000C0000001400000002000000540000002000000002000000000000000000E0BF00000000000000000000000000000000000000000000F0BF0000000000000000000000000000000000000000
310
000000000000000000000000000000000000F03F080000001F000000880000001D000000000000000000F03F0000000000000000000000000000000000000000000000000000000000000000000000000000F03F0000000000000000000000000000000000000000000000000000000000000000000000000000F03F000000
310
0000000000000000000000000000000000000000000000000000000000000000000000F03F080000001F0000000C00000013000000891300000C00000012000000FF7F0000540000002000000002000000F38027BA0FCE864021AC14C8586173400000000000000000A226D061521C87401F88BE23B1307240000000000000
310
000000000000000000000000000000000000000000000000F03F0C0000001300000011270000540000002000000002000000A226D061521C87401F88BE23B130724000000000000000001D2C4A6EB01891401F88BE23B1307240000000000000000000000000000000000000000000000000000000000000F03F
100
AcDbMLeader
270
     2
300
CONTEXT_DATA{
 40
1.0
 10
1094.172295721953
 20
291.0432469790121
 30
0.0
 41
12.5
140
5.0
145
5.0
174
     5
175
     5
176
     2
177
     0
290
     1
304
{\C241;116 Valley \PWide Flashing}
 11
0.0
 21
0.0
 31
1.0
340
537
 12
1208.432186581435
 22
327.7099136456787
 32
0.0
 13
1.0
 23
0.0
 33
0.0
 42
0.0
 43
0.0
 44
0.0
 45
0.9600000000000001
170
     2
 90
-1023409921
171
     3
172
     5
 91
-939524096
141
1.5
 92
        0
291
     0
292
     0
173
     0
293
     0
142
0.0
143
0.0
294
     0
295
     0
296
     0
110
672.8004468463937
120
350.3280670789724
130
0.0
111
1.0
121
0.0
131
0.0
112
0.0
122
1.0
132
0.0
297
     0
302
LEADER{
290
     1
291
     1
 10
739.5402256261625
 20
291.0432469790121
 30
0.0
 11
1.0
 21
0.0
 31
0.0
 90
        0
 40
354.6320700957904
304
LEADER_LINE{
 10
727.4727738144288
 20
314.531557227329
 30
0.0
 91
        0
 92
-1056964608
305
}
271
     0
303
}
272
     9
273
     9
301
}
340
D8
 90
856161279
170
     1
 91
-1023410173
341
14
171
    -2
290
     1
291
     1
 41
354.6320700957904
342
639
 42
5.0
172
     2
343
537
173
     5
 95
        5
174
     1
175
     2
 92
-1023409921
292
     0
 93
-1056964608
 10
1.0
 20
1.0
 30
1.0
 43
0.0
176
     0
293
     0
294
     0
178
     0
179
     1
 45
1.0
271
     0
272
     9
273
     9
295
     1
  0
DIMENSION
  5
65E1
330
1F
100
AcDbEntity
  8
0
 62
     1
100
AcDbDimension
280
     0
  2
*D478
 10
701.2438961572117
 20
377.3060610526641
 30
0.0
 11
719.2931476162094
 21
397.121581195296
 31
0.0
 70
    33
  1
\A1;50mm min.
 71
     5
 42
47.42068395766475
 73
     0
 74
     0
 75
     0
  3
DIM150
100
AcDbAlignedDimension
 13
755.5111549926428
 23
366.6716552904996
 33
0.0
 14
710.914363857341
 24
350.5518697011381
 34
0.0
1001
ACAD
1000
DSTYLE
1002
{
1070
   347
1005
51D
1070
   346
1005
51D
1070
   345
1005
0
1070
   340
1005
521
1070
   341
1005
522
1070
   140
1040
8.0
1002
}
  0
DIMENSION
  5
65E2
102
{ACAD_REACTORS
330
65E4
102
}
102
{ACAD_XDICTIONARY
360
65E3
102
}
330
1F
100
AcDbEntity
  8
0
 62
     1
100
AcDbDimension
280
     0
  2
*D479
 10
640.6914940206675
 20
283.0548496445314
 30
0.0
 11
626.3581606873345
 21
369.4397655649251
 31
0.0
 70
   160
  1
\A1;50mm \Pmin.
 71
     5
 42
61.4430988580525
 73
     0
 74
     0
 75
     0
  3
DIM150
100
AcDbAlignedDimension
 13
522.6984417212466
 23
344.4979485025839
 33
0.0
 14
640.2492823488915
 24
283.0548496445314
 34
0.0
 50
90.0
100
AcDbRotatedDimension
1001
ACAD
1000
DSTYLE
1002
{
1070
   347
1005
51D
1070
   346
1005
51D
1070
   345
1005
0
1070
   340
1005
521
1070
   341
1005
522
1070
   140
1040
8.0
1002
}
  0
DIMENSION
  5
65E5
330
1F
100
AcDbEntity
  8
0
 62
     1
100
AcDbDimension
280
     0
  2
*D480
 10
574.3689735570983
 20
306.8138470176904
 30
0.0
 11
572.7085295659878
 21
316.925564781922
 31
0.0
 70
    33
  1
\A1;20
 71
     5
 42
17.88898100967111
 73
     0
 74
     0
 75
     0
  3
DIM150
100
AcDbAlignedDimension
 13
522.7609417212466
 23
344.4979485025839
 33
0.0
 14
516.6777624532565
 24
327.6750304573139
 34
0.0
1001
ACAD
1000
DSTYLE
1002
{
1070
   347
1005
51D
1070
   346
1005
51D
1070
   345
1005
0
1070
   340
1005
521
1070
   341
1005
522
1070
   140
1040
8.0
1002
}
  0
INSERT
  5
65E6
330
1F
100
AcDbEntity
  8
_lines
 62
     1
 48
0.5
370
    -3
100
AcDbBlockReference
  2
G$CB224E557
 10
502.6073051349563
 20
339.9846765832805
 30
0.0
  0
INSERT
  5
65E7
330
1F
100
AcDbEntity
  8
_lines
 62
     1
 48
0.5
370
    -3
100
AcDbBlockReference
  2
G$CB224E557
 10
778.5713630594696
 20
339.9846765832677
 30
0.0
 41
-1.0
 50
359.9999999999949
  0
ENDSEC
  0
SECTION
  2
OBJECTS
  0
DICTIONARY
  5
C
330
0
100
AcDbDictionary
281
     1
  3
ACAD_CIP_PREVIOUS_PRODUCT_INFO
350
1A5
  3
ACAD_COLOR
350
73
  3
ACAD_DETAILVIEWSTYLE
350
1AB
  3
ACAD_DGNDEFINITIONS
350
50A
  3
ACAD_DWFDEFINITIONS
350
509
  3
ACAD_GROUP
350
D
  3
ACAD_LAYOUT
350
1A
  3
ACAD_MATERIAL
350
72
  3
ACAD_MLEADERSTYLE
350
D7
  3
ACAD_MLINESTYLE
350
17
  3
ACAD_PDFDEFINITIONS
350
508
  3
ACAD_PLOTSETTINGS
350
19
  3
ACAD_PLOTSTYLENAME
350
E
  3
ACAD_SCALELIST
350
B6
  3
ACAD_SECTIONVIEWSTYLE
350
1A8
  3
ACAD_TABLESTYLE
350
86
  3
ACAD_VISUALSTYLE
350
99
  3
ACDB_RECOMPOSE_DATA
350
6694
  3
AcDbVariableDictionary
350
66
  0
SUN
  5
20C
330
94
100
AcDbSun
 90
        1
290
     0
 63
     7
421
 16777215
 40
1.0
291
     1
 91
  2455826
 92
 54000000
292
     0
 70
     2
 71
   256
280
     1
  0
DICTIONARY
  5
18E
330
2
100
AcDbDictionary
280
     1
281
     1
  3
ACAD_LAYERSTATES
360
18F
  0
DICTIONARY
  5
50C
330
50B
100
AcDbDictionary
280
     1
281
     1
  3
ADSK_XREC_LAYER_RECONCILED
360
50D
  0
DICTIONARY
  5
511
330
510
100
AcDbDictionary
280
     1
281
     1
  3
ADSK_XREC_LAYER_RECONCILED
360
512
  0
DICTIONARY
  5
514
330
513
100
AcDbDictionary
280
     1
281
     1
  3
ADSK_XREC_LAYER_RECONCILED
360
515
  0
DICTIONARY
  5
517
330
516
100
AcDbDictionary
280
     1
281
     1
  3
ADSK_XREC_LAYER_RECONCILED
360
518
  0
DICTIONARY
  5
51A
330
519
100
AcDbDictionary
280
     1
281
     1
  3
ADSK_XREC_LAYER_RECONCILED
360
51B
  0
DICTIONARY
  5
80B
330
80A
100
AcDbDictionary
280
     1
281
     1
  3
ADSK_XREC_LAYER_RECONCILED
360
80C
  0
DICTIONARY
  5
811
330
810
100
AcDbDictionary
280
     1
281
     1
  3
ADSK_XREC_LAYER_RECONCILED
360
812
  0
DICTIONARY
  5
1767
330
1766
100
AcDbDictionary
280
     1
281
     1
  3
ADSK_XREC_LAYER_RECONCILED
360
1768
  0
DICTIONARY
  5
62A5
330
62A4
100
AcDbDictionary
280
     1
281
     1
  3
ADSK_XREC_LAYER_RECONCILED
360
62A6
  0
DICTIONARY
  5
607
330
606
100
AcDbDictionary
280
     1
281
     1
  3
ACAD_SORTENTS
360
608
  0
DICTIONARY
  5
615
330
614
100
AcDbDictionary
280
     1
281
     1
  3
ACAD_SORTENTS
360
616
  0
DICTIONARY
  5
64B
330
64A
100
AcDbDictionary
280
     1
281
     1
  3
ACAD_SORTENTS
360
64C
  0
DICTIONARY
  5
187C
330
187B
100
AcDbDictionary
280
     1
281
     1
  3
ACAD_SORTENTS
360
187D
  0
DICTIONARY
  5
1883
330
1882
100
AcDbDictionary
280
     1
281
     1
  3
ACAD_SORTENTS
360
1884
  0
DICTIONARY
  5
1890
330
188F
100
AcDbDictionary
280
     1
281
     1
  3
ACAD_SORTENTS
360
1891
  0
DICTIONARY
  5
1F7D
330
1F7C
100
AcDbDictionary
280
     1
281
     1
  3
ACAD_SORTENTS
360
1F7E
  0
DICTIONARY
  5
2190
330
218F
100
AcDbDictionary
280
     1
281
     1
  3
ACAD_SORTENTS
360
2191
  0
DICTIONARY
  5
237B
330
237A
100
AcDbDictionary
280
     1
281
     1
  3
ACAD_SORTENTS
360
237C
  0
DICTIONARY
  5
24C3
330
24C2
100
AcDbDictionary
280
     1
281
     1
  3
ACAD_SORTENTS
360
24C4
  0
DICTIONARY
  5
26E1
330
26E0
100
AcDbDictionary
280
     1
281
     1
  3
ACAD_SORTENTS
360
26E2
  0
DICTIONARY
  5
4AD8
330
4AD7
100
AcDbDictionary
280
     1
281
     1
  3
ACAD_SORTENTS
360
4AD9
  0
DICTIONARY
  5
5870
330
586F
100
AcDbDictionary
280
     1
281
     1
  3
ACAD_SORTENTS
360
5871
  0
DICTIONARY
  5
63E8
330
63E7
100
AcDbDictionary
280
     1
281
     1
  3
ACAD_SORTENTS
360
63E9
  0
DICTIONARY
  5
6457
330
6456
100
AcDbDictionary
280
     1
281
     1
  3
ACAD_SORTENTS
360
6458
  0
DICTIONARY
  5
65D7
330
65D6
100
AcDbDictionary
280
     1
281
     1
  3
ACAD_DIMASSOC
360
65D8
  0
DICTIONARY
  5
65DB
330
65DA
100
AcDbDictionary
280
     1
281
     1
  3
ACAD_DIMASSOC
360
65DC
  0
DICTIONARY
  5
65DE
330
65DD
100
AcDbDictionary
280
     1
281
     1
  3
ACAD_DIMASSOC
360
65DF
  0
DICTIONARY
  5
65E3
330
65E2
100
AcDbDictionary
280
     1
281
     1
  3
ACAD_DIMASSOC
360
65E4
  0
XRECORD
  5
1A5
102
{ACAD_REACTORS
330
C
102
}
330
C
100
AcDbXrecord
280
     1
300
ACD
300
2019
300

  0
DICTIONARY
  5
73
102
{ACAD_REACTORS
330
C
102
}
330
C
100
AcDbDictionary
281
     1
  0
DICTIONARY
  5
1AB
102
{ACAD_REACTORS
330
C
102
}
330
C
100
AcDbDictionary
281
     1
  3
Imperial24
350
1AC
  0
DICTIONARY
  5
50A
102
{ACAD_REACTORS
330
C
102
}
330
C
100
AcDbDictionary
281
     1
  0
DICTIONARY
  5
509
102
{ACAD_REACTORS
330
C
102
}
330
C
100
AcDbDictionary
281
     1
  0
DICTIONARY
  5
D
102
{ACAD_REACTORS
330
C
102
}
330
C
100
AcDbDictionary
281
     1
  0
DICTIONARY
  5
1A
102
{ACAD_REACTORS
330
C
102
}
330
C
100
AcDbDictionary
281
     1
  3
Layout1
350
59
  3
Layout2
350
5E
  3
Model
350
22
  0
DICTIONARY
  5
72
102
{ACAD_REACTORS
330
C
102
}
330
C
100
AcDbDictionary
281
     1
  3
ByBlock
350
97
  3
ByLayer
350
96
  3
Global
350
98
  0
DICTIONARY
  5
D7
102
{ACAD_REACTORS
330
C
102
}
330
C
100
AcDbDictionary
281
     1
  3
Annotative
350
E5
  3
Standard
350
D8
  0
DICTIONARY
  5
17
102
{ACAD_REACTORS
330
C
102
}
330
C
100
AcDbDictionary
281
     1
  3
Standard
350
18
  0
DICTIONARY
  5
508
102
{ACAD_REACTORS
330
C
102
}
330
C
100
AcDbDictionary
281
     1
  0
DICTIONARY
  5
19
102
{ACAD_REACTORS
330
C
102
}
330
C
100
AcDbDictionary
281
     1
  0
ACDBDICTIONARYWDFLT
  5
E
102
{ACAD_REACTORS
330
C
102
}
330
C
100
AcDbDictionary
281
     1
  3
Normal
350
F
100
AcDbDictionaryWithDefault
340
F
  0
DICTIONARY
  5
B6
102
{ACAD_REACTORS
330
C
102
}
330
C
100
AcDbDictionary
281
     1
  3
A0
350
B7
  3
A1
350
124
  3
A2
350
125
  3
A3
350
126
  3
A4
350
127
  3
A5
350
128
  3
A6
350
129
  3
A7
350
12A
  3
A8
350
12B
  3
A9
350
12C
  3
B0
350
12D
  3
B1
350
12E
  3
B2
350
12F
  3
B3
350
130
  3
B4
350
131
  3
B5
350
132
  3
B6
350
133
  3
B7
350
134
  3
B8
350
135
  3
B9
350
136
  3
C0
350
137
  3
C1
350
138
  3
C2
350
139
  3
C3
350
13A
  3
C4
350
13B
  3
C5
350
13C
  3
C6
350
13D
  3
C7
350
13E
  3
C8
350
13F
  3
C9
350
140
  3
D0
350
141
  3
D1
350
142
  3
D2
350
143
  0
DICTIONARY
  5
1A8
102
{ACAD_REACTORS
330
C
102
}
330
C
100
AcDbDictionary
281
     1
  3
Imperial24
350
1AA
  0
DICTIONARY
  5
86
102
{ACAD_REACTORS
330
C
102
}
330
C
100
AcDbDictionary
281
     1
  3
Standard
350
87
  0
DICTIONARY
  5
99
102
{ACAD_REACTORS
330
C
102
}
330
C
100
AcDbDictionary
281
     1
  3
2dWireframe
350
9F
  3
Basic
350
9E
  3
Brighten
350
A5
  3
ColorChange
350
A9
  3
Conceptual
350
A2
  3
Dim
350
A4
  3
EdgeColorOff
350
175
  3
Facepattern
350
A8
  3
Flat
350
9A
  3
FlatWithEdges
350
9B
  3
Gouraud
350
9C
  3
GouraudWithEdges
350
9D
  3
Hidden
350
A1
  3
JitterOff
350
173
  3
Linepattern
350
A7
  3
OverhangOff
350
174
  3
Realistic
350
A3
  3
Shaded
350
182
  3
Shaded with edges
350
181
  3
Shades of Gray
350
17E
  3
Sketchy
350
17F
  3
Thicken
350
A6
  3
Wireframe
350
A0
  3
X-Ray
350
180
  0
XRECORD
  5
6694
102
{ACAD_REACTORS
330
C
102
}
330
C
100
AcDbXrecord
280
     1
 90
        1
330
87
  0
DICTIONARY
  5
66
102
{ACAD_REACTORS
330
C
102
}
330
C
100
AcDbDictionary
281
     1
  3
CANNOSCALE
350
F0
  3
CMLEADERSTYLE
350
EF
  3
CTABLESTYLE
350
89
  3
CVIEWDETAILSTYLE
350
1B7
  3
CVIEWSECTIONSTYLE
350
1B8
  3
DIMASSOC
350
67
  3
HIDETEXT
350
6B
  3
LAYEREVAL
350
14D
  3
LAYERNOTIFY
350
14E
  0
DICTIONARY
  5
18F
102
{ACAD_REACTORS
330
18E
102
}
330
18E
100
AcDbDictionary
281
     1
  0
XRECORD
  5
50D
102
{ACAD_REACTORS
330
50C
102
}
330
50C
100
AcDbXrecord
280
     1
290
     0
  0
XRECORD
  5
512
102
{ACAD_REACTORS
330
511
102
}
330
511
100
AcDbXrecord
280
     1
290
     1
  0
XRECORD
  5
515
102
{ACAD_REACTORS
330
514
102
}
330
514
100
AcDbXrecord
280
     1
290
     0
  0
XRECORD
  5
518
102
{ACAD_REACTORS
330
517
102
}
330
517
100
AcDbXrecord
280
     1
290
     0
  0
XRECORD
  5
51B
102
{ACAD_REACTORS
330
51A
102
}
330
51A
100
AcDbXrecord
280
     1
290
     0
  0
XRECORD
  5
80C
102
{ACAD_REACTORS
330
80B
102
}
330
80B
100
AcDbXrecord
280
     1
290
     0
  0
XRECORD
  5
812
102
{ACAD_REACTORS
330
811
102
}
330
811
100
AcDbXrecord
280
     1
290
     0
  0
XRECORD
  5
1768
102
{ACAD_REACTORS
330
1767
102
}
330
1767
100
AcDbXrecord
280
     1
290
     0
  0
XRECORD
  5
62A6
102
{ACAD_REACTORS
330
62A5
102
}
330
62A5
100
AcDbXrecord
280
     1
290
     0
  0
SORTENTSTABLE
  5
608
102
{ACAD_REACTORS
330
607
102
}
330
607
100
AcDbSortentsTable
330
606
  0
SORTENTSTABLE
  5
616
102
{ACAD_REACTORS
330
615
102
}
330
615
100
AcDbSortentsTable
330
614
  0
SORTENTSTABLE
  5
64C
102
{ACAD_REACTORS
330
64B
102
}
330
64B
100
AcDbSortentsTable
330
64A
  0
SORTENTSTABLE
  5
187D
102
{ACAD_REACTORS
330
187C
102
}
330
187C
100
AcDbSortentsTable
330
187B
  0
SORTENTSTABLE
  5
1884
102
{ACAD_REACTORS
330
1883
102
}
330
1883
100
AcDbSortentsTable
330
1882
  0
SORTENTSTABLE
  5
1891
102
{ACAD_REACTORS
330
1890
102
}
330
1890
100
AcDbSortentsTable
330
188F
  0
SORTENTSTABLE
  5
1F7E
102
{ACAD_REACTORS
330
1F7D
102
}
330
1F7D
100
AcDbSortentsTable
330
1F7C
  0
SORTENTSTABLE
  5
2191
102
{ACAD_REACTORS
330
2190
102
}
330
2190
100
AcDbSortentsTable
330
218F
  0
SORTENTSTABLE
  5
237C
102
{ACAD_REACTORS
330
237B
102
}
330
237B
100
AcDbSortentsTable
330
237A
  0
SORTENTSTABLE
  5
24C4
102
{ACAD_REACTORS
330
24C3
102
}
330
24C3
100
AcDbSortentsTable
330
24C2
  0
SORTENTSTABLE
  5
26E2
102
{ACAD_REACTORS
330
26E1
102
}
330
26E1
100
AcDbSortentsTable
330
26E0
  0
SORTENTSTABLE
  5
4AD9
102
{ACAD_REACTORS
330
4AD8
102
}
330
4AD8
100
AcDbSortentsTable
330
4AD7
  0
SORTENTSTABLE
  5
5871
102
{ACAD_REACTORS
330
5870
102
}
330
5870
100
AcDbSortentsTable
330
586F
  0
SORTENTSTABLE
  5
63E9
102
{ACAD_REACTORS
330
63E8
102
}
330
63E8
100
AcDbSortentsTable
330
63E7
  0
SORTENTSTABLE
  5
6458
102
{ACAD_REACTORS
330
6457
102
}
330
6457
100
AcDbSortentsTable
330
6456
  0
DIMASSOC
  5
65D8
102
{ACAD_REACTORS
330
65D7
102
}
330
65D7
100
AcDbDimAssoc
330
65D6
 90
        1
 70
     0
 71
     0
  1
AcDbOsnapPointRef
 72
     1
331
6590
 73
     2
 91
        0
 40
1.0
 10
0.0
 20
0.0
 30
2.000000000000000E+50
 75
     0
  0
DIMASSOC
  5
65DC
102
{ACAD_REACTORS
330
65DB
102
}
330
65DB
100
AcDbDimAssoc
330
65DA
 90
        3
 70
     0
 71
     0
  1
AcDbOsnapPointRef
 72
     5
331
65D2
 73
     2
 91
        2
 40
0.0000000000000142
 10
0.0
 20
0.0
 30
0.0
 75
     0
  1
AcDbOsnapPointRef
 72
     5
331
65D3
 73
     2
 91
        2
 40
3.141592653589722
 10
0.0
 20
0.0
 30
0.0
 75
     0
  0
DIMASSOC
  5
65DF
102
{ACAD_REACTORS
330
65DE
102
}
330
65DE
100
AcDbDimAssoc
330
65DD
 90
        3
 70
     0
 71
     0
  1
AcDbOsnapPointRef
 72
    13
331
659D
 73
     2
 91
        0
 40
0.0
 10
0.0
 20
0.0
 30
2.000000000000000E+50
 75
     0
  1
AcDbOsnapPointRef
 72
     8
331
6520
 73
     2
 91
        0
 40
0.0338916919509705
 10
0.0
 20
0.0
 30
0.0
 75
     0
  0
DIMASSOC
  5
65E4
102
{ACAD_REACTORS
330
65E3
102
}
330
65E3
100
AcDbDimAssoc
330
65E2
 90
        3
 70
     0
 71
     0
  1
AcDbOsnapPointRef
 72
    13
331
65D1
331
63EB
 73
     2
 91
        2
 40
0.0
 10
0.0
 20
0.0
 30
2.000000000000000E+50
 75
     0
  1
AcDbOsnapPointRef
 72
     2
331
65D1
331
63EB
 73
     2
 91
        4
 40
4.71238898038469
 10
0.0
 20
0.0
 30
0.0
 75
     0
  0
ACDBDETAILVIEWSTYLE
  5
1AC
102
{ACAD_REACTORS
330
1AB
102
}
330
1AB
100
AcDbModelDocViewStyle
 70
     0
  3
Imperial24
290
     0
300
Imperial24
 90
        0
100
AcDbDetailViewStyle
 70
     0
 71
     0
 90
        3
 71
     1
340
11
 62
   256
 40
0.24
340
0
 62
   256
 40
0.24
300

 40
0.36
280
     3
 71
     2
340
16
 90
       25
 62
   256
 71
     3
340
11
 62
   256
 40
0.24
 90
        1
 40
0.75
 90
        1
300
%<\AcVar ViewType \f "%tc1">% %<\AcVar ViewDetailId>%\PSCALE %<\AcVar ViewScale \f "%sn">%
 71
     4
340
16
 90
       25
 62
   256
340
16
 90
       25
 62
   256
280
     0
  0
LAYOUT
  5
59
102
{ACAD_REACTORS
330
1A
102
}
330
1A
100
AcDbPlotSettings
  1

  2
None
  4

  6

 40
0.0
 41
0.0
 42
0.0
 43
0.0
 44
0.0
 45
0.0
 46
0.0
 47
0.0
 48
0.0
 49
0.0
140
0.0
141
0.0
142
1.0
143
1.0
 70
   688
 72
     0
 73
     0
 74
     5
  7

 75
    16
 76
     0
 77
     2
 78
   300
147
1.0
148
0.0
149
0.0
100
AcDbLayout
  1
Layout1
 70
     1
 71
     1
 10
0.0
 20
0.0
 11
12.0
 21
9.0
 12
0.0
 22
0.0
 32
0.0
 14
2.121518365837346
 24
1.490733711908092
 34
0.0
 15
1272.136314479724
 25
939.834999082144
 35
0.0
146
0.0
 13
0.0
 23
0.0
 33
0.0
 16
1.0
 26
0.0
 36
0.0
 17
0.0
 27
1.0
 37
0.0
 76
     0
330
58
  0
LAYOUT
  5
5E
102
{ACAD_REACTORS
330
1A
102
}
330
1A
100
AcDbPlotSettings
  1

  2
None
  4

  6

 40
0.0
 41
0.0
 42
0.0
 43
0.0
 44
0.0
 45
0.0
 46
0.0
 47
0.0
 48
0.0
 49
0.0
140
0.0
141
0.0
142
1.0
143
1.0
 70
   688
 72
     0
 73
     0
 74
     5
  7

 75
    16
 76
     0
 77
     2
 78
   300
147
1.0
148
0.0
149
0.0
100
AcDbLayout
  1
Layout2
 70
     1
 71
     2
 10
0.0
 20
0.0
 11
12.0
 21
9.0
 12
0.0
 22
0.0
 32
0.0
 14
0.0
 24
0.0
 34
0.0
 15
0.0
 25
0.0
 35
0.0
146
0.0
 13
0.0
 23
0.0
 33
0.0
 16
1.0
 26
0.0
 36
0.0
 17
0.0
 27
1.0
 37
0.0
 76
     0
330
5D
  0
LAYOUT
  5
22
102
{ACAD_REACTORS
330
1A
102
}
330
1A
100
AcDbPlotSettings
  1

  2
none_device
  4
ANSI_A_(8.50_x_11.00_Inches)
  6

 40
6.349999904632568
 41
19.04999923706055
 42
6.350006103515625
 43
19.04998779296875
 44
215.8999938964844
 45
279.3999938964844
 46
0.0
 47
0.0
 48
0.0
 49
0.0
140
0.0
141
0.0
142
1.0
143
2.584895464708374
 70
 11952
 72
     0
 73
     1
 74
     0
  7

 75
     0
 76
     0
 77
     2
 78
   300
147
0.3868628397755418
148
0.0
149
0.0
100
AcDbLayout
  1
Model
 70
     1
 71
     0
 10
0.0
 20
0.0
 11
12.0
 21
9.0
 12
0.0
 22
0.0
 32
0.0
 14
0.0
 24
0.0
 34
0.0
 15
0.0
 25
0.0
 35
0.0
146
0.0
 13
0.0
 23
0.0
 33
0.0
 16
1.0
 26
0.0
 36
0.0
 17
0.0
 27
1.0
 37
0.0
 76
     0
330
1F
331
94
  0
MATERIAL
  5
97
102
{ACAD_REACTORS
330
72
102
}
102
{ACAD_XDICTIONARY
360
188
102
}
330
72
100
AcDbMaterial
  1
ByBlock
 72
     1
 73
     2
 78
     2
172
     2
176
     2
270
     2
274
     2
 94
       63
  0
MATERIAL
  5
96
102
{ACAD_REACTORS
330
72
102
}
102
{ACAD_XDICTIONARY
360
186
102
}
330
72
100
AcDbMaterial
  1
ByLayer
 72
     1
 73
     2
 78
     2
172
     2
176
     2
270
     2
274
     2
 94
       63
  0
MATERIAL
  5
98
102
{ACAD_REACTORS
330
72
102
}
102
{ACAD_XDICTIONARY
360
110
102
}
330
72
100
AcDbMaterial
  1
Global
 72
     1
 73
     2
 43
0.0208000000566244
 43
0.0
 43
0.0
 43
0.0
 43
0.0
 43
0.0208000000566244
 43
0.0
 43
0.0
 43
0.0
 43
0.0
 43
1.0
 43
0.0
 43
0.0
 43
0.0
 43
0.0
 43
1.0
 78
     2
172
     2
 49
0.0208000000566244
 49
0.0
 49
0.0
 49
0.0
 49
0.0
 49
0.0208000000566244
 49
0.0
 49
0.0
 49
0.0
 49
0.0
 49
1.0
 49
0.0
 49
0.0
 49
0.0
 49
0.0
 49
1.0
176
     2
142
0.0208000000566244
142
0.0
142
0.0
142
0.0
142
0.0
142
0.0208000000566244
142
0.0
142
0.0
142
0.0
142
0.0
142
1.0
142
0.0
142
0.0
142
0.0
142
0.0
142
1.0
270
     2
144
0.0208000000566244
144
0.0
144
0.0
144
0.0
144
0.0
144
0.0208000000566244
144
0.0
144
0.0
144
0.0
144
0.0
144
1.0
144
0.0
144
0.0
144
0.0
144
0.0
144
1.0
274
     2
 94
       63
1001
ACAD
1070
    -1
1070
     3
1070
     0
1000

1071
        0
1070
     0
  0
MLEADERSTYLE
  5
E5
102
{ACAD_REACTORS
330
D7
102
}
330
D7
100
AcDbMLeaderStyle
179
     2
170
     2
171
     1
172
     0
 90
        2
 40
0.0
 41
0.0
173
     1
 91
-1056964608
340
14
 92
       -2
290
     1
 42
0.09
291
     1
 43
0.36
  3
Standard
341
0
 44
0.18
300

342
11
174
     1
178
     1
175
     1
176
     0
 93
-1056964608
 45
0.18
292
     0
297
     0
 46
0.18
343
0
 94
-1056964608
 47
1.0
 49
1.0
140
1.0
293
     1
141
0.0
294
     1
177
     0
142
1.0
295
     0
296
     1
143
0.125
271
     0
272
     9
273
     9
298
     0
  0
MLEADERSTYLE
  5
D8
102
{ACAD_REACTORS
330
65AC
330
65AD
330
65AE
330
65B2
330
65B4
330
65AB
330
65B1
330
65B0
330
65AF
330
65B3
330
65E0
330
D7
102
}
330
D7
100
AcDbMLeaderStyle
179
     2
170
     2
171
     1
172
     0
 90
        2
 40
0.0
 41
0.0
173
     1
 91
-1056964608
340
14
 92
       -2
290
     1
 42
0.09
291
     1
 43
0.36
  3
Standard
341
0
 44
0.18
300

342
11
174
     1
178
     1
175
     1
176
     0
 93
-1056964608
 45
0.18
292
     0
297
     0
 46
0.18
343
0
 94
-1056964608
 47
1.0
 49
1.0
140
1.0
293
     1
141
0.0
294
     1
177
     0
142
1.0
295
     0
296
     0
143
0.125
271
     0
272
     9
273
     9
298
     0
  0
MLINESTYLE
  5
18
102
{ACAD_REACTORS
330
17
102
}
330
17
100
AcDbMlineStyle
  2
STANDARD
 70
     0
  3

 62
   256
 51
90.0
 52
90.0
 71
     2
 49
0.5
 62
   256
  6
BYLAYER
 49
-0.5
 62
   256
  6
BYLAYER
  0
ACDBPLACEHOLDER
  5
F
102
{ACAD_REACTORS
330
E
102
}
330
E
  0
SCALE
  5
B7
102
{ACAD_REACTORS
330
B6
102
}
330
B6
100
AcDbScale
 70
     0
300
1:1
140
1.0
141
1.0
290
     1
  0
SCALE
  5
124
102
{ACAD_REACTORS
330
B6
102
}
330
B6
100
AcDbScale
 70
     0
300
1:2
140
1.0
141
2.0
290
     0
  0
SCALE
  5
125
102
{ACAD_REACTORS
330
B6
102
}
330
B6
100
AcDbScale
 70
     0
300
1:4
140
1.0
141
4.0
290
     0
  0
SCALE
  5
126
102
{ACAD_REACTORS
330
B6
102
}
330
B6
100
AcDbScale
 70
     0
300
1:5
140
1.0
141
5.0
290
     0
  0
SCALE
  5
127
102
{ACAD_REACTORS
330
B6
102
}
330
B6
100
AcDbScale
 70
     0
300
1:8
140
1.0
141
8.0
290
     0
  0
SCALE
  5
128
102
{ACAD_REACTORS
330
B6
102
}
330
B6
100
AcDbScale
 70
     0
300
1:10
140
1.0
141
10.0
290
     0
  0
SCALE
  5
129
102
{ACAD_REACTORS
330
B6
102
}
330
B6
100
AcDbScale
 70
     0
300
1:16
140
1.0
141
16.0
290
     0
  0
SCALE
  5
12A
102
{ACAD_REACTORS
330
B6
102
}
330
B6
100
AcDbScale
 70
     0
300
1:20
140
1.0
141
20.0
290
     0
  0
SCALE
  5
12B
102
{ACAD_REACTORS
330
B6
102
}
330
B6
100
AcDbScale
 70
     0
300
1:30
140
1.0
141
30.0
290
     0
  0
SCALE
  5
12C
102
{ACAD_REACTORS
330
B6
102
}
330
B6
100
AcDbScale
 70
     0
300
1:40
140
1.0
141
40.0
290
     0
  0
SCALE
  5
12D
102
{ACAD_REACTORS
330
B6
102
}
330
B6
100
AcDbScale
 70
     0
300
1:50
140
1.0
141
50.0
290
     0
  0
SCALE
  5
12E
102
{ACAD_REACTORS
330
B6
102
}
330
B6
100
AcDbScale
 70
     0
300
1:100
140
1.0
141
100.0
290
     0
  0
SCALE
  5
12F
102
{ACAD_REACTORS
330
B6
102
}
330
B6
100
AcDbScale
 70
     0
300
2:1
140
2.0
141
1.0
290
     0
  0
SCALE
  5
130
102
{ACAD_REACTORS
330
B6
102
}
330
B6
100
AcDbScale
 70
     0
300
4:1
140
4.0
141
1.0
290
     0
  0
SCALE
  5
131
102
{ACAD_REACTORS
330
B6
102
}
330
B6
100
AcDbScale
 70
     0
300
8:1
140
8.0
141
1.0
290
     0
  0
SCALE
  5
132
102
{ACAD_REACTORS
330
B6
102
}
330
B6
100
AcDbScale
 70
     0
300
10:1
140
10.0
141
1.0
290
     0
  0
SCALE
  5
133
102
{ACAD_REACTORS
330
B6
102
}
330
B6
100
AcDbScale
 70
     0
300
100:1
140
100.0
141
1.0
290
     0
  0
SCALE
  5
134
102
{ACAD_REACTORS
330
B6
102
}
330
B6
100
AcDbScale
 70
     0
300
1/128" = 1'-0"
140
0.0078125
141
12.0
290
     0
  0
SCALE
  5
135
102
{ACAD_REACTORS
330
B6
102
}
330
B6
100
AcDbScale
 70
     0
300
1/64" = 1'-0"
140
0.015625
141
12.0
290
     0
  0
SCALE
  5
136
102
{ACAD_REACTORS
330
B6
102
}
330
B6
100
AcDbScale
 70
     0
300
1/32" = 1'-0"
140
0.03125
141
12.0
290
     0
  0
SCALE
  5
137
102
{ACAD_REACTORS
330
B6
102
}
330
B6
100
AcDbScale
 70
     0
300
1/16" = 1'-0"
140
0.0625
141
12.0
290
     0
  0
SCALE
  5
138
102
{ACAD_REACTORS
330
B6
102
}
330
B6
100
AcDbScale
 70
     0
300
3/32" = 1'-0"
140
0.09375
141
12.0
290
     0
  0
SCALE
  5
139
102
{ACAD_REACTORS
330
B6
102
}
330
B6
100
AcDbScale
 70
     0
300
1/8" = 1'-0"
140
0.125
141
12.0
290
     0
  0
SCALE
  5
13A
102
{ACAD_REACTORS
330
B6
102
}
330
B6
100
AcDbScale
 70
     0
300
3/16" = 1'-0"
140
0.1875
141
12.0
290
     0
  0
SCALE
  5
13B
102
{ACAD_REACTORS
330
B6
102
}
330
B6
100
AcDbScale
 70
     0
300
1/4" = 1'-0"
140
0.25
141
12.0
290
     0
  0
SCALE
  5
13C
102
{ACAD_REACTORS
330
B6
102
}
330
B6
100
AcDbScale
 70
     0
300
3/8" = 1'-0"
140
0.375
141
12.0
290
     0
  0
SCALE
  5
13D
102
{ACAD_REACTORS
330
B6
102
}
330
B6
100
AcDbScale
 70
     0
300
1/2" = 1'-0"
140
0.5
141
12.0
290
     0
  0
SCALE
  5
13E
102
{ACAD_REACTORS
330
B6
102
}
330
B6
100
AcDbScale
 70
     0
300
3/4" = 1'-0"
140
0.75
141
12.0
290
     0
  0
SCALE
  5
13F
102
{ACAD_REACTORS
330
B6
102
}
330
B6
100
AcDbScale
 70
     0
300
1" = 1'-0"
140
1.0
141
12.0
290
     0
  0
SCALE
  5
140
102
{ACAD_REACTORS
330
B6
102
}
330
B6
100
AcDbScale
 70
     0
300
1-1/2" = 1'-0"
140
1.5
141
12.0
290
     0
  0
SCALE
  5
141
102
{ACAD_REACTORS
330
B6
102
}
330
B6
100
AcDbScale
 70
     0
300
3" = 1'-0"
140
3.0
141
12.0
290
     0
  0
SCALE
  5
142
102
{ACAD_REACTORS
330
B6
102
}
330
B6
100
AcDbScale
 70
     0
300
6" = 1'-0"
140
6.0
141
12.0
290
     0
  0
SCALE
  5
143
102
{ACAD_REACTORS
330
B6
102
}
330
B6
100
AcDbScale
 70
     0
300
1'-0" = 1'-0"
140
12.0
141
12.0
290
     0
  0
ACDBSECTIONVIEWSTYLE
  5
1AA
102
{ACAD_REACTORS
330
1A8
102
}
330
1A8
100
AcDbModelDocViewStyle
 70
     0
  3
Imperial24
290
     0
300
Imperial24
 90
        0
100
AcDbSectionViewStyle
 70
     0
 71
     0
 90
       78
 71
     1
340
11
 62
   256
 40
0.24
340
0
340
0
 62
   256
 40
0.24
300
I, O, Q, S, X, Z
 40
0.48
 90
        3
 40
0.18
 90
        1
 71
     2
340
16
 90
       25
 62
   256
340
16
 90
       50
 62
   256
 40
0.24
 40
0.0
 40
0.24
 71
     3
340
11
 62
   256
 40
0.24
 90
        1
 40
0.75
 90
        1
300
%<\AcVar ViewType \f "%tc1">% %<\AcVar ViewSectionStartId>%-%<\AcVar ViewSectionEndId>%\PSCALE %<\AcVar ViewScale \f "%sn">%
 71
     4
 62
   256
 62
   257
300
ANSI31
 40
1.0
 90
        0
290
     0
290
     0
 90
        6
 40
0.0
 40
1.570796326794897
 40
0.2617993877991494
 40
1.308996938995747
 40
-0.2617993877991494
 40
1.832595714594046
  0
TABLESTYLE
  5
87
102
{ACAD_REACTORS
330
86
102
}
102
{ACAD_XDICTIONARY
360
6692
102
}
330
86
100
AcDbTableStyle
  3
Standard
 70
     0
 71
     0
 40
0.06
 41
0.06
280
     0
281
     0
  7
Standard
140
0.18
170
     2
 62
     0
 63
   257
283
     0
 90
      512
 91
        0
  1

274
    -2
284
     1
 64
     0
275
    -2
285
     1
 65
     0
276
    -2
286
     1
 66
     0
277
    -2
287
     1
 67
     0
278
    -2
288
     1
 68
     0
279
    -2
289
     1
 69
     0
  7
Standard
140
0.25
170
     5
 62
     0
 63
   257
283
     0
 90
      512
 91
        0
  1

274
    -2
284
     1
 64
     0
275
    -2
285
     1
 65
     0
276
    -2
286
     1
 66
     0
277
    -2
287
     1
 67
     0
278
    -2
288
     1
 68
     0
279
    -2
289
     1
 69
     0
  7
Standard
140
0.18
170
     5
 62
     0
 63
   257
283
     0
 90
      512
 91
        0
  1

274
    -2
284
     1
 64
     0
275
    -2
285
     1
 65
     0
276
    -2
286
     1
 66
     0
277
    -2
287
     1
 67
     0
278
    -2
288
     1
 68
     0
279
    -2
289
     1
 69
     0
  0
VISUALSTYLE
  5
9F
102
{ACAD_REACTORS
330
99
102
}
330
99
100
AcDbVisualStyle
  2
2dWireframe
 70
     4
177
     3
291
     0
 70
    58
 90
        0
176
     1
 90
        2
176
     1
 90
        1
176
     1
 90
        0
176
     1
 40
0.6
176
     1
 40
30.0
176
     1
 62
     7
420
 16777215
176
     1
 90
        1
176
     1
 90
        4
176
     1
 62
     7
176
     1
 62
   257
176
     1
 90
        1
176
     1
 90
        1
176
     1
 40
1.0
176
     1
 90
        0
176
     1
 62
   257
176
     1
 40
1.0
176
     1
 90
        1
176
     1
 90
        6
176
     1
 90
        2
176
     1
 62
     7
176
     1
 90
        5
176
     1
 90
        0
176
     1
 90
        0
176
     1
290
     0
176
     1
 90
        1
176
     1
 40
0.0
176
     1
 90
        0
176
     1
290
     1
176
     1
290
     1
176
     1
290
     0
176
     1
290
     0
176
     1
290
     0
176
     1
290
     0
176
     1
290
     0
176
     1
290
     0
176
     1
290
     0
176
     1
 90
       50
176
     1
 40
0.0
176
     1
 40
1.0
176
     1
 90
        0
176
     1
 62
    18
420
        0
176
     1
 90
       50
176
     1
 90
        3
176
     1
 62
     5
420
      255
176
     1
290
     0
176
     1
 90
       50
176
     1
 90
       50
176
     1
 90
       50
176
     1
290
     0
176
     1
 90
       50
176
     1
 62
   256
176
     0
 40
1.0
176
     0
 90
        2
176
     1
  1
strokes_ogs.tif
176
     1
290
     0
176
     1
 40
1.0
176
     1
 40
1.0
176
     1
  0
VISUALSTYLE
  5
9E
102
{ACAD_REACTORS
330
99
102
}
330
99
100
AcDbVisualStyle
  2
Basic
 70
     7
177
     3
291
     1
 70
    58
 90
        1
176
     1
 90
        0
176
     1
 90
        1
176
     1
 90
        0
176
     1
 40
0.6
176
     1
 40
30.0
176
     1
 62
     7
420
 16777215
176
     1
 90
        0
176
     1
 90
        4
176
     1
 62
     7
176
     1
 62
   257
176
     1
 90
        1
176
     1
 90
        1
176
     1
 40
1.0
176
     1
 90
        8
176
     1
 62
     7
176
     1
 40
1.0
176
     1
 90
        1
176
     1
 90
        6
176
     1
 90
        2
176
     1
 62
     7
176
     1
 90
        5
176
     1
 90
        0
176
     1
 90
        0
176
     1
290
     0
176
     1
 90
        1
176
     1
 40
0.0
176
     1
 90
        0
176
     1
290
     0
176
     1
290
     1
176
     1
290
     1
176
     1
290
     0
176
     1
290
     0
176
     1
290
     0
176
     1
290
     0
176
     1
290
     0
176
     1
290
     0
176
     1
 90
       50
176
     1
 40
0.0
176
     1
 40
1.0
176
     1
 90
        0
176
     1
 62
    18
420
        0
176
     1
 90
       50
176
     1
 90
        3
176
     1
 62
     5
420
      255
176
     1
290
     0
176
     1
 90
       50
176
     1
 90
       50
176
     1
 90
       50
176
     1
290
     0
176
     1
 90
       50
176
     1
 62
   256
176
     0
 40
1.0
176
     0
 90
        2
176
     1
  1
strokes_ogs.tif
176
     1
290
     0
176
     1
 40
1.0
176
     1
 40
1.0
176
     1
  0
VISUALSTYLE
  5
A5
102
{ACAD_REACTORS
330
99
102
}
330
99
100
AcDbVisualStyle
  2
Brighten
 70
    12
177
     3
291
     1
 70
    58
 90
        2
176
     1
 90
        2
176
     1
 90
        1
176
     1
 90
        0
176
     1
 40
0.6
176
     1
 40
30.0
176
     1
 62
     7
420
 16777215
176
     1
 90
        1
176
     1
 90
        4
176
     1
 62
     7
176
     1
 62
   257
176
     1
 90
        1
176
     1
 90
        1
176
     1
 40
1.0
176
     1
 90
        8
176
     1
 62
     7
176
     1
 40
1.0
176
     1
 90
        1
176
     1
 90
        6
176
     1
 90
        2
176
     1
 62
     7
176
     1
 90
        5
176
     1
 90
        0
176
     1
 90
        0
176
     1
290
     0
176
     1
 90
        1
176
     1
 40
50.0
176
     1
 90
        0
176
     1
290
     0
176
     1
290
     1
176
     1
290
     1
176
     1
290
     0
176
     1
290
     0
176
     1
290
     0
176
     1
290
     0
176
     1
290
     0
176
     1
290
     0
176
     1
 90
       50
176
     1
 40
0.0
176
     1
 40
1.0
176
     1
 90
        0
176
     1
 62
    18
420
        0
176
     1
 90
       50
176
     1
 90
        3
176
     1
 62
     5
420
      255
176
     1
290
     0
176
     1
 90
       50
176
     1
 90
       50
176
     1
 90
       50
176
     1
290
     0
176
     1
 90
       50
176
     1
 62
   256
176
     0
 40
1.0
176
     0
 90
        2
176
     1
  1
strokes_ogs.tif
176
     1
290
     0
176
     1
 40
1.0
176
     1
 40
1.0
176
     1
  0
VISUALSTYLE
  5
A9
102
{ACAD_REACTORS
330
99
102
}
330
99
100
AcDbVisualStyle
  2
ColorChange
 70
    16
177
     3
291
     1
 70
    58
 90
        2
176
     1
 90
        2
176
     1
 90
        3
176
     1
 90
        0
176
     1
 40
0.6
176
     1
 40
30.0
176
     1
 62
     8
420
  8421504
176
     1
 90
        1
176
     1
 90
        4
176
     1
 62
     7
176
     1
 62
   257
176
     1
 90
        1
176
     1
 90
        1
176
     1
 40
1.0
176
     1
 90
        8
176
     1
 62
     8
420
  8421504
176
     1
 40
1.0
176
     1
 90
        1
176
     1
 90
        6
176
     1
 90
        2
176
     1
 62
     7
176
     1
 90
        5
176
     1
 90
        0
176
     1
 90
        0
176
     1
290
     0
176
     1
 90
        1
176
     1
 40
0.0
176
     1
 90
        0
176
     1
290
     0
176
     1
290
     1
176
     1
290
     1
176
     1
290
     0
176
     1
290
     0
176
     1
290
     0
176
     1
290
     0
176
     1
290
     0
176
     1
290
     0
176
     1
 90
       50
176
     1
 40
0.0
176
     1
 40
1.0
176
     1
 90
        0
176
     1
 62
    18
420
        0
176
     1
 90
       50
176
     1
 90
        3
176
     1
 62
     5
420
      255
176
     1
290
     0
176
     1
 90
       50
176
     1
 90
       50
176
     1
 90
       50
176
     1
290
     0
176
     1
 90
       50
176
     1
 62
   256
176
     0
 40
1.0
176
     0
 90
        2
176
     1
  1
strokes_ogs.tif
176
     1
290
     0
176
     1
 40
1.0
176
     1
 40
1.0
176
     1
  0
VISUALSTYLE
  5
A2
102
{ACAD_REACTORS
330
99
102
}
330
99
100
AcDbVisualStyle
  2
Conceptual
 70
     9
177
     3
291
     0
 70
    58
 90
        3
176
     1
 90
        2
176
     1
 90
        1
176
     1
 90
        0
176
     1
 40
0.6
176
     1
 40
30.0
176
     1
 62
     7
420
 16777215
176
     1
 90
        2
176
     1
 90
        2
176
     1
 62
     7
176
     1
 62
   257
176
     1
 90
        1
176
     1
 90
        1
176
     1
 40
40.0
176
     1
 90
        8
176
     1
 62
     7
176
     1
 40
1.0
176
     1
 90
        1
176
     1
 90
        6
176
     1
 90
        2
176
     1
 62
     7
176
     1
 90
        3
176
     1
 90
        0
176
     1
 90
        0
176
     1
290
     0
176
     1
 90
        1
176
     1
 40
0.0
176
     1
 90
        0
176
     1
290
     0
176
     1
290
     1
176
     1
290
     1
176
     1
290
     0
176
     1
290
     0
176
     1
290
     0
176
     1
290
     0
176
     1
290
     0
176
     1
290
     0
176
     1
 90
       50
176
     1
 40
0.0
176
     1
 40
1.0
176
     1
 90
        0
176
     1
 62
    18
420
        0
176
     1
 90
       50
176
     1
 90
        3
176
     1
 62
     5
420
      255
176
     1
290
     0
176
     1
 90
       50
176
     1
 90
       50
176
     1
 90
       50
176
     1
290
     0
176
     1
 90
       50
176
     1
 62
   256
176
     0
 40
1.0
176
     0
 90
        2
176
     1
  1
strokes_ogs.tif
176
     1
290
     0
176
     1
 40
1.0
176
     1
 40
1.0
176
     1
  0
VISUALSTYLE
  5
A4
102
{ACAD_REACTORS
330
99
102
}
330
99
100
AcDbVisualStyle
  2
Dim
 70
    11
177
     3
291
     1
 70
    58
 90
        2
176
     1
 90
        2
176
     1
 90
        1
176
     1
 90
        0
176
     1
 40
0.6
176
     1
 40
30.0
176
     1
 62
     7
420
 16777215
176
     1
 90
        1
176
     1
 90
        4
176
     1
 62
     7
176
     1
 62
   257
176
     1
 90
        1
176
     1
 90
        1
176
     1
 40
1.0
176
     1
 90
        8
176
     1
 62
     7
176
     1
 40
1.0
176
     1
 90
        1
176
     1
 90
        6
176
     1
 90
        2
176
     1
 62
     7
176
     1
 90
        5
176
     1
 90
        0
176
     1
 90
        0
176
     1
290
     0
176
     1
 90
        1
176
     1
 40
-50.0
176
     1
 90
        0
176
     1
290
     0
176
     1
290
     1
176
     1
290
     1
176
     1
290
     0
176
     1
290
     0
176
     1
290
     0
176
     1
290
     0
176
     1
290
     0
176
     1
290
     0
176
     1
 90
       50
176
     1
 40
0.0
176
     1
 40
1.0
176
     1
 90
        0
176
     1
 62
    18
420
        0
176
     1
 90
       50
176
     1
 90
        3
176
     1
 62
     5
420
      255
176
     1
290
     0
176
     1
 90
       50
176
     1
 90
       50
176
     1
 90
       50
176
     1
290
     0
176
     1
 90
       50
176
     1
 62
   256
176
     0
 40
1.0
176
     0
 90
        2
176
     1
  1
strokes_ogs.tif
176
     1
290
     0
176
     1
 40
1.0
176
     1
 40
1.0
176
     1
  0
VISUALSTYLE
  5
175
102
{ACAD_REACTORS
330
99
102
}
330
99
100
AcDbVisualStyle
  2
EdgeColorOff
 70
    22
177
     3
291
     1
 70
    58
 90
        2
176
     0
 90
        2
176
     0
 90
        0
176
     0
 90
        0
176
     0
 40
0.6
176
     0
 40
30.0
176
     0
 62
     7
420
 16777215
176
     0
 90
        1
176
     0
 90
        4
176
     0
 62
     7
176
     0
 62
   257
176
     0
 90
        1
176
     0
 90
        1
176
     0
 40
1.0
176
     0
 90
        8
176
     2
 62
     7
176
     0
 40
1.0
176
     0
 90
        1
176
     0
 90
        6
176
     0
 90
        2
176
     0
 62
     7
176
     0
 90
        5
176
     0
 90
        0
176
     0
 90
        0
176
     0
290
     0
176
     0
 90
        1
176
     0
 40
0.0
176
     0
 90
        0
176
     0
290
     0
176
     1
290
     1
176
     1
290
     1
176
     1
290
     0
176
     1
290
     0
176
     1
290
     0
176
     1
290
     0
176
     1
290
     0
176
     1
290
     0
176
     1
 90
       50
176
     1
 40
0.0
176
     1
 40
1.0
176
     1
 90
        0
176
     1
 62
    18
420
        0
176
     1
 90
       50
176
     1
 90
        3
176
     1
 62
     5
420
      255
176
     1
290
     0
176
     1
 90
       50
176
     1
 90
       50
176
     1
 90
       50
176
     1
290
     0
176
     1
 90
       50
176
     1
 62
   256
176
     0
 40
1.0
176
     0
 90
        2
176
     1
  1
strokes_ogs.tif
176
     1
290
     0
176
     1
 40
1.0
176
     1
 40
1.0
176
     1
  0
VISUALSTYLE
  5
A8
102
{ACAD_REACTORS
330
99
102
}
330
99
100
AcDbVisualStyle
  2
Facepattern
 70
    15
177
     3
291
     1
 70
    58
 90
        2
176
     1
 90
        2
176
     1
 90
        1
176
     1
 90
        0
176
     1
 40
0.6
176
     1
 40
30.0
176
     1
 62
     7
420
 16777215
176
     1
 90
        1
176
     1
 90
        4
176
     1
 62
     7
176
     1
 62
   257
176
     1
 90
        1
176
     1
 90
        1
176
     1
 40
1.0
176
     1
 90
        8
176
     1
 62
     7
176
     1
 40
1.0
176
     1
 90
        1
176
     1
 90
        6
176
     1
 90
        2
176
     1
 62
     7
176
     1
 90
        5
176
     1
 90
        0
176
     1
 90
        0
176
     1
290
     0
176
     1
 90
        1
176
     1
 40
0.0
176
     1
 90
        0
176
     1
290
     0
176
     1
290
     1
176
     1
290
     1
176
     1
290
     0
176
     1
290
     0
176
     1
290
     0
176
     1
290
     0
176
     1
290
     0
176
     1
290
     0
176
     1
 90
       50
176
     1
 40
0.0
176
     1
 40
1.0
176
     1
 90
        0
176
     1
 62
    18
420
        0
176
     1
 90
       50
176
     1
 90
        3
176
     1
 62
     5
420
      255
176
     1
290
     0
176
     1
 90
       50
176
     1
 90
       50
176
     1
 90
       50
176
     1
290
     0
176
     1
 90
       50
176
     1
 62
   256
176
     0
 40
1.0
176
     0
 90
        2
176
     1
  1
strokes_ogs.tif
176
     1
290
     0
176
     1
 40
1.0
176
     1
 40
1.0
176
     1
  0
VISUALSTYLE
  5
9A
102
{ACAD_REACTORS
330
99
102
}
330
99
100
AcDbVisualStyle
  2
Flat
 70
     0
177
     3
291
     1
 70
    58
 90
        2
176
     1
 90
        1
176
     1
 90
        1
176
     1
 90
        2
176
     1
 40
0.6
176
     1
 40
30.0
176
     1
 62
     7
420
 16777215
176
     1
 90
        0
176
     1
 90
        0
176
     1
 62
     7
176
     1
 62
   257
176
     1
 90
        1
176
     1
 90
        1
176
     1
 40
1.0
176
     1
 90
        8
176
     1
 62
     7
176
     1
 40
1.0
176
     1
 90
        1
176
     1
 90
        6
176
     1
 90
        2
176
     1
 62
     7
176
     1
 90
        5
176
     1
 90
        0
176
     1
 90
        0
176
     1
290
     0
176
     1
 90
       13
176
     1
 40
0.0
176
     1
 90
        0
176
     1
290
     0
176
     1
290
     1
176
     1
290
     1
176
     1
290
     0
176
     1
290
     0
176
     1
290
     0
176
     1
290
     0
176
     1
290
     0
176
     1
290
     0
176
     1
 90
       50
176
     1
 40
0.0
176
     1
 40
1.0
176
     1
 90
        0
176
     1
 62
    18
420
        0
176
     1
 90
       50
176
     1
 90
        3
176
     1
 62
     5
420
      255
176
     1
290
     0
176
     1
 90
       50
176
     1
 90
       50
176
     1
 90
       50
176
     1
290
     0
176
     1
 90
       50
176
     1
 62
   256
176
     0
 40
1.0
176
     0
 90
        2
176
     1
  1
strokes_ogs.tif
176
     1
290
     0
176
     1
 40
1.0
176
     1
 40
1.0
176
     1
  0
VISUALSTYLE
  5
9B
102
{ACAD_REACTORS
330
99
102
}
330
99
100
AcDbVisualStyle
  2
FlatWithEdges
 70
     1
177
     3
291
     1
 70
    58
 90
        2
176
     1
 90
        1
176
     1
 90
        1
176
     1
 90
        2
176
     1
 40
0.6
176
     1
 40
30.0
176
     1
 62
     7
420
 16777215
176
     1
 90
        1
176
     1
 90
        0
176
     1
 62
     7
176
     1
 62
   257
176
     1
 90
        1
176
     1
 90
        1
176
     1
 40
1.0
176
     1
 90
        0
176
     1
 62
   257
176
     1
 40
1.0
176
     1
 90
        1
176
     1
 90
        6
176
     1
 90
        2
176
     1
 62
     7
176
     1
 90
        5
176
     1
 90
        0
176
     1
 90
        0
176
     1
290
     0
176
     1
 90
       13
176
     1
 40
0.0
176
     1
 90
        0
176
     1
290
     0
176
     1
290
     1
176
     1
290
     1
176
     1
290
     0
176
     1
290
     0
176
     1
290
     0
176
     1
290
     0
176
     1
290
     0
176
     1
290
     0
176
     1
 90
       50
176
     1
 40
0.0
176
     1
 40
1.0
176
     1
 90
        0
176
     1
 62
    18
420
        0
176
     1
 90
       50
176
     1
 90
        3
176
     1
 62
     5
420
      255
176
     1
290
     0
176
     1
 90
       50
176
     1
 90
       50
176
     1
 90
       50
176
     1
290
     0
176
     1
 90
       50
176
     1
 62
   256
176
     0
 40
1.0
176
     0
 90
        2
176
     1
  1
strokes_ogs.tif
176
     1
290
     0
176
     1
 40
1.0
176
     1
 40
1.0
176
     1
  0
VISUALSTYLE
  5
9C
102
{ACAD_REACTORS
330
99
102
}
330
99
100
AcDbVisualStyle
  2
Gouraud
 70
     2
177
     3
291
     1
 70
    58
 90
        2
176
     1
 90
        2
176
     1
 90
        1
176
     1
 90
        2
176
     1
 40
0.6
176
     1
 40
30.0
176
     1
 62
     7
420
 16777215
176
     1
 90
        0
176
     1
 90
        0
176
     1
 62
     7
176
     1
 62
   257
176
     1
 90
        1
176
     1
 90
        1
176
     1
 40
1.0
176
     1
 90
        0
176
     1
 62
     7
176
     1
 40
1.0
176
     1
 90
        1
176
     1
 90
        6
176
     1
 90
        2
176
     1
 62
     7
176
     1
 90
        5
176
     1
 90
        0
176
     1
 90
        0
176
     1
290
     0
176
     1
 90
       13
176
     1
 40
0.0
176
     1
 90
        0
176
     1
290
     0
176
     1
290
     1
176
     1
290
     1
176
     1
290
     0
176
     1
290
     0
176
     1
290
     0
176
     1
290
     0
176
     1
290
     0
176
     1
290
     0
176
     1
 90
       50
176
     1
 40
0.0
176
     1
 40
1.0
176
     1
 90
        0
176
     1
 62
    18
420
        0
176
     1
 90
       50
176
     1
 90
        3
176
     1
 62
     5
420
      255
176
     1
290
     0
176
     1
 90
       50
176
     1
 90
       50
176
     1
 90
       50
176
     1
290
     0
176
     1
 90
       50
176
     1
 62
   256
176
     0
 40
1.0
176
     0
 90
        2
176
     1
  1
strokes_ogs.tif
176
     1
290
     0
176
     1
 40
1.0
176
     1
 40
1.0
176
     1
  0
VISUALSTYLE
  5
9D
102
{ACAD_REACTORS
330
99
102
}
330
99
100
AcDbVisualStyle
  2
GouraudWithEdges
 70
     3
177
     3
291
     1
 70
    58
 90
        2
176
     1
 90
        2
176
     1
 90
        1
176
     1
 90
        2
176
     1
 40
0.6
176
     1
 40
30.0
176
     1
 62
     7
420
 16777215
176
     1
 90
        1
176
     1
 90
        0
176
     1
 62
     7
176
     1
 62
   257
176
     1
 90
        1
176
     1
 90
        1
176
     1
 40
1.0
176
     1
 90
        0
176
     1
 62
   257
176
     1
 40
1.0
176
     1
 90
        1
176
     1
 90
        6
176
     1
 90
        2
176
     1
 62
     7
176
     1
 90
        5
176
     1
 90
        0
176
     1
 90
        0
176
     1
290
     0
176
     1
 90
       13
176
     1
 40
0.0
176
     1
 90
        0
176
     1
290
     0
176
     1
290
     1
176
     1
290
     1
176
     1
290
     0
176
     1
290
     0
176
     1
290
     0
176
     1
290
     0
176
     1
290
     0
176
     1
290
     0
176
     1
 90
       50
176
     1
 40
0.0
176
     1
 40
1.0
176
     1
 90
        0
176
     1
 62
    18
420
        0
176
     1
 90
       50
176
     1
 90
        3
176
     1
 62
     5
420
      255
176
     1
290
     0
176
     1
 90
       50
176
     1
 90
       50
176
     1
 90
       50
176
     1
290
     0
176
     1
 90
       50
176
     1
 62
   256
176
     0
 40
1.0
176
     0
 90
        2
176
     1
  1
strokes_ogs.tif
176
     1
290
     0
176
     1
 40
1.0
176
     1
 40
1.0
176
     1
  0
VISUALSTYLE
  5
A1
102
{ACAD_REACTORS
330
99
102
}
330
99
100
AcDbVisualStyle
  2
Hidden
 70
     6
177
     3
291
     0
 70
    58
 90
        1
176
     1
 90
        2
176
     1
 90
        2
176
     1
 90
        0
176
     1
 40
0.6
176
     1
 40
30.0
176
     1
 62
     7
420
 16777215
176
     1
 90
        2
176
     1
 90
        2
176
     1
 62
     7
176
     1
 62
   257
176
     1
 90
        2
176
     1
 90
        1
176
     1
 40
40.0
176
     1
 90
        0
176
     1
 62
   257
176
     1
 40
1.0
176
     1
 90
        1
176
     1
 90
        6
176
     1
 90
        2
176
     1
 62
     7
176
     1
 90
        3
176
     1
 90
        0
176
     1
 90
        0
176
     1
290
     0
176
     1
 90
        1
176
     1
 40
0.0
176
     1
 90
        0
176
     1
290
     0
176
     1
290
     1
176
     1
290
     1
176
     1
290
     0
176
     1
290
     0
176
     1
290
     0
176
     1
290
     0
176
     1
290
     0
176
     1
290
     0
176
     1
 90
       50
176
     1
 40
0.0
176
     1
 40
1.0
176
     1
 90
        0
176
     1
 62
    18
420
        0
176
     1
 90
       50
176
     1
 90
        3
176
     1
 62
     5
420
      255
176
     1
290
     0
176
     1
 90
       50
176
     1
 90
       50
176
     1
 90
       50
176
     1
290
     0
176
     1
 90
       50
176
     1
 62
   256
176
     0
 40
1.0
176
     0
 90
        2
176
     1
  1
strokes_ogs.tif
176
     1
290
     0
176
     1
 40
1.0
176
     1
 40
1.0
176
     1
  0
VISUALSTYLE
  5
173
102
{ACAD_REACTORS
330
99
102
}
330
99
100
AcDbVisualStyle
  2
JitterOff
 70
    20
177
     3
291
     1
 70
    58
 90
        2
176
     0
 90
        2
176
     0
 90
        0
176
     0
 90
        0
176
     0
 40
0.6
176
     0
 40
30.0
176
     0
 62
     7
420
 16777215
176
     0
 90
        1
176
     0
 90
        4
176
     0
 62
     7
176
     0
 62
   257
176
     0
 90
        1
176
     0
 90
        1
176
     0
 40
1.0
176
     0
 90
       10
176
     2
 62
     7
176
     0
 40
1.0
176
     0
 90
        1
176
     0
 90
        6
176
     0
 90
        2
176
     0
 62
     7
176
     0
 90
        5
176
     0
 90
        0
176
     0
 90
        0
176
     0
290
     0
176
     0
 90
        1
176
     0
 40
0.0
176
     0
 90
        0
176
     0
290
     0
176
     1
290
     1
176
     1
290
     1
176
     1
290
     0
176
     1
290
     0
176
     1
290
     0
176
     1
290
     0
176
     1
290
     0
176
     1
290
     0
176
     1
 90
       50
176
     1
 40
0.0
176
     1
 40
1.0
176
     1
 90
        0
176
     1
 62
    18
420
        0
176
     1
 90
       50
176
     1
 90
        3
176
     1
 62
     5
420
      255
176
     1
290
     0
176
     1
 90
       50
176
     1
 90
       50
176
     1
 90
       50
176
     1
290
     0
176
     1
 90
       50
176
     1
 62
   256
176
     0
 40
1.0
176
     0
 90
        2
176
     1
  1
strokes_ogs.tif
176
     1
290
     0
176
     1
 40
1.0
176
     1
 40
1.0
176
     1
  0
VISUALSTYLE
  5
A7
102
{ACAD_REACTORS
330
99
102
}
330
99
100
AcDbVisualStyle
  2
Linepattern
 70
    14
177
     3
291
     1
 70
    58
 90
        2
176
     1
 90
        2
176
     1
 90
        1
176
     1
 90
        0
176
     1
 40
0.6
176
     1
 40
30.0
176
     1
 62
     7
420
 16777215
176
     1
 90
        1
176
     1
 90
        4
176
     1
 62
     7
176
     1
 62
   257
176
     1
 90
        7
176
     1
 90
        7
176
     1
 40
1.0
176
     1
 90
        8
176
     1
 62
     7
176
     1
 40
1.0
176
     1
 90
        1
176
     1
 90
        6
176
     1
 90
        2
176
     1
 62
     7
176
     1
 90
        5
176
     1
 90
        0
176
     1
 90
        0
176
     1
290
     0
176
     1
 90
        1
176
     1
 40
0.0
176
     1
 90
        0
176
     1
290
     0
176
     1
290
     1
176
     1
290
     1
176
     1
290
     0
176
     1
290
     0
176
     1
290
     0
176
     1
290
     0
176
     1
290
     0
176
     1
290
     0
176
     1
 90
       50
176
     1
 40
0.0
176
     1
 40
1.0
176
     1
 90
        0
176
     1
 62
    18
420
        0
176
     1
 90
       50
176
     1
 90
        3
176
     1
 62
     5
420
      255
176
     1
290
     0
176
     1
 90
       50
176
     1
 90
       50
176
     1
 90
       50
176
     1
290
     0
176
     1
 90
       50
176
     1
 62
   256
176
     0
 40
1.0
176
     0
 90
        2
176
     1
  1
strokes_ogs.tif
176
     1
290
     0
176
     1
 40
1.0
176
     1
 40
1.0
176
     1
  0
VISUALSTYLE
  5
174
102
{ACAD_REACTORS
330
99
102
}
330
99
100
AcDbVisualStyle
  2
OverhangOff
 70
    21
177
     3
291
     1
 70
    58
 90
        2
176
     0
 90
        2
176
     0
 90
        0
176
     0
 90
        0
176
     0
 40
0.6
176
     0
 40
30.0
176
     0
 62
     7
420
 16777215
176
     0
 90
        1
176
     0
 90
        4
176
     0
 62
     7
176
     0
 62
   257
176
     0
 90
        1
176
     0
 90
        1
176
     0
 40
1.0
176
     0
 90
        9
176
     2
 62
     7
176
     0
 40
1.0
176
     0
 90
        1
176
     0
 90
        6
176
     0
 90
        2
176
     0
 62
     7
176
     0
 90
        5
176
     0
 90
        0
176
     0
 90
        0
176
     0
290
     0
176
     0
 90
        1
176
     0
 40
0.0
176
     0
 90
        0
176
     0
290
     0
176
     1
290
     1
176
     1
290
     1
176
     1
290
     0
176
     1
290
     0
176
     1
290
     0
176
     1
290
     0
176
     1
290
     0
176
     1
290
     0
176
     1
 90
       50
176
     1
 40
0.0
176
     1
 40
1.0
176
     1
 90
        0
176
     1
 62
    18
420
        0
176
     1
 90
       50
176
     1
 90
        3
176
     1
 62
     5
420
      255
176
     1
290
     0
176
     1
 90
       50
176
     1
 90
       50
176
     1
 90
       50
176
     1
290
     0
176
     1
 90
       50
176
     1
 62
   256
176
     0
 40
1.0
176
     0
 90
        2
176
     1
  1
strokes_ogs.tif
176
     1
290
     0
176
     1
 40
1.0
176
     1
 40
1.0
176
     1
  0
VISUALSTYLE
  5
A3
102
{ACAD_REACTORS
330
99
102
}
330
99
100
AcDbVisualStyle
  2
Realistic
 70
     8
177
     3
291
     0
 70
    58
 90
        2
176
     1
 90
        3
176
     1
 90
        0
176
     1
 90
        2
176
     1
 40
0.6
176
     1
 40
30.0
176
     1
 62
     7
420
 16777215
176
     1
 90
        0
176
     1
 90
        0
176
     1
 62
     7
176
     1
 62
   257
176
     1
 90
        1
176
     1
 90
        1
176
     1
 40
1.0
176
     1
 90
        8
176
     1
 62
   257
176
     1
 40
1.0
176
     1
 90
        1
176
     1
 90
        6
176
     1
 90
        2
176
     1
 62
     7
176
     1
 90
        3
176
     1
 90
        0
176
     1
 90
        0
176
     1
290
     0
176
     1
 90
       13
176
     1
 40
0.0
176
     1
 90
        0
176
     1
290
     0
176
     1
290
     1
176
     1
290
     1
176
     1
290
     0
176
     1
290
     0
176
     1
290
     0
176
     1
290
     0
176
     1
290
     0
176
     1
290
     0
176
     1
 90
       50
176
     1
 40
0.0
176
     1
 40
1.0
176
     1
 90
        0
176
     1
 62
    18
420
        0
176
     1
 90
       50
176
     1
 90
        3
176
     1
 62
     5
420
      255
176
     1
290
     0
176
     1
 90
       50
176
     1
 90
       50
176
     1
 90
       50
176
     1
290
     0
176
     1
 90
       50
176
     1
 62
   256
176
     0
 40
1.0
176
     0
 90
        2
176
     1
  1
strokes_ogs.tif
176
     1
290
     0
176
     1
 40
1.0
176
     1
 40
1.0
176
     1
  0
VISUALSTYLE
  5
182
102
{ACAD_REACTORS
330
99
102
}
330
99
100
AcDbVisualStyle
  2
Shaded
 70
    27
177
     3
291
     0
 70
    58
 90
        2
176
     1
 90
        2
176
     1
 90
        1
176
     1
 90
        2
176
     1
 40
0.6
176
     1
 40
30.0
176
     1
 62
     7
420
 16777215
176
     1
 90
        0
176
     1
 90
        4
176
     1
 62
     7
176
     1
 62
   257
176
     1
 90
        1
176
     1
 90
        1
176
     1
 40
1.0
176
     1
 90
        8
176
     1
 62
   257
176
     1
 40
1.0
176
     1
 90
        1
176
     1
 90
        6
176
     1
 90
        2
176
     1
 62
     8
420
  7895160
176
     1
 90
        3
176
     1
 90
        0
176
     1
 90
        0
176
     1
290
     0
176
     1
 90
        5
176
     1
 40
0.0
176
     1
 90
        0
176
     1
290
     0
176
     1
290
     1
176
     1
290
     1
176
     1
290
     0
176
     1
290
     0
176
     1
290
     0
176
     1
290
     0
176
     1
290
     0
176
     1
290
     0
176
     1
 90
       50
176
     1
 40
0.0
176
     1
 40
1.0
176
     1
 90
        0
176
     1
 62
    18
420
        0
176
     1
 90
       50
176
     1
 90
        3
176
     1
 62
     5
420
      255
176
     1
290
     0
176
     1
 90
       50
176
     1
 90
       50
176
     1
 90
       50
176
     1
290
     0
176
     1
 90
       50
176
     1
 62
   256
176
     0
 40
1.0
176
     0
 90
        2
176
     1
  1
strokes_ogs.tif
176
     1
290
     0
176
     1
 40
1.0
176
     1
 40
1.0
176
     1
  0
VISUALSTYLE
  5
181
102
{ACAD_REACTORS
330
99
102
}
330
99
100
AcDbVisualStyle
  2
Shaded with edges
 70
    26
177
     3
291
     0
 70
    58
 90
        2
176
     1
 90
        2
176
     1
 90
        1
176
     1
 90
        2
176
     1
 40
0.6
176
     1
 40
30.0
176
     1
 62
     7
420
 16777215
176
     1
 90
        1
176
     1
 90
        2
176
     1
 62
     7
176
     1
 62
   257
176
     1
 90
        2
176
     1
 90
        1
176
     1
 40
1.0
176
     1
 90
        8
176
     1
 62
   257
176
     1
 40
1.0
176
     1
 90
        1
176
     1
 90
        6
176
     1
 90
        2
176
     1
 62
     7
176
     1
 90
        3
176
     1
 90
        0
176
     1
 90
        0
176
     1
290
     0
176
     1
 90
        5
176
     1
 40
0.0
176
     1
 90
        0
176
     1
290
     0
176
     1
290
     1
176
     1
290
     1
176
     1
290
     0
176
     1
290
     0
176
     1
290
     0
176
     1
290
     0
176
     1
290
     0
176
     1
290
     0
176
     1
 90
       50
176
     1
 40
0.0
176
     1
 40
1.0
176
     1
 90
        0
176
     1
 62
    18
420
        0
176
     1
 90
       50
176
     1
 90
        3
176
     1
 62
     5
420
      255
176
     1
290
     0
176
     1
 90
       50
176
     1
 90
       50
176
     1
 90
       50
176
     1
290
     0
176
     1
 90
       50
176
     1
 62
   256
176
     0
 40
1.0
176
     0
 90
        2
176
     1
  1
strokes_ogs.tif
176
     1
290
     0
176
     1
 40
1.0
176
     1
 40
1.0
176
     1
  0
VISUALSTYLE
  5
17E
102
{ACAD_REACTORS
330
99
102
}
330
99
100
AcDbVisualStyle
  2
Shades of Gray
 70
    23
177
     3
291
     0
 70
    58
 90
        2
176
     1
 90
        2
176
     1
 90
        3
176
     1
 90
        0
176
     1
 40
0.6
176
     1
 40
30.0
176
     1
 62
     7
420
 16777215
176
     1
 90
        2
176
     1
 90
        2
176
     1
 62
     7
176
     1
 62
     7
176
     1
 90
        1
176
     1
 90
        1
176
     1
 40
40.0
176
     1
 90
        8
176
     1
 62
     7
176
     1
 40
1.0
176
     1
 90
        1
176
     1
 90
        6
176
     1
 90
        2
176
     1
 62
     7
176
     1
 90
        3
176
     1
 90
        0
176
     1
 90
        0
176
     1
290
     0
176
     1
 90
        1
176
     1
 40
0.0
176
     1
 90
        0
176
     1
290
     0
176
     1
290
     1
176
     1
290
     1
176
     1
290
     0
176
     1
290
     0
176
     1
290
     0
176
     1
290
     0
176
     1
290
     0
176
     1
290
     0
176
     1
 90
       50
176
     1
 40
0.0
176
     1
 40
1.0
176
     1
 90
        0
176
     1
 62
    18
420
        0
176
     1
 90
       50
176
     1
 90
        3
176
     1
 62
     5
420
      255
176
     1
290
     0
176
     1
 90
       50
176
     1
 90
       50
176
     1
 90
       50
176
     1
290
     0
176
     1
 90
       50
176
     1
 62
   256
176
     0
 40
1.0
176
     0
 90
        2
176
     1
  1
strokes_ogs.tif
176
     1
290
     0
176
     1
 40
1.0
176
     1
 40
1.0
176
     1
  0
VISUALSTYLE
  5
17F
102
{ACAD_REACTORS
330
99
102
}
330
99
100
AcDbVisualStyle
  2
Sketchy
 70
    24
177
     3
291
     0
 70
    58
 90
        1
176
     1
 90
        2
176
     1
 90
        2
176
     1
 90
        0
176
     1
 40
0.6
176
     1
 40
30.0
176
     1
 62
     7
420
 16777215
176
     1
 90
        2
176
     1
 90
        2
176
     1
 62
     7
176
     1
 62
     7
176
     1
 90
        1
176
     1
 90
        1
176
     1
 40
40.0
176
     1
 90
       11
176
     1
 62
     7
176
     1
 40
1.0
176
     1
 90
        1
176
     1
 90
        6
176
     1
 90
        2
176
     1
 62
     7
176
     1
 90
        6
176
     1
 90
        0
176
     1
 90
        0
176
     1
290
     0
176
     1
 90
        1
176
     1
 40
0.0
176
     1
 90
        0
176
     1
290
     0
176
     1
290
     1
176
     1
290
     1
176
     1
290
     0
176
     1
290
     0
176
     1
290
     0
176
     1
290
     0
176
     1
290
     0
176
     1
290
     0
176
     1
 90
       50
176
     1
 40
0.0
176
     1
 40
1.0
176
     1
 90
        0
176
     1
 62
    18
420
        0
176
     1
 90
       50
176
     1
 90
        3
176
     1
 62
     5
420
      255
176
     1
290
     0
176
     1
 90
       50
176
     1
 90
       50
176
     1
 90
       50
176
     1
290
     0
176
     1
 90
       50
176
     1
 62
   256
176
     0
 40
1.0
176
     0
 90
        2
176
     1
  1
strokes_ogs.tif
176
     1
290
     0
176
     1
 40
1.0
176
     1
 40
1.0
176
     1
  0
VISUALSTYLE
  5
A6
102
{ACAD_REACTORS
330
99
102
}
330
99
100
AcDbVisualStyle
  2
Thicken
 70
    13
177
     3
291
     1
 70
    58
 90
        2
176
     1
 90
        2
176
     1
 90
        1
176
     1
 90
        0
176
     1
 40
0.6
176
     1
 40
30.0
176
     1
 62
     7
420
 16777215
176
     1
 90
        1
176
     1
 90
        4
176
     1
 62
     7
176
     1
 62
   257
176
     1
 90
        1
176
     1
 90
        1
176
     1
 40
1.0
176
     1
 90
       12
176
     1
 62
     7
176
     1
 40
1.0
176
     1
 90
        1
176
     1
 90
        6
176
     1
 90
        2
176
     1
 62
     7
176
     1
 90
        5
176
     1
 90
        0
176
     1
 90
        0
176
     1
290
     0
176
     1
 90
        1
176
     1
 40
0.0
176
     1
 90
        0
176
     1
290
     0
176
     1
290
     1
176
     1
290
     1
176
     1
290
     0
176
     1
290
     0
176
     1
290
     0
176
     1
290
     0
176
     1
290
     0
176
     1
290
     0
176
     1
 90
       50
176
     1
 40
0.0
176
     1
 40
1.0
176
     1
 90
        0
176
     1
 62
    18
420
        0
176
     1
 90
       50
176
     1
 90
        3
176
     1
 62
     5
420
      255
176
     1
290
     0
176
     1
 90
       50
176
     1
 90
       50
176
     1
 90
       50
176
     1
290
     0
176
     1
 90
       50
176
     1
 62
   256
176
     0
 40
1.0
176
     0
 90
        2
176
     1
  1
strokes_ogs.tif
176
     1
290
     0
176
     1
 40
1.0
176
     1
 40
1.0
176
     1
  0
VISUALSTYLE
  5
A0
102
{ACAD_REACTORS
330
99
102
}
330
99
100
AcDbVisualStyle
  2
Wireframe
 70
     5
177
     3
291
     0
 70
    58
 90
        0
176
     1
 90
        2
176
     1
 90
        0
176
     1
 90
        0
176
     1
 40
0.6
176
     1
 40
30.0
176
     1
 62
     7
420
 16777215
176
     1
 90
        1
176
     1
 90
        4
176
     1
 62
     7
176
     1
 62
   257
176
     1
 90
        1
176
     1
 90
        1
176
     1
 40
1.0
176
     1
 90
        0
176
     1
 62
   257
176
     1
 40
1.0
176
     1
 90
        1
176
     1
 90
        6
176
     1
 90
        2
176
     1
 62
     7
176
     1
 90
        3
176
     1
 90
        0
176
     1
 90
        0
176
     1
290
     0
176
     1
 90
        1
176
     1
 40
0.0
176
     1
 90
        0
176
     1
290
     0
176
     1
290
     1
176
     1
290
     1
176
     1
290
     0
176
     1
290
     0
176
     1
290
     0
176
     1
290
     0
176
     1
290
     0
176
     1
290
     0
176
     1
 90
       50
176
     1
 40
0.0
176
     1
 40
1.0
176
     1
 90
        0
176
     1
 62
    18
420
        0
176
     1
 90
       50
176
     1
 90
        3
176
     1
 62
     5
420
      255
176
     1
290
     0
176
     1
 90
       50
176
     1
 90
       50
176
     1
 90
       50
176
     1
290
     0
176
     1
 90
       50
176
     1
 62
   256
176
     0
 40
1.0
176
     0
 90
        2
176
     1
  1
strokes_ogs.tif
176
     1
290
     0
176
     1
 40
1.0
176
     1
 40
1.0
176
     1
  0
VISUALSTYLE
  5
180
102
{ACAD_REACTORS
330
99
102
}
330
99
100
AcDbVisualStyle
  2
X-Ray
 70
    25
177
     3
291
     0
 70
    58
 90
        2
176
     1
 90
        2
176
     1
 90
        1
176
     1
 90
        1
176
     1
 40
0.5
176
     1
 40
30.0
176
     1
 62
     7
420
 16777215
176
     1
 90
        1
176
     1
 90
        0
176
     1
 62
     7
176
     1
 62
   257
176
     1
 90
        1
176
     1
 90
        1
176
     1
 40
1.0
176
     1
 90
        8
176
     1
 62
     7
176
     1
 40
1.0
176
     1
 90
        1
176
     1
 90
        6
176
     1
 90
        2
176
     1
 62
     7
176
     1
 90
        3
176
     1
 90
        0
176
     1
 90
        0
176
     1
290
     0
176
     1
 90
       13
176
     1
 40
0.0
176
     1
 90
        0
176
     1
290
     0
176
     1
290
     1
176
     1
290
     1
176
     1
290
     0
176
     1
290
     0
176
     1
290
     0
176
     1
290
     0
176
     1
290
     0
176
     1
290
     0
176
     1
 90
       50
176
     1
 40
0.0
176
     1
 40
1.0
176
     1
 90
        0
176
     1
 62
    18
420
        0
176
     1
 90
       50
176
     1
 90
        3
176
     1
 62
     5
420
      255
176
     1
290
     0
176
     1
 90
       50
176
     1
 90
       50
176
     1
 90
       50
176
     1
290
     0
176
     1
 90
       50
176
     1
 62
   256
176
     0
 40
1.0
176
     0
 90
        2
176
     1
  1
strokes_ogs.tif
176
     1
290
     0
176
     1
 40
1.0
176
     1
 40
1.0
176
     1
  0
DICTIONARYVAR
  5
F0
102
{ACAD_REACTORS
330
66
102
}
330
66
100
DictionaryVariables
280
     0
  1
1:1
  0
DICTIONARYVAR
  5
EF
102
{ACAD_REACTORS
330
66
102
}
330
66
100
DictionaryVariables
280
     0
  1
Standard
  0
DICTIONARYVAR
  5
89
102
{ACAD_REACTORS
330
66
102
}
330
66
100
DictionaryVariables
280
     0
  1
Standard
  0
DICTIONARYVAR
  5
1B7
102
{ACAD_REACTORS
330
66
102
}
330
66
100
DictionaryVariables
280
     0
  1
Imperial24
  0
DICTIONARYVAR
  5
1B8
102
{ACAD_REACTORS
330
66
102
}
330
66
100
DictionaryVariables
280
     0
  1
Imperial24
  0
DICTIONARYVAR
  5
67
102
{ACAD_REACTORS
330
66
102
}
330
66
100
DictionaryVariables
280
     0
  1
2
  0
DICTIONARYVAR
  5
6B
102
{ACAD_REACTORS
330
66
102
}
330
66
100
DictionaryVariables
280
     0
  1
1
  0
DICTIONARYVAR
  5
14D
102
{ACAD_REACTORS
330
66
102
}
330
66
100
DictionaryVariables
280
     0
  1
0
  0
DICTIONARYVAR
  5
14E
102
{ACAD_REACTORS
330
66
102
}
330
66
100
DictionaryVariables
280
     0
  1
0
  0
DICTIONARY
  5
188
330
97
100
AcDbDictionary
280
     1
281
     1
  3
FBXASSET
360
189
  0
DICTIONARY
  5
186
330
96
100
AcDbDictionary
280
     1
281
     1
  3
FBXASSET
360
187
  0
DICTIONARY
  5
110
330
98
100
AcDbDictionary
280
     1
281
     1
  3
FBXASSET
360
18A
  0
DICTIONARY
  5
6692
330
87
100
AcDbDictionary
280
     1
281
     1
  3
ACAD_ROUNDTRIP_2008_TABLESTYLE_CELLSTYLEMAP
360
6693
  0
XRECORD
  5
189
102
{ACAD_REACTORS
330
188
102
}
330
188
100
AcDbXrecord
280
     1
 70
     1
 90
429727718
  1
508B35C9-AEE7-456F-BE74-D52651303AC6
310
504B03040A0000080000B670623B3DEE336E79000000790000001B0000006175746F6465736B2D64657369676E2D7061636B6167652E786D6C3C3F786D6C2076657273696F6E3D22312E302220656E636F64696E673D227574662D3822203F3E3C666F726D6174733E3C666F726D61743E687474703A2F2F736368656D612E
310
6175746F6465736B2E636F6D2F64657369676E2D7061636B6167652F323030393C2F666F726D61743E3C2F666F726D6174733E504B0304140006080800B670623BD486FD9CA0000000F4000000130000005B436F6E74656E745F54797065735D2E786D6C7D8EC10E82300C865F65E91D8A1E8C310C0EEA1BF002731658846E
310
D98AC1B77784ABF1D8FE5FBFBF75BBCE937A534CCEB38643598122B6FEE978D0B0485F9C41B54DDD7D022595594E1A469170414C76A4D9A4D207E29CF43ECE46F218070CC6BECC4078ACAA135ACF422C856C0E68EA1BF5669944DDD7BCDE7B1F8E415D77AECB980613C2E4AC91FC167A2B244592486606FC29C8FD7F045B9A
310
EF7053A7E60B504B0304140006080800B670623B28ED286BEB0000007C01000008000000636F72652E786D6C8D90416EC3201045AF82665B6183218D6D61A254764FD00B204C5C94182C03558F5F9C3852BBEB6A467FFE9B197D71FA9E6FE8CBACC17AD7012D0820E3B41FAD9B3A48F1826B40272956EFE32F1B20A766D3C1
310
268314D3EAD3B24BDABB685CCCAAF3A3D94515828980F42D371D04FD696655A814B3235C8B45E9AB9A4C419F5D8653B2237A1CB163DE672FD6AC209BF3C08E0D1B30EB19C3FC9D72FCC6EB231EFA33EDE96BDD341517E5064B11EDFCBCAF57A3A2194156843498524CAA0FCA5B7268F9E185D42D21A2DCEC7FA0B48CFF8492
310
759155FBBB0F2C80A4F991FB408A72CB22977B50B96EB9C91F504B0304140006080800B670623B55019EA25F0000007C00000007000000636E782E786D6C4DCB3B0E80201045D1AD90E915ED2CF8AC45050C11660C8261F98AB1B07AC9C97D42D718D865D3E909258CFD00CCE24AC6E326A164D74DC0B4128928FF32603847
310
2BA13128B1252AC747C6BAB984FC68F0B87FE8960A5C09FE86CFB69FBA01504B0304140006080800B670623B7BC41AC871010000D40300000C0000006662782F636F72652E786D6CC553ED6E8320147D15C2DF4501B56B6D90A64BBB27D80B50A5CE54C120983EFEAE1F4DD7A56BBA5FF3879273EEE59E7310BE393735EA95
310
ED2AA333CC428A91D2B9292A5D66D8BB63B0C26823B835C67D2BC348CB46657880B1E0A535BE9DA1DC68A7B403549B42CDA0EC3AE530CA6B5864B8CB3F552343E91D5474A7B095F949962A6421D0502778E72C0840D390E18DC5F170E664C205F7BE2A66B62A605A75AC94C522DDEEE3651AEF837817C741F2CE92E02D592D
310
83FD6ECB76EC7595A651C2C9D02CB8AB9A8BBADC2AE954814544691A3016D0E883256BBA58278B17BA5A53CAC9507ED3E4DBE2C9265F691747B3DCA9ADC382819091F8E1162272A8933DE82182932144F88C09DF060D8140C84E1EEA8B8F1340BDCA9DB1093085F157AA97B557309586747CD0EF0B4EA64E983A6E0EAEEFCE
310
889E9EF17847386AA94B30211D2C0FDE0D3AF9A4610EAD5536E8DD1969631B593F67E381C33F5157F17725E5A636F6BF1491F980C8FC7B90E13E8A2F504B0304140006080800B670623B70102A487D0000009D0000000B0000006662782F636E782E786D6C4DCCD10A83201886E15B91FFDC95A5C30335ACCDFB886521330D
310
A76397BF1A1DECE883878F57749FD5A3B74D2F17830472A901D9F088930B8B849267CC01754AA418F3DF0D5018572BE160506249B16C274D761E8BCFBB7A179E27F65CB39A0F14D396184C9921B81F34C3ACA1B4B99ABB6E6F062A25AA5F69DF23ACBE504B0304140006080800B670623B3610CA3329010000120200003100
310
00006662782F42384135303843342D343331462D343546312D424341352D3532343432364645413344462F636F72652E786D6C8D515B6EC32010BC0AE22B55850D0E446E848992B43E412FE000495162B07854397EA176A4F62F3F2C9A9D991D58BEBB8F37F0AD7D30CE76905418026DA553C65E3A98E219B510EC04F7CEC5
310
3F3408EC30EA0E16180A7EF12E4D0B249D8DDAC68C5AA7F4020E21E80881BCE54B0783FCD2E3500D296646B856D320AFC34557A4CAEDCC133C449F0380794839A138B47B86DB2345744D7A44594FD0E1B867883594369BFE63BF7EEF793D0B054FC9A8456E548E63CE46FB674D8A58F068C6477CE9F510B582A2C1F80D1182
310
70F349E816B32D65AFB8DD62CCEB42FF274A937A52948C8DEB66893BCB021484D7734370E5D2E9F608A3EF93F3119479ABA0E50B14B8C298119A43CCC4FCFCECB8A18B6388CEE7EF5D5D4F994BD86CBBA182D76543B9FCAE2FD7B24DF103504B0304140006080800B670623B1B8617914E0100003303000030000000666278
310
2F42384135303843342D343331462D343546312D424341352D3532343432364645413344462F636E782E786D6CD593C16EC32010447F0571AD6CE3D489D20813A9877E410FBD62D82434182CC055F3F75D1292E692438FBD206B7698593D61BEFD1E2DF982108D773D6D6B460938E5B571FB9ECE6957AD29D90A1EBC4F7736
310
4A9C1CA1A759A682EF839FA72269D8C9D92654AD71C72206887E0E0A22CAF926B15E498B01E0AA19451807D01A34B919F16B070157417138917400F2F6FA41FCF0092A45DEE414C19BDC21783E4BD39D891265658C3D8DEA00A3ACE59CBC8678ACB54CB26EEB6BD7839D7E9348BE70AD9C8321B9BCA7F9A4A26C542347DEE0
310
50F09802D22BA6749A800A394DD62899107273365E3C82CFC6A55557BC06C10774B7ABE7AEC3B0F34CF06446280E154026D0542C187BA9DAB6628BF7B6DBB0E5A65B3EB1F58631DE64BBE083F7B65CC218087E22CABB042E51D1F2268F1FE12B3EA24D40D63E9CFE00120194D60B9D5BC67FE6D39CDF37E20AF817881F504B
310
0304140006080800B670623BBFEF2E3B690500003C100000340000006662782F42384135303843342D343331462D343546312D424341352D3532343432364645413344462F6F626A656374732E786D6CAD575D739B3814FD2B0CFB0C98D84E931D4227B6938EA793B6534F3BFB90198F0099B001899144EAECAFDF231018B0
310
D37A3FFC609090EEE7B94757C1FB7D915B2F54C88CB31BDB7727B64559CC938CA53776A576CE956DBD0F03C1B9EA2DB32D460A7A63EB693B0C52C1ABD24C257447AA5C8D66EF177F5832A68CDA569C13296F6C193FD182B8A4523CA1F2D94D88226EBADBBBBEDB2C1C8A4D05299F46424B222853B014F30C52ACC6287F389C
310
D85E1878FA7B18E87FB36AFAF62AAFF667A83F635211161F291B8999FAB3D5DDC5FCDA99CF6653677679E13B8BFBC5CAF1DF4D27CBCBE5F2FAF6EE1A8AA51290642C117467871F101B91C581D77CEA2C36869F3229E68CD1B8F61F1ED6361B89092D294B90C78C4A68EB793D190E7D1D9BDEE7A91E1B95FDE9F3BCEAEFE809
310
6A6D6F9F7D4B79F4275C90E7A04248AA51D5C4C738DAE06F72885AC4796EBE65D22A88A22223B995679120E2D50EB1542F098381188D4EA111AE3DB043FF20AF6F2B4AE3D7D83D65E5AECA730D4D3BAC91BD05FEA992B565D95F549CD6069B90AB2A63EACA38A45E4B6A87D781574F86817E4C2FCCC72690D62E2729520E37
310
9BAF234797BAF6D62B3BFC781FED37BA1E4F2B2F052FA9501A3E80569BB8F6A9A364D4FA67654E6F803383981F82F21591FF84F23D9882BC896C3FDBCF8C162508933B2E0AE4C69DD43F6BD2BE38DDDBF10BF86CB4FA784D37F3AF16075E67EC9030DECA1FC0A55373F5DFF3378C591FA9BDF485C10B0A8C8BA909E5262639
310
A8E72163488806A595734C81CB77D1DE0ED7604A303B76913CEC0272F412782FF88EFF4636D8AA56DF7B322474C4B767303F625997056C7B032C473C592B36CEBD15F3F9FF5233B7ABCDC74D257624A60F8658567497B14CE1EC3C80B76FD02011038F9EE9EB0F2E12387A9C844D3F09855125116D1D731DF8B43D2CF4E0A0
310
79A020C6BE946BCE0B7EA1E1219331CD73C228AF5A2DDD31A4B1DA918CE91350854D40A71723140BFA92E94E62B0626016CEFA5864A50E5977E8753CEDBEE1CBB7F52780D20E17AF0BA0F5F9B02A3AD07DCC732EB6D1EBB661421BE0C39E21BABF0FE16D22EA6929407C8DE596724C88B749B6DB5512BC7B228ADFD7CB7EA6
310
3A22397E690BA8D5D8D4E40CEC8CDA23C2C0B7D5898640101CEC9C6D331CE328CB93CAFBBAC70A642DF70DF95155945B52F08AA973C23469FD69ADEF84F7BB18F983A8F8C90E37F5D35980B2139A1C523540813E824EF83448CF7C72B598CE97D7CEEDDDDD3B6736BFBC771677EF66CE6A7E7139F7A793E9EDF2B2B3A8B624
310
0CDA13AA5F8388264EC4A0129909F3B7F5A16CEDF08128E97D680ACA4B9BE7B7B58BB638F0B00700EF36AE8B32A705658A68F83EE897FC2B41573190D1CCAF0B92D233A47CFEB019D9809933F67DD1A5467F8CF69AD9A5AE859342D45355448C64F968A371DC2D596ADC6E43D93D1B466F877A64E2893E54F23C4B40388995
310
525E5005DA3983ED45412510D3EFCA13737B3863F74BD30F2A12E5B4B5E489A025CE25500DB855B11ACE5BBFA185D35DD48D8DC3CE7DC69F2944DB42AA6F6CF09BCA622ADD08C7A36E7C6AE18000BAB08E040135C2D21C9D75B3A91B77BB746C403F38018DFE6EC939DD92F16B40BC05294B9CDA035AAD6D330AE27FE4786B
310
8E45145EA34A75BE1C263A676A35A8ACC6297337400BF16C54EF515F3F77CB77EB3583889C754FFA29081AA98E2222ADEF05DA3E63D2EDEA8B8756C05A7FB6CABC4A91CBF325398202CC952E70A008A830324BA200D5E5EF8F5F04C75DB4B0EE3340E071C98B823333B83577596BF3849B69F2085AA0FAFA212F26BEFF5877
310
FDE622B28D88A42E49E43326DA82D31E8CB006401E1DA726059ECEC168F97A6599036306A135688F9AD2E61A6EA178F4CD51974A9F2CCB9F36FE5EBD14601068D9C3BF01504B0304140006080000B670623B000000000000000000000000350000006662782F42384135303843342D343331462D343546312D424341352D35
310
32343432364645413344462F76657274696365732E62696E504B0304140006080800B670623BF270F1330600000004000000360000006662782F42384135303843342D343331462D343546312D424341352D3532343432364645413344462F747269616E676C65732E62696E636660600000504B0304140006080000B67062
310
3B000000000000000000000000370000006662782F42384135303843342D343331462D343546312D424341352D3532343432364645413344462F617474726962757465732E62696E504B0304140006080800B670623B08DA0BD19000000041010000360000006662782F42384135303843342D343331462D343546312D4243
310
41352D3532343432364645413344462F6469726563746F72792E786D6C858F410AC3201045AF22B36F53E9A60B35CBEEBAE80D244E44489C6234F4F835464A48035D0DF398FF9F8AF63D0E6CC63039F212F8F9020C7D47C6792B21C5FE7403D62A1188E2E60C98D7234A5830286103A55745067B9D86B8A3CF9C7F90C11DE6
310
07FB144396D7B6A82D282E9A152AD114D5EF2CB866EEE831B8EEA07A7BB5A8D7D61A2BAAEB7FD5F70921FF497D00504B0304140006080800B670623B3B4606F3FE000000A00100003B0000006662782F42384135303843342D343331462D343546312D424341352D3532343432364645413344462F7265736F75726365732F
310
636F72652E786D6C8D504B6E833010BD0A9A6D65B08134808CA354A427E8052C332156828DFCA97AFC9A40A576D7CDCCE87D344F8F9FBEE647F689CE6B6B7A6039850C8DB2A336530F315C4903D94970676DF82583CCC8197B5861107C72362E3BA4AC096842428D1D7107A5F71820538F74F4E0D50D6799CB1892C2DFF345
310
AABB9C306779A2934E701F5C0A906D4FD609C2A1B7D129F4BCD858C163D4E3AED163FAA9AF1A1D88F67CA98E6D35906AA82A52BFB39ABCD5CD915C86331BD86BD3B665CD8BD52C78D0F34F46E550061C419494B6843142CB0F5677F4D0D58717DA7494F26295FF31C565FCA7296A13AA728FBBD93C0896823C09C18BB5AFB4
310
9E65A6BD762BBE01504B010214000A0000080000B670623B3DEE336E79000000790000001B00000000000000000000000000000000006175746F6465736B2D64657369676E2D7061636B6167652E786D6C504B01021400140006080800B670623BD486FD9CA0000000F40000001300000000000000000000000000B2000000
310
5B436F6E74656E745F54797065735D2E786D6C504B01021400140006080800B670623B28ED286BEB0000007C010000080000000000000000000000000083010000636F72652E786D6C504B01021400140006080800B670623B55019EA25F0000007C000000070000000000000000000000000094020000636E782E786D6C50
310
4B01021400140006080800B670623B7BC41AC871010000D40300000C00000000000000000000000000180300006662782F636F72652E786D6C504B01021400140006080800B670623B70102A487D0000009D0000000B00000000000000000000000000B30400006662782F636E782E786D6C504B01021400140006080800B6
310
70623B3610CA3329010000120200003100000000000000000000000000590500006662782F42384135303843342D343331462D343546312D424341352D3532343432364645413344462F636F72652E786D6C504B01021400140006080800B670623B1B8617914E010000330300003000000000000000000000000000D10600
310
006662782F42384135303843342D343331462D343546312D424341352D3532343432364645413344462F636E782E786D6C504B01021400140006080800B670623BBFEF2E3B690500003C10000034000000000000000000000000006D0800006662782F42384135303843342D343331462D343546312D424341352D35323434
310
32364645413344462F6F626A656374732E786D6C504B01021400140006080000B670623B0000000000000000000000003500000000000000000000000000280E00006662782F42384135303843342D343331462D343546312D424341352D3532343432364645413344462F76657274696365732E62696E504B010214001400
310
06080800B670623BF270F133060000000400000036000000000000000000000000007B0E00006662782F42384135303843342D343331462D343546312D424341352D3532343432364645413344462F747269616E676C65732E62696E504B01021400140006080000B670623B00000000000000000000000037000000000000
310
00000000000000D50E00006662782F42384135303843342D343331462D343546312D424341352D3532343432364645413344462F617474726962757465732E62696E504B01021400140006080800B670623B08DA0BD1900000004101000036000000000000000000000000002A0F00006662782F42384135303843342D3433
310
31462D343546312D424341352D3532343432364645413344462F6469726563746F72792E786D6C504B01021400140006080800B670623B3B4606F3FE000000A00100003B000000000000000000000000000E1000006662782F42384135303843342D343331462D343546312D424341352D3532343432364645413344462F72
310
65736F75726365732F636F72652E786D6C504B0506000000000E000E0080040000651100000000
  0
XRECORD
  5
187
102
{ACAD_REACTORS
330
186
102
}
330
186
100
AcDbXrecord
280
     1
 70
     1
 90
429727718
  1
887D55A9-D0DD-414E-B741-A7DCD4DA2B4C
310
504B03040A0000080000B670623B3DEE336E79000000790000001B0000006175746F6465736B2D64657369676E2D7061636B6167652E786D6C3C3F786D6C2076657273696F6E3D22312E302220656E636F64696E673D227574662D3822203F3E3C666F726D6174733E3C666F726D61743E687474703A2F2F736368656D612E
310
6175746F6465736B2E636F6D2F64657369676E2D7061636B6167652F323030393C2F666F726D61743E3C2F666F726D6174733E504B0304140006080800B670623BD486FD9CA0000000F4000000130000005B436F6E74656E745F54797065735D2E786D6C7D8EC10E82300C865F65E91D8A1E8C310C0EEA1BF002731658846E
310
D98AC1B77784ABF1D8FE5FBFBF75BBCE937A534CCEB38643598122B6FEE978D0B0485F9C41B54DDD7D022595594E1A469170414C76A4D9A4D207E29CF43ECE46F218070CC6BECC4078ACAA135ACF422C856C0E68EA1BF5669944DDD7BCDE7B1F8E415D77AECB980613C2E4AC91FC167A2B244592486606FC29C8FD7F045B9A
310
EF7053A7E60B504B0304140006080800B670623BBC1638F5EC0000007C01000008000000636F72652E786D6C8D90416EC3201045AF82665B61836BE2D8C24471DB9CA01740401C94182C03558F5F9C3852BBEB6A467FFE9B197D7EF89E6EE8CB2CC17AD7032D0820E394D7D68D3DA478C67B4007C117EFE32F1B202727D3C3
310
2A83E0E3E2D3BC49CABB685CCCAAF3DA6CA20CC14440EA969B1E82BA98491632C5EC08D76296EA2A4753D06797E194AC468F2356E77DF66CCD02825543D50CACC62D39ED70FDC68EB8FD68F6F8787A6784342D1DDA1D2F5758F068A7E77DB518198D065111D2624A31A93E69DD11D6D5EC85EC3B4278B9DAFF4069D6FF8492
310
75F1B5DADE7D600104CD8FDC0782976B16B9DC83CA75CD4DFC00504B0304140006080800B670623B55019EA25F0000007C00000007000000636E782E786D6C4DCB3B0E80201045D1AD90E915ED2CF8AC45050C11660C8261F98AB1B07AC9C97D42D718D865D3E909258CFD00CCE24AC6E326A164D74DC0B4128928FF326038
310
472BA13128B1252AC747C6BAB984FC68F0B87FE8960A5C09FE86CFB69FBA01504B0304140006080800B670623B3586FFB671010000D40300000C0000006662782F636F72652E786D6CC553ED6E8320147D15C2DF4541A76D6D90A6DDD627D80B50A4CE54C120983EFEAE1F4DD7A55BBA5FF3879273EEE59E7310B6393735EA
310
95ED2AA3731C851423A5A5292A5DE6D8BB63B0C268C39935C67D29C3488B46E578803167A535BE9D2169B453DA01AA4DA16650749D7218C91A1639EEE4876A4428BC838AEE14B6429E44A9C228041AEA38EB9C0501681A32BC313F1ECE8C4C3867DE57C5CC56054CAB8E95B298A7F12E5EEED224C8E87E11242FE936C8DE96
310
AB60BB7F4D295D66D12E5B30323473E6AAE6A24E5A259C2A308F29CD82280A68FC1E256B9AAE93F489AED694323294DF34F9B678B0C957DA3DC7B3DCA9ADC33C022123F1CD2D44E450277AD04338234388F01913BE0D1A0281909D38D4171F27807A259DB1093085F157AA17B557309586747CD0CF0B46A64E983A6E0EAEEF
310
CE881F9EF1FB8E70D44297604238581EBC1B74B249C31C5AAB6CD0BB33D2C636A27ECCC62F0EFF445DC5DF95244D6DEC7F2922F30191F9F720C37DE49F504B0304140006080800B670623B4220A0FF7D0000009D0000000B0000006662782F636E782E786D6C4DCCD10A83201886E15B91FFDCE542CB0335D0EC3E6259C84A
310
C3E9D8E5AF46073BFAE0E1E315DD675BD1DBA5978F41C2FD4600B9F088930F8B849267CC01754AA418F3DF0D50183727E164506249B1EC174D6E1ECB9A0F5D7D785E68DB8151CD286E5A5363CA6B8A39E90D36D40E96B086F55A43A544F52B1D7B86D517504B0304140006080800B670623B2FA3FEDE290100001202000031
310
0000006662782F45374635344235342D363743322D343832342D383044432D4334454645303536354442422F636F72652E786D6C8D515B6EC32010BC0AE22B55850D2E386E848994D7097A0117488A1283C5A3CAF10BB523B57FF961D1ECCCECC0F2ED7DBC816FED8371B687A4C210682B9D32F6D2C314CFA883602BB8772E
310
FEA141608751F7B0C050F08B77695A20E96CD43666D43AA5177008414708E42D5F7A18E4971E876A483133C2B59A06791D2EBA22556E679EE021FA1C00CC43CA09C5717D6274C7286AD7FB06D1AEA1A8C3873DDAD3E3E98859CB0EBB1DAF67A1E02919B5C88DCA71CCD968FFAC49110B1ECDF8882FBD1EA256503418BF2342
310
106E3E08DD60B6A1EC15771B8C795DE8FF4469524F8A92B1F1AD59E2CEB20005E1F5DC105CB9F4797B84D1F7C9F908CABC55D0F2050A5C61CC1AD2F27A26E6E767C7962E8E213A9FBF7775FDCC5CC266DB960A5E970DE5F2BBBE5CCB36C50F504B0304140006080800B670623B1B8617914E01000033030000300000006662
310
782F45374635344235342D363743322D343832342D383044432D4334454645303536354442422F636E782E786D6CD593C16EC32010447F0571AD6CE3D489D20813A9877E410FBD62D82434182CC055F3F75D1292E692438FBD206B7698593D61BEFD1E2DF982108D773D6D6B460938E5B571FB9ECE6957AD29D90A1EBC4F77
310
364A9C1CA1A759A682EF839FA72269D8C9D92654AD71C72206887E0E0A22CAF926B15E498B01E0AA19451807D01A34B919F16B070157417138917400F2F6FA41FCF0092A45DEE414C19BDC21783E4BD39D891265658C3D8DEA00A3ACE59CBC8678ACB54CB26EEB6BD7839D7E9348BE70AD9C8321B9BCA7F9A4A26C542347DE
310
E050F09802D22BA6749A800A394DD62899107273365E3C82CFC6A55557BC06C10774B7ABE7AEC3B0F34CF06446280E154026D0542C187BA9DAB6628BF7B6DBB0E5A65B3EB1F58631DE64BBE083F7B65CC218087E22CABB042E51D1F2268F1FE12B3EA24D40D63E9CFE00120194D60B9D5BC67FE6D39CDF37E20AF817881F50
310
4B0304140006080800B670623B29652116630500003C100000340000006662782F45374635344235342D363743322D343832342D383044432D4334454645303536354442422F6F626A656374732E786D6CAD575D739B3814FD2B0CFB0C989834C90EA1639B24E3E9A6EDD4D3CE3E64C623834CD8006224913AFDF57B040203
310
B65BEF871F0C12D2FD3CF7E8CA7FBFCB33E3957291B2E2D674ED8969D02262715A24B76625B7D6B569BC0F7CCE98EC2D338D82E4F4D654D366E0279C55A59E8AE99654991CCDDECFFF3444440B6A1A514684B83545F44C7362934AB2988A173B2692D8C97667BB76B3702836E1A47C1E092D09A78584A5982F20C5688C7287
310
C389E904BEA3BE07BEFAD7ABA6A75739B53F43FD69212429A20365233153D70BEF2E2E6FAC4BCF9B5ADEBB0BD79ADFCF43CBBD9A4E16EF168B9BD9DD0D140BC921495BC2E9D60C1E101B9E46BED37CEA2CD6861F3329624541A3DA7F7858DBAC25C6B4A4458C3CA654405BCFEBC970E8AAD8F43E4FD558ABEC4F9FE7557F47
310
4F506B7BFBEC5BCA367FC105710E2AB8A00A554D7CB4A30DFE26FBA86D18CBF4B75418399194A72433B274C3097F33032C554B027F2046A1932B842B0FCCC0DDCBEBDB8AD2F835768F59B9ADB24C41D30C6A64AF817F2A456D59FA83F2E3DA60137255A585BCD60EC9B7929AC18DEFD49381AF1ED30BFDB109A4B1CD488294
310
C3CDE6EBC8D185AABD6568061FEE37BB95AAC7E3CA4BCE4ACAA5820FA0D526AE7DAA2869B5EE5999531BE0CC20E6FBA07C41E43FA27CF7A6206F3CDD793B4F6B919C1462CB788EDCD893FA674CDA17AB7B3B7C019F8D561FAEE966FED562DFE98C1D12C6A9FC015C2A35D7FF3D7FC398F591DA4B5FE0BFA2C0189FEA50AE22
310
92817A1ED3020951A03432862970F976B33383259812CC8E5D240BBA801CBCF8CE2BBEE3BF910DB6AAD5F79E05123AE2DB33981FB1ACCB02B69D00CB014FD68AB573A7627EF9BFD4CC2C5C7D58557C4B22FAA88925A4DBB44825CECE3D78FB060D1231F0E885BE7D673C86A3874958F593906B5502D1563157814FDAC3420D
310
F69A070A22EC4B98E23CFF171A1E5311D12C23056555ABA53B8614563B92D17D02AAB009E8F46284624E5F53D5490C560CCCC2591FF1B45421EB0EBD8EA7ED13BE7C5D7E0428CD60FEF60779EB13E6664FF711CB185F6FDED60D139A001FF60CD1FD6D086F1D51474901E26B2CB794A343BC8ED3EDB612E0DD2351FCB65CF4
310
33D511C9E14B5B40ADC6A6263DB0336A8F700DDF56271A024E70B0B3629DE21847591E55DED73D56206AB927E46FAABC5C939C55853C274C93D69FD6FA4E78BF8B11DF898C9ECD60553FAD39283BA6F18984AA23E8884F83F45C5F5F859797B31B2B9C84A1E5B9DE9D35BFF25C6B76152E422F9C5DCC3D847F5801ED09D5AF
310
41441327A25FF15487F9EB725FB666F048A4701E9A827292E6F97569A32DF61DEC01C0BB8DCBBCCC684E0B49147C1FD54BF685A0AB18C868E6973949E819523E3DAC463660E68C7D9F55A9D1EFA3BD7A76A16AE1A810F95CE59B82A4D968A376DC2E8B44BBDD86B27B368CDE0ED548C7137DA860591A83706223A12CA712B4
310
7306DBF39C0A20A6DF95C7FAF670C6EED7A61F946493D1D6926782963813403548A78AE470DEF80D2D9CEAA26E4D1C76F60BFE74219A06527D6B82DF641A51616F703CAAC6A7160E08A00BEB4810A0274592A1B36E3675E36E978A0DE80727A0D6DF2D39A75BD27E0D8837276589537B40ABB56D5A41F48F1C6FCD3188C4EB
310
A6929D2FFB89CE995A4D00AE813BDD032DC48B56BD437DFDDC2DD7AED70C2272D63DE9A72068A45A92F0A4BE17A8A06B9366E16707AD80B1FC649459952097E74BB23805982B55E0401150A165964402AA8BDF9F3E7386BB686EDCA780C0D382E5392BF460A6EFB2C6EA1937D3F809B440D5F5435C4C5CF7A9EEFAF54564BD
310
2182DA24162F98680B4E7930C21A0079709CEAEB99A372305ABE0C0D7D6078105A83F6A0296DAEE1068A47DD1C55A9F4C9B2FC69E3EFD44B81028E963DF81B504B0304140006080000B670623B000000000000000000000000350000006662782F45374635344235342D363743322D343832342D383044432D433445464530
310
3536354442422F76657274696365732E62696E504B0304140006080800B670623BF270F1330600000004000000360000006662782F45374635344235342D363743322D343832342D383044432D4334454645303536354442422F747269616E676C65732E62696E636660600000504B0304140006080000B670623B00000000
310
0000000000000000370000006662782F45374635344235342D363743322D343832342D383044432D4334454645303536354442422F617474726962757465732E62696E504B0304140006080800B670623B08DA0BD19000000041010000360000006662782F45374635344235342D363743322D343832342D383044432D4334
310
454645303536354442422F6469726563746F72792E786D6C858F410AC3201045AF22B36F53E9A60B35CBEEBAE80D244E44489C6234F4F835464A48035D0DF398FF9F8AF63D0E6CC63039F212F8F9020C7D47C6792B21C5FE7403D62A1188E2E60C98D7234A5830286103A55745067B9D86B8A3CF9C7F90C11DE607FB144396
310
D7B6A82D282E9A152AD114D5EF2CB866EEE831B8EEA07A7BB5A8D7D61A2BAAEB7FD5F70921FF497D00504B0304140006080800B670623B6378F24DFF000000A00100003B0000006662782F45374635344235342D363743322D343832342D383044432D4334454645303536354442422F7265736F75726365732F636F72652E
310
786D6C8D504B6E833010BD0A9A6D65B0094E42641C85B639412F6099496225D8C89FAAC7AF09546A77DDCC8CDE47F3F4C4F16B7C149FE88371B603565228D06A37187BED20C50BD9437194C23B177FC9A0B06AC40E6618A4B87A97A615D2CE46B431A3D60DB8822A048C50E8473E3A08FA86A32A558A5911EEE5A4F45D5DB1
310
6465A6B34E8A107D0E502C4FE609D26370C96B0CA25A58295232C3AA3143FE692E063D485EF7F5AEE71BD2D2F39634AFFC44DAF7DD9E9CCE6F9CD25DCBFA762BAAD92C4534E34F46ED51451C40D694B6843142EB0FD61C283F34FC85EE0F948A6A96FF31A569F8A729191B37F51A77B105902C0779125254735F793DCBCC7B
310
EE567E03504B010214000A0000080000B670623B3DEE336E79000000790000001B00000000000000000000000000000000006175746F6465736B2D64657369676E2D7061636B6167652E786D6C504B01021400140006080800B670623BD486FD9CA0000000F40000001300000000000000000000000000B20000005B436F6E
310
74656E745F54797065735D2E786D6C504B01021400140006080800B670623BBC1638F5EC0000007C010000080000000000000000000000000083010000636F72652E786D6C504B01021400140006080800B670623B55019EA25F0000007C000000070000000000000000000000000095020000636E782E786D6C504B010214
310
00140006080800B670623B3586FFB671010000D40300000C00000000000000000000000000190300006662782F636F72652E786D6C504B01021400140006080800B670623B4220A0FF7D0000009D0000000B00000000000000000000000000B40400006662782F636E782E786D6C504B01021400140006080800B670623B2F
310
A3FEDE290100001202000031000000000000000000000000005A0500006662782F45374635344235342D363743322D343832342D383044432D4334454645303536354442422F636F72652E786D6C504B01021400140006080800B670623B1B8617914E010000330300003000000000000000000000000000D2060000666278
310
2F45374635344235342D363743322D343832342D383044432D4334454645303536354442422F636E782E786D6C504B01021400140006080800B670623B29652116630500003C10000034000000000000000000000000006E0800006662782F45374635344235342D363743322D343832342D383044432D4334454645303536
310
354442422F6F626A656374732E786D6C504B01021400140006080000B670623B0000000000000000000000003500000000000000000000000000230E00006662782F45374635344235342D363743322D343832342D383044432D4334454645303536354442422F76657274696365732E62696E504B01021400140006080800
310
B670623BF270F13306000000040000003600000000000000000000000000760E00006662782F45374635344235342D363743322D343832342D383044432D4334454645303536354442422F747269616E676C65732E62696E504B01021400140006080000B670623B0000000000000000000000003700000000000000000000
310
000000D00E00006662782F45374635344235342D363743322D343832342D383044432D4334454645303536354442422F617474726962757465732E62696E504B01021400140006080800B670623B08DA0BD190000000410100003600000000000000000000000000250F00006662782F45374635344235342D363743322D34
310
3832342D383044432D4334454645303536354442422F6469726563746F72792E786D6C504B01021400140006080800B670623B6378F24DFF000000A00100003B00000000000000000000000000091000006662782F45374635344235342D363743322D343832342D383044432D4334454645303536354442422F7265736F75
310
726365732F636F72652E786D6C504B0506000000000E000E0080040000611100000000
  0
XRECORD
  5
18A
102
{ACAD_REACTORS
330
110
102
}
330
110
100
AcDbXrecord
280
     1
 70
     0
 90
1778669749
  1
9BF507EE-FAF7-4A99-A33D-4EE51894BC40
310
504B03040A0000080000B670623B3DEE336E79000000790000001B0000006175746F6465736B2D64657369676E2D7061636B6167652E786D6C3C3F786D6C2076657273696F6E3D22312E302220656E636F64696E673D227574662D3822203F3E3C666F726D6174733E3C666F726D61743E687474703A2F2F736368656D612E
310
6175746F6465736B2E636F6D2F64657369676E2D7061636B6167652F323030393C2F666F726D61743E3C2F666F726D6174733E504B0304140006080800B670623BD486FD9CA0000000F4000000130000005B436F6E74656E745F54797065735D2E786D6C7D8EC10E82300C865F65E91D8A1E8C310C0EEA1BF002731658846E
310
D98AC1B77784ABF1D8FE5FBFBF75BBCE937A534CCEB38643598122B6FEE978D0B0485F9C41B54DDD7D022595594E1A469170414C76A4D9A4D207E29CF43ECE46F218070CC6BECC4078ACAA135ACF422C856C0E68EA1BF5669944DDD7BCDE7B1F8E415D77AECB980613C2E4AC91FC167A2B244592486606FC29C8FD7F045B9A
310
EF7053A7E60B504B0304140006080800B670623BCA089DFFEC0000007C01000008000000636F72652E786D6C8D90416E83301045AF62CDB632D8402020E32882F604BD80653BC44AB011B6AB1EBF262152BBEB6A467FFE9B197D76FA9EEFE84BAFDE38DB03CD08206DA553C64E3DC470C1474027CE56E7C22F1B202B66DDC3
310
260367D3EAE2B24BD2D9A06D48AA754AEFA2F05E0740F29E9A1EBCBCEA59642286E4F0B76C11F226269DD15797E0188D42CF2346A57DE662F40ABCAEC77628C6120F654571D50C04B7F5B9C1E3997CD4F550BE3745C3F20DE62C98F9755FAE5A04AD801784B498524C8A4F5A75E4D055873772EC0861F966FF03C545FD138A
310
C686B2D8DF7D621E384D8F3C069CE55B16A93C824A75CB8DFF00504B0304140006080800B670623B55019EA25F0000007C00000007000000636E782E786D6C4DCB3B0E80201045D1AD90E915ED2CF8AC45050C11660C8261F98AB1B07AC9C97D42D718D865D3E909258CFD00CCE24AC6E326A164D74DC0B4128928FF326038
310
472BA13128B1252AC747C6BAB984FC68F0B87FE8960A5C09FE86CFB69FBA01504B0304140006080800B670623B68FC0B7272010000D40300000C0000006662782F636F72652E786D6CC5535B6E833010BC8AE5DF0A6C1E8124328E22D29EA01770C0A128602363A31CBFCB234A53A555FA553EC09AD9F5CE8C31DB5DDA060D
310
D2F4B556190E7C8A9154852E6B5565D8D993B7C668C799D1DA7E29C3488956667884316795D1AE5BA0422B2B950554E9522EA0E87B69312A1A5864B82F3E642B7CE12C54F467BF13C55954D20F7CA0A18EB3DE1A1080E621E31BF3D3F1C2C88C73E65C5D2E6C5DC2B4FA544B8379921C36797888BC3C8A032F4E73EA6D927D
310
EA1DF6F42D49F2E8350D5346C666CE6CDD5ED515460A2B4BCC434A375E1078347C0FE22D5D6DE3D50B5D6F2965642CBF6B725DF96493AB958DC245EEDCD6631E809089F8E61622B2A81703E8219C913144F84C09DF070D8140C8561C9BAB8F3340832CAC363130A576376A108D933095FA747AD0CF0B46E64E983A6D0EAE1F
310
CE089F9EF1FB8E70D44255604258581E9D1D75B259C3125A278D37D80B52DAB4A279CEC62F0EFF44DDC43F9454E8469BFF5244960322CBEF41C6FBC83F01504B0304140006080800B670623B0F71DDB67E0000009D0000000B0000006662782F636E782E786D6C4DCCD10A83201886E15B91FFDCA54DB73F502386BB8F5816
310
32D3703976F9ABD1C18E3E78F87855FB990379BBFCF2296AE02706C4C5471A7C9C349475A408A4352AA7B4FEDD80C47E761A7606A3A69CCA72D0E0C6BE8475D3E0E3F3409428EA6B27A84079A782899AA2EC1A7AE3ECCC2FD858CB2D544655BFD2B67BD87C01504B0304140006080800B670623BE134B4FB28010000120200
310
00310000006662782F38353834323741342D343835462D343034322D383541392D4331303331363839454531452F636F72652E786D6C8D515B6EC32010BC0AE22B55850D0EA424C24451959EA0172086A42831583CAA1CBF503B52FB971F16CDCECC0EACD8DFC71BF836215AEF7A481A0C817183D7D65D7A98D3197108F652
310
04EFD31F1A044E8DA6871586525C82CFD3020DDE25E352419DD76601558C264130DCCAA58771F832A36A544E8511AFCDA486ABBA988634A55D7852C4144A00300FA927949C71DABD1D28A29C7D208A6987383B6CD13BC16BB2E1DBE3911C453B0BA5C8D9EA456E758963CFD684674DAA588A64C747FC2118958C86B2C3788B
310
0841B8FB247487D98EB257CC77188BB6D2FF89F2A49F1465EBD2BA5BE2CEB2082511EDDC9042FB7CBA3DC298FBE4430275DE2A9AE1054ADC60CC08E3A29D89E5F9C5714317C7987C28DFBBBA9E0A97B0D97643A568EB864AF95D5FA9759BF207504B0304140006080800B670623B1B8617914E010000330300003000000066
310
62782F38353834323741342D343835462D343034322D383541392D4331303331363839454531452F636E782E786D6CD593C16EC32010447F0571AD6CE3D489D20813A9877E410FBD62D82434182CC055F3F75D1292E692438FBD206B7698593D61BEFD1E2DF982108D773D6D6B460938E5B571FB9ECE6957AD29D90A1EBC4F
310
77364A9C1CA1A759A682EF839FA72269D8C9D92654AD71C72206887E0E0A22CAF926B15E498B01E0AA19451807D01A34B919F16B070157417138917400F2F6FA41FCF0092A45DEE414C19BDC21783E4BD39D891265658C3D8DEA00A3ACE59CBC8678ACB54CB26EEB6BD7839D7E9348BE70AD9C8321B9BCA7F9A4A26C542347
310
DEE050F09802D22BA6749A800A394DD62899107273365E3C82CFC6A55557BC06C10774B7ABE7AEC3B0F34CF06446280E154026D0542C187BA9DAB6628BF7B6DBB0E5A65B3EB1F58631DE64BBE083F7B65CC218087E22CABB042E51D1F2268F1FE12B3EA24D40D63E9CFE00120194D60B9D5BC67FE6D39CDF37E20AF817881F
310
504B0304140006080800B670623B5933D422630500003B100000340000006662782F38353834323741342D343835462D343034322D383541392D4331303331363839454531452F6F626A656374732E786D6CAD575B6FA33814FE2B887D0642934E9B156594264D158D3A534DD4D13E548A0C38942D60649B4EBABF7E3F8321
310
40924EF6928780CDF1B97EE762EFF32E4B8D37CA45C2F21BD3B547A641F39045491EDF98A5DC5AD7A6F1D9F73863B243661A39C9E88DA9B64DDF8B392B0BBD15D12D295339D85DDEFE618890E6D434C2940871638AF08566C426A5641115AF764424B1E3EDCE76ED9AB0CF36E6A47819302D08A7B984A6D8CFC1C5A89572FB
310
CB91E9F89EA3BEFB9EFAD754E3D3544E654F5F7E920B49F2F040D880CDD89D2CEE2E2EA7D6E56432B6269F2E5CEB7679BBB0DCABF168FE693E9FCEEEA6102C240727AD09A75BD3BF876F78127A4EFDA9D5582B7E4CA590E5390D2BFB6161A5B3E618D182E611E2985001691DAB47FDA5AB7CD3F93C566B2DB2BB7D9E55DD13
310
1D468DEECDB3AB290BFE8409E21C54704115AA6AFF68436BFC8DF65E0B184BF5B74418199194272435D224E084BF9B3E481589EFF5D828747285706581E9BB7B7E5D5D911ABFC6EE312DB7659A2A689A7E85EC0DF04FA5A8344BFEA2FCB834E8845895492EAFB541F2BDA0A63FF59C6AD3F7D4637CA13FD68E34B629891172
310
98597F1D183A57B9B75A98FE9765B05BAB7C3C2EBCE0ACA05C2AF8005A4DE09AA7F29216EB9E15397500C6F47CBE77CA7778FE2BD277AF0AE2C693DD6437D1522427B9D8329E2136F6A8FA19A3E6C56ADF0E5F50CF06D48734EDCEBF22F69C56D97EC138153F804B85E6FABFC7AFEFB32E523BE1F3BD372418E363EDCA7548
310
52949E8724474014288D94610BB57C1BEC4C7F854A89CA8E5324F55B871CBC78CE1BBEE3BFE68D6A5589EF3C730474506FCFA8FCF0659516D0ED04580EEA6425581B77CAE797FF4BCECC16EB2FEB926F49481F746159D06D922712BD730FDEAE42BD40F42C7AA5EF3F198F60E86110D6DD20645A9480B795CF95E3E3A659A8
310
C55E724F408873315335CFFB8584874484344D494E59D94869DB90C26A5B64F49C802CAC1D3ABE18A098D3B7444D123D8A9E5AE8F5214F0AE5B2B6E9B575DA3E61CBD3EA2B4009FA940524DD1305FB6A1FB294F14DF0BEA90BA109ECE1481FDC3FFAE8D60E75141700BE82725371B4873751B2DD960265F788137FACE6DD40
310
B575E4F0A5C99F46629D92131467A41EE11ABD8D4CCC039CA0AFB37C93A08B232B8F0AEFCA1E0A1015DF13FC83322B362463652ECF71D3A8B1A7D1BE65DE1D62C44F22C317D35F574FEB16153BA2D13E543D10A80E74C4A65E78A6B7CBCBD1D5DD9DB59C2DAFACC96C3AB566E3F1C29ADCDD5DBAD7D3C9ED7C822ED74F80A6
310
41755310DE4443F44A9E68373FADF6596BFA0F440AE7BECE2727AE9F4F2B1B53B1E7E00CF0DD1E5C65454A339A4BA2D0FBA05ED2EF0443458F47BDBFCA484CCFE0F2ED7E3DD0013B679C7B5499467F0ECEEADDB9CA85A34CE44B99053949D2C1416DB85DE4B136BB7165FBAC0B7AB3542BED4F8CA182A549847A1319316519
310
95A83A67147B9E5101C47487F2485F1ECE38FD568F839204296D3479219888530154036E6528FBFBC66F98E0D4107563A2D7D9AFF8D389681A08F58D89F22693900A3B407754734FC51C10C010D6D640809EE4718AC1BA3ED4AEDB53CA37283F68805A7E4B72CEB0A4EDEAD5DD8C14059A76AFAA56BA6901E13F32BC51C720
310
12AF41295B5BF61BAD3195181FB506E6B40F4C10AF5AF40EF9F5B159AE5DD1F43C72D635E94310D45C2D49785C5D0B94D3B54AB3C5A38349C0587D338AB48C11CBF339599C02CCA54A70A008A8D03C0B2201D5F9EFCF8F9CE12A9A19CB0410789EB32C63B95ECCF455D658BFE0621A3DA32C5075FB101723D77DAE867E7D0F
310
D90444509B44E2151B4DC2290B065803200FBAA9BE9D392A0603F2D5C2D00D6302A615680F66D2FA166E2079D4C551A54AB758161FCEFD4E450A14704CECFEDF504B0304140006080000B670623B000000000000000000000000350000006662782F38353834323741342D343835462D343034322D383541392D4331303331
310
363839454531452F76657274696365732E62696E504B0304140006080800B670623BF270F1330600000004000000360000006662782F38353834323741342D343835462D343034322D383541392D4331303331363839454531452F747269616E676C65732E62696E636660600000504B0304140006080000B670623B000000
310
000000000000000000370000006662782F38353834323741342D343835462D343034322D383541392D4331303331363839454531452F617474726962757465732E62696E504B0304140006080800B670623B08DA0BD19000000041010000360000006662782F38353834323741342D343835462D343034322D383541392D43
310
31303331363839454531452F6469726563746F72792E786D6C858F410AC3201045AF22B36F53E9A60B35CBEEBAE80D244E44489C6234F4F835464A48035D0DF398FF9F8AF63D0E6CC63039F212F8F9020C7D47C6792B21C5FE7403D62A1188E2E60C98D7234A5830286103A55745067B9D86B8A3CF9C7F90C11DE607FB1443
310
96D7B6A82D282E9A152AD114D5EF2CB866EEE831B8EEA07A7BB5A8D7D61A2BAAEB7FD5F70921FF497D00504B0304140006080800B670623BD9A3B367FE000000A00100003B0000006662782F38353834323741342D343835462D343034322D383541392D4331303331363839454531452F7265736F75726365732F636F7265
310
2E786D6C8D504B6E833010BD0A9A6D65B01D0201194711694FD00B586642AD043BF2A7EAF16B122AB5BB6E6646EFA3797AE2F8B5DC8A4FF4C1383B002B291468B59B8C9D0748F1420E501CA5F0CEC55F3228AC5A708015062966EFD27D83B4B3116DCCA875136EA00A012314FA968F0182FEC045952AC5AC08D7F2AEF455CD
310
58B232D3592745883E07289E4FD609D26370C96B0CA27AB252A464A64D63A6FCD35C0C7A904D73EE467EE664DCD58CD4ED4849D79C5A723ED1B7A61977AF2D6F45B59AA58866F9C9A83DAA8813484E6947182394BFB3BAA7FBBEDEBFD0434FA9A856F91F53BA4FFF342563E38E6F719FB60092E5200F428A6AED2BAF479979
310
AFDDCA6F504B010214000A0000080000B670623B3DEE336E79000000790000001B00000000000000000000000000000000006175746F6465736B2D64657369676E2D7061636B6167652E786D6C504B01021400140006080800B670623BD486FD9CA0000000F40000001300000000000000000000000000B20000005B436F6E
310
74656E745F54797065735D2E786D6C504B01021400140006080800B670623BCA089DFFEC0000007C010000080000000000000000000000000083010000636F72652E786D6C504B01021400140006080800B670623B55019EA25F0000007C000000070000000000000000000000000095020000636E782E786D6C504B010214
310
00140006080800B670623B68FC0B7272010000D40300000C00000000000000000000000000190300006662782F636F72652E786D6C504B01021400140006080800B670623B0F71DDB67E0000009D0000000B00000000000000000000000000B50400006662782F636E782E786D6C504B01021400140006080800B670623BE1
310
34B4FB280100001202000031000000000000000000000000005C0500006662782F38353834323741342D343835462D343034322D383541392D4331303331363839454531452F636F72652E786D6C504B01021400140006080800B670623B1B8617914E010000330300003000000000000000000000000000D3060000666278
310
2F38353834323741342D343835462D343034322D383541392D4331303331363839454531452F636E782E786D6C504B01021400140006080800B670623B5933D422630500003B10000034000000000000000000000000006F0800006662782F38353834323741342D343835462D343034322D383541392D4331303331363839
310
454531452F6F626A656374732E786D6C504B01021400140006080000B670623B0000000000000000000000003500000000000000000000000000240E00006662782F38353834323741342D343835462D343034322D383541392D4331303331363839454531452F76657274696365732E62696E504B01021400140006080800
310
B670623BF270F13306000000040000003600000000000000000000000000770E00006662782F38353834323741342D343835462D343034322D383541392D4331303331363839454531452F747269616E676C65732E62696E504B01021400140006080000B670623B0000000000000000000000003700000000000000000000
310
000000D10E00006662782F38353834323741342D343835462D343034322D383541392D4331303331363839454531452F617474726962757465732E62696E504B01021400140006080800B670623B08DA0BD190000000410100003600000000000000000000000000260F00006662782F38353834323741342D343835462D34
310
3034322D383541392D4331303331363839454531452F6469726563746F72792E786D6C504B01021400140006080800B670623BD9A3B367FE000000A00100003B000000000000000000000000000A1000006662782F38353834323741342D343835462D343034322D383541392D4331303331363839454531452F7265736F75
310
726365732F636F72652E786D6C504B0506000000000E000E0080040000611100000000
  0
CELLSTYLEMAP
  5
6693
102
{ACAD_REACTORS
330
6692
102
}
330
6692
100
AcDbCellStyleMap
 90
        3
300
CELLSTYLE
  1
TABLEFORMAT_BEGIN
 90
        5
170
     1
 91
        0
 92
    32768
 62
   257
 93
        1
300
CONTENTFORMAT
  1
CONTENTFORMAT_BEGIN
 90
        0
 91
        0
 92
      512
 93
        0
300

 40
0.0
140
1.0
 94
        5
 62
     0
340
11
144
0.25
309
CONTENTFORMAT_END
171
     1
301
MARGIN
  1
CELLMARGIN_BEGIN
 40
0.06
 40
0.06
 40
0.06
 40
0.06
 40
0.18
 40
0.18
309
CELLMARGIN_END
 94
        6
 95
        1
302
GRIDFORMAT
  1
GRIDFORMAT_BEGIN
 90
        0
 91
        1
 62
     0
 92
       -2
340
0
 93
        0
 40
0.045
309
GRIDFORMAT_END
 95
        2
302
GRIDFORMAT
  1
GRIDFORMAT_BEGIN
 90
        0
 91
        1
 62
     0
 92
       -2
340
0
 93
        0
 40
0.045
309
GRIDFORMAT_END
 95
        4
302
GRIDFORMAT
  1
GRIDFORMAT_BEGIN
 90
        0
 91
        1
 62
     0
 92
       -2
340
0
 93
        0
 40
0.045
309
GRIDFORMAT_END
 95
        8
302
GRIDFORMAT
  1
GRIDFORMAT_BEGIN
 90
        0
 91
        1
 62
     0
 92
       -2
340
0
 93
        0
 40
0.045
309
GRIDFORMAT_END
 95
       16
302
GRIDFORMAT
  1
GRIDFORMAT_BEGIN
 90
        0
 91
        1
 62
     0
 92
       -2
340
0
 93
        0
 40
0.045
309
GRIDFORMAT_END
 95
       32
302
GRIDFORMAT
  1
GRIDFORMAT_BEGIN
 90
        0
 91
        1
 62
     0
 92
       -2
340
0
 93
        0
 40
0.045
309
GRIDFORMAT_END
309
TABLEFORMAT_END
  1
CELLSTYLE_BEGIN
 90
        1
 91
        1
300
_TITLE
309
CELLSTYLE_END
300
CELLSTYLE
  1
TABLEFORMAT_BEGIN
 90
        5
170
     1
 91
        0
 92
        0
 62
   257
 93
        1
300
CONTENTFORMAT
  1
CONTENTFORMAT_BEGIN
 90
        0
 91
        0
 92
      512
 93
        0
300

 40
0.0
140
1.0
 94
        5
 62
     0
340
11
144
0.18
309
CONTENTFORMAT_END
171
     1
301
MARGIN
  1
CELLMARGIN_BEGIN
 40
0.06
 40
0.06
 40
0.06
 40
0.06
 40
0.18
 40
0.18
309
CELLMARGIN_END
 94
        6
 95
        1
302
GRIDFORMAT
  1
GRIDFORMAT_BEGIN
 90
        0
 91
        1
 62
     0
 92
       -2
340
0
 93
        0
 40
0.045
309
GRIDFORMAT_END
 95
        2
302
GRIDFORMAT
  1
GRIDFORMAT_BEGIN
 90
        0
 91
        1
 62
     0
 92
       -2
340
0
 93
        0
 40
0.045
309
GRIDFORMAT_END
 95
        4
302
GRIDFORMAT
  1
GRIDFORMAT_BEGIN
 90
        0
 91
        1
 62
     0
 92
       -2
340
0
 93
        0
 40
0.045
309
GRIDFORMAT_END
 95
        8
302
GRIDFORMAT
  1
GRIDFORMAT_BEGIN
 90
        0
 91
        1
 62
     0
 92
       -2
340
0
 93
        0
 40
0.045
309
GRIDFORMAT_END
 95
       16
302
GRIDFORMAT
  1
GRIDFORMAT_BEGIN
 90
        0
 91
        1
 62
     0
 92
       -2
340
0
 93
        0
 40
0.045
309
GRIDFORMAT_END
 95
       32
302
GRIDFORMAT
  1
GRIDFORMAT_BEGIN
 90
        0
 91
        1
 62
     0
 92
       -2
340
0
 93
        0
 40
0.045
309
GRIDFORMAT_END
309
TABLEFORMAT_END
  1
CELLSTYLE_BEGIN
 90
        2
 91
        1
300
_HEADER
309
CELLSTYLE_END
300
CELLSTYLE
  1
TABLEFORMAT_BEGIN
 90
        5
170
     1
 91
        0
 92
        0
 62
   257
 93
        1
300
CONTENTFORMAT
  1
CONTENTFORMAT_BEGIN
 90
        0
 91
        0
 92
      512
 93
        0
300

 40
0.0
140
1.0
 94
        2
 62
     0
340
11
144
0.18
309
CONTENTFORMAT_END
171
     1
301
MARGIN
  1
CELLMARGIN_BEGIN
 40
0.06
 40
0.06
 40
0.06
 40
0.06
 40
0.18
 40
0.18
309
CELLMARGIN_END
 94
        6
 95
        1
302
GRIDFORMAT
  1
GRIDFORMAT_BEGIN
 90
        0
 91
        1
 62
     0
 92
       -2
340
0
 93
        0
 40
0.045
309
GRIDFORMAT_END
 95
        2
302
GRIDFORMAT
  1
GRIDFORMAT_BEGIN
 90
        0
 91
        1
 62
     0
 92
       -2
340
0
 93
        0
 40
0.045
309
GRIDFORMAT_END
 95
        4
302
GRIDFORMAT
  1
GRIDFORMAT_BEGIN
 90
        0
 91
        1
 62
     0
 92
       -2
340
0
 93
        0
 40
0.045
309
GRIDFORMAT_END
 95
        8
302
GRIDFORMAT
  1
GRIDFORMAT_BEGIN
 90
        0
 91
        1
 62
     0
 92
       -2
340
0
 93
        0
 40
0.045
309
GRIDFORMAT_END
 95
       16
302
GRIDFORMAT
  1
GRIDFORMAT_BEGIN
 90
        0
 91
        1
 62
     0
 92
       -2
340
0
 93
        0
 40
0.045
309
GRIDFORMAT_END
 95
       32
302
GRIDFORMAT
  1
GRIDFORMAT_BEGIN
 90
        0
 91
        1
 62
     0
 92
       -2
340
0
 93
        0
 40
0.045
309
GRIDFORMAT_END
309
TABLEFORMAT_END
  1
CELLSTYLE_BEGIN
 90
        3
 91
        2
300
_DATA
309
CELLSTYLE_END
  0
ENDSEC
  0
SECTION
  2
THUMBNAILIMAGE
 90
    16364
310
28000000B4000000550000000100080000000000C43B000000000000000000000001000000010000000000000000FF0000FFFF0000FF0000FFFF0000FF000000FF00FF00FFFFFF0080808000C0C0C0000000FF007F7FFF000000CC006666CC00000099004C4C990000007F003F3F7F0000004C0026264C00003FFF007F9FFF
310
000033CC00667FCC00002699004C5F9900001F7F003F4F7F0000134C00262F4C00007FFF007FBFFF000066CC006699CC00004C99004C729900003F7F003F5F7F0000264C0026394C0000BFFF007FDFFF000099CC0066B2CC00007299004C859900005F7F003F6F7F0000394C0026424C0000FFFF007FFFFF0000CCCC0066CC
310
CC00009999004C999900007F7F003F7F7F00004C4C00264C4C0000FFBF007FFFDF0000CC990066CCB200009972004C998500007F5F003F7F6F00004C3900264C420000FF7F007FFFBF0000CC660066CC990000994C004C997200007F3F003F7F5F00004C2600264C390000FF3F007FFF9F0000CC330066CC7F00009926004C
310
995F00007F1F003F7F4F00004C1300264C2F0000FF00007FFF7F0000CC000066CC6600009900004C994C00007F00003F7F3F00004C0000264C26003FFF00009FFF7F0033CC00007FCC6600269900005F994C001F7F00004F7F3F00134C00002F4C26007FFF0000BFFF7F0066CC000099CC66004C99000072994C003F7F0000
310
5F7F3F00264C0000394C2600BFFF0000DFFF7F0099CC0000B2CC66007299000085994C005F7F00006F7F3F00394C0000424C2600FFFF0000FFFF7F00CCCC0000CCCC66009999000099994C007F7F00007F7F3F004C4C00004C4C2600FFBF0000FFDF7F00CC990000CCB266009972000099854C007F5F00007F6F3F004C3900
310
004C422600FF7F0000FFBF7F00CC660000CC996600994C000099724C007F3F00007F5F3F004C2600004C392600FF3F0000FF9F7F00CC330000CC7F660099260000995F4C007F1F00007F4F3F004C1300004C2F2600FF000000FF7F7F00CC000000CC66660099000000994C4C007F0000007F3F3F004C0000004C262600FF00
310
3F00FF7F9F00CC003300CC667F0099002600994C5F007F001F007F3F4F004C0013004C262F00FF007F00FF7FBF00CC006600CC66990099004C00994C72007F003F007F3F5F004C0026004C263900FF00BF00FF7FDF00CC009900CC66B20099007200994C85007F005F007F3F6F004C0039004C264200FF00FF00FF7FFF00CC
310
00CC00CC66CC0099009900994C99007F007F007F3F7F004C004C004C264C00BF00FF00DF7FFF009900CC00B266CC0072009900854C99005F007F006F3F7F0039004C0042264C007F00FF00BF7FFF006600CC009966CC004C009900724C99003F007F005F3F7F0026004C0039264C003F00FF009F7FFF003300CC007F66CC00
310
260099005F4C99001F007F004F3F7F0013004C002F264C00333333005B5B5B0084848400ADADAD00D6D6D600FFFFFF00FAFAFAFAFAFAFAFAFAFAFAFAFAFAFAFAFAFAFAFAFAFAFAFAFAFAFAFAFAFAFAFAFAFA070707070707070707070707070707070707070707070707070707070707070707070707070707070707070707
310
0707070707070707070707070707070707070707070707070707070707070707070707070707070707070707070707070707070707070707070707070707070707070707FAFAFAFAFAFAFAFAFAFAFAFAFAFAFAFAFAFAFAFAFAFAFAFAFAFAFAFAFAFAFAFAFAFAFAFAFAFAFAFAFAFAFAFAFAFAFAFAFAFAFAFAFAFAFAFAFAFAFA
310
FAFAFAFAFAFAFAFA07FAFAFAFAFAFAFAFAFAFAFAFAFAFAFAFAFAFAFAFAFAFAFAFAFAFAFAFAFAFAFAFAFAFAFAFAFAFAFAFAFAFAFAFAFAFAFAFAFAFAFAFAFAFAFAFAFAFAFAFAFAFAFAFAFAFAFAFAFAFAFAFAFAFAFAFAFAFAFAFAFAFAFAFAFAFAFAFAFAFAFAFAFAFAFAFAFAFAFAFAFAFAFAFAFAFAFAFAFAFAFA07FAFAFAFAFAFA
310
FAFAFAFAFAFAFAFAFAFAFAFAFAFAFAFAFAFAFAFAFAFAFAFAFAFAFAFAFAFAFAFAFAFAFAFAFAFAFAFAFAFAFAFAFAFAFAFAFAFAFAFAFAFAFAFAFAFAFAFAFA07FAFAFAFAFAFAFAFAFAFAFAFAFAFAFAFAFAFAFAFAFAFAFAFAFAFAFAFAFAFAFAFAFAFAFAFAFAFAFAFAFAFAFAFAFAFAFAFAFAFAFAFAFAFAFAFAFAFAFAFAFAFAFAFAFA
310
FAFAFAFAFAFAFAFAFAFAFAFAFAFAFAFAFAFAFAFAFAFAFAFAFAFAFAFAFAFAFAFAFAFAFAFAFAFAFAFAFAFAFAFAFAFA07FAFAFAFAFAFAFAFAFAFAFAFAFAFAFAFAFAFAFAFAFAFAFAFAFAFAFAFAFAFAFAFAFAFAFAFAFAFAFAFAFAFAFAFAFAFAFAFAFAFAFAFAFAFAFAFAFAFAFAFAFAFAFAFAFAFAFA07FAFAFAFAFAFAFAFAFAFAFAFA
310
FAFAFAFAFAFAFAFAFAFAFAFAFAFAFAFAFAFAFAFAFAFAFAFAFAFAFAFAFAFAFAFAFAFAFAFAFAFAFAFAFAFAFAFAFAFAFAFAFAFAFAFAFAFAFAFAFAFAFAFAFAFAFAFAFAFAFAFAFAFAFAFAFAFAFAFAFAFAFAFAFAFAFAFAFAFAFAFAFAFAFAFAFAFAFAFAFAFAFA07FAFAFAFAFAFAFAFAFAFAFAFAFAFAFAFAFAFAFAFAFAFAFAFAFAFAFA
310
FAFAFAFAFAFAFAFAFAFAFAFAFAFAFAFAFAFAFAFAFAFAFAFAFAFAFAFAFAFAFAFAFAFAFAFAFAFAFAFA07FAFA0707070707070707070707070707070707070707070707070707070707070707070707070707070707070707070707070707070707070707FAFAFAFAFAFAFAFAFAFAFAFAFAFAFAFAFAFAFAFAFAFAFAFAFAFAFAFA
310
FAFAFAFAFAFAFAFAFAFAFAFAFAFAFAFAFAFAFAFAFAFAFAFAFA07FAFAFAFAFAFAFAFAFAFAFAFAFAFAFAFAFAFAFAFAFAFAFAFAFAFAFAFAFAFAFAFAFAFAFAFAFAFAFAFAFAFAFAFAFAFAFAFAFAFAFAFAFAFAFAFAFAFAFAFAFAFAFAFAFAFAFA07FAFA07070707070707070707070707070707070707070707070707070707070707
310
07070707070707070707070707070707070707070707070707FAFAFAFAFAFAFAFAFAFAFAFAFAFAFAFAFAFAFAFAFAFAFAFAFAFAFAFAFAFAFAFAFAFAFAFAFAFAFAFAFAFAFAFAFAFAFAFAFAFAFAFAFA07FAFAFAFAFAFAFAFAFAFAFAFAFAFAFAFAFAFAFAFAFAFAFAFAFAFAFAFAFAFAFAFAFAFAFAFAFAFAFAFAFAFAFAFAFAFAFAFA
310
FAFAFAFAFAFAFAFAFAFAFAFAFAFAFAFAFAFAFA07FAFA0707070707070707070707070707070707070707070707070707070707070707070707070707070707070707070707070707070707070707FAFAFAFAFAFAFAFAFAFAFAFAFAFAFAFAFAFAFAFAFAFAFAFAFAFAFAFAFAFAFAFAFAFAFAFAFAFAFAFAFAFAFAFAFAFAFAFAFA
310
FAFAFAFA07FAFAFAFAFAFAFAFAFAFAFAFAFAFAFAFAFAFAFAFAFAFAFAFAFAFAFAFAFAFAFAFAFAFAFAFAFAFAFAFAFAFAFAFAFAFAFAFAFAFAFAFAFAFAFAFAFAFAFAFAFAFAFAFAFAFAFA07FAFAFAFAFAFAFAFAFAFAFAFAFAFAFAFAFAFAFAFAFAFAFAFAFAFAFAFAFAFAFAFAFAFAFAFAFAFAFAFAFAFAFAFAFAFAFAFAFAFAFAFAFAFA
310
FAFAFAFAFAFAFAFAFAFAFAFAFAFAFAFAFAFAFAFAFAFAFAFAFAFAFAFAFAFAFAFAFAFAFAFAFAFAFAFAFAFAFAFAFAFAFAFAFAFAFAFAFAFAFAFAFA07FAFAFAFAFAFAFAFAFAFAFAFAFAFAFAFAFAFAFAFAFAFAFAFAFAFAFAFAFAFAFAFAFAFAFAFAFAFAFAFAFAFAFAFAFAFAFAFAFAFAFAFAFAFAFAFAFAFAFAFAFAFAFAFAFAFAFA07FA
310
FAFAFAFAFAFAFAFAFAFAFAFAFAFAFAFAFAFAFAFAFAFAFAFAFAFAFAFAFAFAFAFAFAFAFAFAFAFAFAFAFAFAFAFAFAFAFAFAFAFAFAFAFAFAFAFAFAFAFAFAFAFAFAFAFAFAFAFAFAFAFAFAFAFAFAFAFAFAFAFAFAFAFAFAFAFAFAFAFAFAFAFAFAFAFAFAFAFAFAFAFAFAFAFAFAFAFAFAFAFA07FAFAFAFAFAFAFAFAFAFAFAFAFAFAFAFA
310
FAFAFAFAFAFAFAFAFAFAFAFAFAFAFAFAFAFAFAFAFAFAFAFAFAFAFAFAFAFAFAFAFAFAFAFAFAFAFAFAFAFAFAFAFAFAFAFAFAFAFA07FAFAFAFAFAFAFAFAFAFAFAFAFAFAFAFAFAFAFAFAFAFAFAFAFAFAFAFAFAFAFAFAFAFAFAFAFAFAFAFAFAFAFAFAFAFAFAFAFAFAFAFAFAFAFAFAFAFAFAFAFAFAFAFAFAFAFAFAFAFAFAFAFAFAFA
310
FAFAFAFAFAFAFAFAFAFAFAFAFAFAFAFAFAFAFAFAFAFAFAFAFAFAFAFAFAFAFAFAFAFAFAFA07FAFAFAFAFAFAFAFAFAFAFAFAFAFAFAFAFAFAFAFAFAFAFAFAFAFAFAFAFAFAFAFAFAFAFAFAFAFAFAFAFAFAFAFAFAFAFAFAFAFAFAFAFAFAFAFAFAFAFAFAFAFAFAFAFAFAFA07FAFAFAFAFAFAFAFAFAFAFAFAFAFAFAFAFAFAFAFAFAFA
310
FAFAFAFAFAFAFAFAFAFAFAFAFAFAFAFAFAFAFAFAFAFAFAFAFAFAFAFAFAFAFAFAFAFAFAFAFAFAFAFAFAFAFAFAFAFAFAFAFAFAFAFAFAFAFAFAFAFAFAFAFAFAFAFAFAFAFAFAFAFAFAFAFAFAFAFAFAFAFAFAFAFAFAFAFAFAFAFAFA07FAFAFAFAFAFAFAFAFAFAFAFAFAFAFAFAFAFAFAFAFAFAFAFAFAFAFAFAFAFAFAFAFAFAFAFAFA
310
FAFAFAFAFAFAFAFAFAFAFAFAFAFAFAFAFAFAFAFAFAFAFAFAFAFAFAFAFAFA07FAFAFAFAFAFAFAFAFAFAFAFAFAFAFAFAFAFAFAFAFAFAFAFAFAFAFAFAFAFAFAFAFAFAFAFAFAFAFAFAFAFAFAFAFAFAFAFAFAFAFAFAFAFAFAFAFAFAFAFAFAFAFAFAFAFAFAFAFAFAFAFAFAFAFAFAFAFAFAFAFAFAFAFAFAFAFAFAFAFAFAFAFAFAFAFA
310
FAFAFAFAFAFAFAFAFAFAFAFAFAFAFA07FAFAFAFAFAFAFAFAFAFAFAFAFAFAFAFAFAFAFAFAFAFAFAFAFAFAFAFAFAFAFAFAFAFAFAFAFAFAFAFAFAFAFAFAFAFAFAFAFAFAFAFAFAFAFAFAFAFAFAFAFAFAFAFAFAFAFA07FAFAFAFAFAFAFAFAFAFAFAFAFAFAFAFAFAFAFAFAFAFAFAFAFAFAFAFAFAFAFAFAFAFAFAFAFAFAFAFAFAFAFA
310
FAFAFAFAFAFAFAFAFAFA746603666AFAFAFAFAFAFAFAFAFAFAFAFAFAFAFAFAFAFAFAFAFAFAFAFAFAFAFAFAFAFAFAFAFAFAFAFAFAFAFAFAFAFAFAFAFAFAFAFAFAFAFAFAFA07FAFAFAFAFAFAFAFAFAFAFAFAFAFAFAFAFAFAFAFAFAFAFAFAFAFAFAFAFAFAFAFAFAFAFAFAFAFAFAFAFAFAFAFAFAFAFAFAFAFAFAFAFAFAFAFAFAFA
310
FAFAFAFAFAFAFAFAFA07FAFAFAFAFAFAFAFAFAFAFAFAFAFAFAFAFAFAFAFAFAFAFAFAFAFAFAFAFAFAFAFAFAFAFAFAFAFAFAFAFAFAFAFAFAFAFAFAFAFA7766035C56035666036674FAFAFAFAFAFAFAFAFAFAFAFAFAFAFAFAFAFAFAFAFAFAFAFAFAFAFAFAFAFAFAFAFAFAFAFAFAFAFAFAFAFAFAFAFAFAFAFAFAFA07FAFAFAFAFA
310
FAFAFAFAFAFAFAFAFAFAFAFAFAFAFAFAFAFAFAFAFAFAFAFAFAFAFAFAFAFAFAFAFAFAFAFAFAFAFAFAFAFAFAFAFAFAFAFAFAFAFAFAFAFAFAFAFAFAFAFAFAFA07FAFAFAFAFAFAFAFAFAFAFAFAFAFAFAFAFAFAFAFAFAFAFAFAFAFAFAFAFAFAFAFAFAFAFAFAFAFAFAFAFAFAFAFAFAFAFA63705C5C6877FAFA03FAFAFA565C036677
310
FAFAFAFAFAFAFAFAFAFAFAFAFAFAFAFAFAFAFAFAFAFAFAFAFAFAFAFAFAFAFAFAFAFAFAFAFAFAFAFAFAFAFAFAFAFAFA07FAFAFAFAFAFAFAFAFAFAFAFAFAFAFAFAFAFAFAFAFAFAFAFAFAFAFAFAFAFAFAFAFAFAFAFAFAFAFAFAFAFAFAFAFAFAFAFAFAFAFAFAFAFAFAFAFAFAFAFAFAFAFAFAFAFAFA07FAFAFAFAFAFAFAFAFAFAFA
310
FAFAFAFAFAFAFAFAFAFAFAFAFAFAFAFAFAFAFAFAFAFAFAFAFAFAFAFAFAFAFAFAFA6D686666686DFAFAFAFAFA03FAFAFAFAFA775664036677FAFAFAFAFAFAFAFAFAFAFAFAFAFAFAFAFAFAFAFAFAFAFAFAFAFAFAFAFAFAFAFAFAFAFAFAFAFAFAFAFAFAFAFA07FAFAFAFAFAFAFAFAFAFAFAFAFAFAFAFAFAFAFAFAFAFAFAFAFAFA
310
FAFAFAFAFAFAFAFAFAFAFAFAFAFAFAFAFAFAFAFAFAFAFAFAFAFAFAFAFAFAFAFAFAFAFAFAFAFAFAFAFA07FAFAFAFAFAFAFAFAFAFAFAFAFAFAFAFAFAFAFAFAFAFAFAFAFAFAFAFAFAFAFAFAFAFAFAFAFAFAFAFAFA77685C5C7063FAFAFAFAFAFAFAFA03FAFAFAFAFAFAFAFA77685C5C706DFAFAFAFAFAFAFAFAFAFAFAFAFAFAFA
310
FAFAFAFAFAFAFAFAFAFAFAFAFAFAFAFAFAFAFAFAFAFAFAFAFAFA07FAFAFAFAFAFAFAFAFAFAFAFAFAFAFAFAFAFAFAFAFAFAFAFAFAFAFAFAFAFAFAFAFAFAFAFAFAFAFAFAFAFAFAFAFAFAFAFAFAFAFAFAFAFAFAFAFAFAFAFAFAFAFAFAFAFAFA07FAFAFA0303030303030303030303030303030303030303030303030303030303
310
0303FAFAFAFAFA565C036677FAFAFAFAFAFAFAFAFAFAFA03FAFAFAFAFAFAFAFAFAFAFA6D68665C6863FAFAFAFAFAFAFAFAFAFAFAFAFAFAFAFAFAFAFAFAFAFAFAFAFAFAFAFAFAFAFAFAFAFAFAFAFAFA07FAFAFAFAFAFAFAFAFAFAFAFAFAFAFAFAFAFAFAFAFAFAFAFAFAFAFAFAFAFAFAFAFAFAFAFAFAFAFAFAFAFAFAFAFAFAFA
310
FAFAFAFAFAFAFAFAFAFAFAFAFAFAFAFAFAFAFAFA07FAFAFAFAFAFAFAFAFAFAFAFAFAFAFAFAFAFAFAFAFAFAFAFAFAFAFAFAFAFAFAFAFA5454FA7466036674FAFAFAFAFAFAFAFAFAFAFAFAFAFA03FAFAFAFAFAFAFAFAFAFAFAFAFAFA6D546666546DFAFAFAFAFAFAFAFAFAFAFAFAFAFAFAFAFAFAFAFAFAFAFAFAFAFAFAFAFAFA
310
FAFAFAFAFA07FAFAFAFAFAFAFAFAFAFAFAFAFAFAFAFAFAFAFAFAFAFAFAFAFAFAFAFAFAFAFAFAFAFAFAFAFAFAFAFAFAFAFAFAFAFAFAFAFAFAFAFAFAFAFAFAFAFAFAFAFAFAFAFAFAFAFA07FAFAFAF1F1F1F1F1FAFAFAFAFAFAFAFAFAFAFAFAFAFAFAFAFAFAFAFAFAFAFAFAFA7703035C56FAFAFAFAFAFAFAFAFAFAFAFAFAFAFA
310
FAFA03FAFAFAFAFAFAFAFA030303030303030303030303030303030303030303030303030303030303030303030303030303030303FAFAFAFAFA07FAFAFAFAFAFAFAFAFAFAFAFAFAFAFAFAFAFAFAFAFAFAFAFAFAFAFAFAFAFAFAFAFAFAFAFAFAFAFAFAFAFAFAFAFAFAFAFAFAFAFAFAFAFAFAFAFAFAFAFAFAFAFAFAFAFAFA07
310
FAFAFAF1F1F1F1F1FAFAFAFAFAFAFAFAFAFAFAFAFAFAFAFAFAFAFAFAFAFA63705C5C6670FAFAFAFAFAFAFAFAFAFAFAFAFAFAFAFAFAFAFC031A1A13FAFAFAFA6668FAFAFAFAFAFAFAFAFAFAFA6D705C5C6877FAFAFAFAFAFAFAFAFAFAFAFAFAFAFAF1F1F1F1F1F1F1F1F1FAFAFAFAFA07FAFAFAFAFAFAFAFAFAFAFAFAFAFAFA
310
FAFAFAFAFAFAFAFAFAFAFAFAFAFAFAFAFAFAFAFAFAFAFAFAFAFAFAFAFAFAFAFAFAFAFAFAFAFAFAFAFAFAFAFAFAFAFAFAFAFAFAFA07FAFAFAFAFAFAFAFAFAFAFAFAFAFAFAFAFAFAFAFAFAFAFAFAFAFAFA6D686666686DFAFA0303FAFAFAFAFAFAFAFAFAFAFAFAFAFAFA131A0103FB01271A27136D5CFAFAFAFAFAFAFAFAFAFA
310
FAFAFAFAFA776603645677FAFAFAFAFAFAFAFAFAFAFAFAF1F1F1F1F1F1F1F1F1FAFAFAFAFA07FAFAFAFAFAFAFAFAFAFAFAFAFAFAFAFAFAFAFAFAFAFAFAFAFAFAFAFAFAFAFAFAFAFAFAFAFAFAFAFAFAFAFAFAFAFAFAFAFAFAFAFAFAFAFAFAFAFAFAFAFAFAFAFAFAFAFA07FAFAFAFAFAFAFAFAFAFAFAFAFAFAFAFAFAFAFAFAFA
310
FAFAFA77685C5C7063FAFAFAFAFAFAFAFAFAFAFAFAFAFAFAFAFAFA13041A3B1D1DFB520877FAFA1327644513FAFAFAFAFAFAFAFAFAFAFAFAFAFAFAFAFA7766035C56FAFAFAF1F1F1F1F1F1F1F1F1F1F1F1F1F1F1F1FAFAFAFAFA07FAFAFAFAFAFAFAFAFAFAFAFAFAFAFAFAFAFAFAFAFAFAFAFAFAFAFAFAFAFAFAFAFAFAFAFA
310
FAFAFAFAFAFAFAFAFAFAFAFAFAFAFAFAFAFAFAFAFAFAFAFAFAFAFAFAFAFAFA07FAFAFA030303030303030303030303030303030303030303030303030303030303030303FAFAFAFAFAFAFAFA1D1D3B1A0404FAFAFA131A01012713FAFA786413271A2713FAFAFAFAFAFAFAFAFAFAFAFAFAFAFAFAFA7466036656F1F1F1F1F1
310
F1F1F1F1F1F1F1F1F1F1F1FAFAFAFAFA07FAFAFAFAFAFAFAFAFAFAFAFAFAFAFAFAFAFAFAFAFAFAFAFAFAFAFAFAFAFAFAFAFAFAFAFAFAFAFAFAFAFAFAFAFAFAFAFAFAFAFAFAFAFAFAFAFAFAFAFAFAFAFAFAFAFAFA07FAFAFAFAFAFAFAFAFAFAFAFAFAFAFAFAFAFAFAFAFA036674FAFAFAFAFAFAFAFAFAFAFA5666FAFAFAFAFA
310
FA1A1A13FAFAFAFC13270404FB081A1304042752FCFAFAFA131A1AFAFAFAFAFAFAFAFAFAFAFAFAFAFAFAFAFAFAFA6A6603FAFAFAFAFAFAFAF1F1F1F1F1F1F1F1FAFAFAFAFA07FAFAFAFAFAFAFAFAFAFAFAFAFAFAFAFAFAFAFAFAFAFAFAFAFAFAFAFAFAFAFAFAFAFAFAFAFAFAFAFAFAFAFAFAFAFAFAFAFAFAFAFAFAFAFAFAFA
310
FAFAFAFAFAFAFAFAFAFA07FAFAFAF1F1F1F1F1F1F1F1F1F1F1F1F1FAFAFAFAFA6668FAFAFAFAFAFAFAFAFAFAFAFAFA666DFAFAFAFAFAFBFBFAFA085D1A1A13040416011A2E0404561A1A5DFD08FAFB1AFAFAFAFAFAFAFAFAFAFAFAFAFAFAFAFAFAFAFAFA6866FAFAFAFAFAFAFAFAFAFAFAFAFAFAFAFAFAFAFAFA07FAFAFAFA
310
FAFAFAFAFAFAFAFAFAFAFAFAFAFAFAFAFAFAFAFAFAFAFAFAFAFAFAFAFAFAFAFAFAFAFAFAFAFAFAFAFAFAFAFAFAFAFAFAFAFAFAFAFAFAFAFAFAFAFAFAFAFAFA07FAFAFAF1F1F1F1F1F1F1F1F1F1F1F1F1F1F1F1FAFA6D5CFAFAFAFAFAFAFAFAFAFAFAFAFA6D66FAFAFAFAFA7708FD530352084B2C0101221A0F1601164808FC
310
70030303030303030303030303030303030303030303030303030303030303030303030303030303030303FAFAFAFAFA07FAFAFAFAFAFAFAFAFAFAFAFAFAFAFAFAFAFAFAFAFAFAFAFAFAFAFAFAFAFAFAFAFAFAFAFAFAFAFAFAFAFAFAFAFAFAFAFAFAFAFAFAFAFAFAFAFAFAFAFAFAFAFAFAFAFAFA07FAFAFAF1F1F1F1F1F1F1
310
F1F1F1F1F1F1F1F1F1FAFAFA5C74FAFAFAFAFAFAFAFAFAFAFAFAFA6656FAFA08FDFD08645C5C401A011624FAFA1AFAFA130F01012003665C6408FDFDFCD1FAFAFAFAFAFAFAFAFAFAFAFAFAFAFAFA745CFAFAFAFAFAFAF1F1F1F1F1F1F1F1F1F1F1FAFAFAFA07FAFAFAFAFAFAFAFAFAFAFAFAFAFAFAFAFAFAFAFAFAFAFAFAFA
310
FAFAFAFAFAFAFAFAFAFAFAFAFAFAFAFAFAFAFAFAFAFAFAFAFAFAFAFAFAFAFAFAFAFAFAFAFAFAFAFAFAFA07FAFAFAF1F1F1F1F1F1F1F1F1F1F1F1F1FAFAFAFAFAFA745CFAFAFAFAFAFAFAFAFAFAFAFAFAFA03675B10640364032323E10404FCFAFAFA1AFAFAFAFAFA270D03162C535203645A5D6799FAFAFAFAFAFAFAFAFAFA
310
FAFAFAFA5C74FAFAFAFAFAFAF1F1F1F1F1F1F1F1F1F1F1FAFAFAFA07FAFAFAFAFAFAFAFAFAFAFAFAFAFAFAFAFAFAFAFAFAFAFAFAFAFAFAFAFAFAFAFAFAFAFAFAFAFAFAFAFAFAFAFAFAFAFAFAFAFAFAFAFAFAFAFAFAFAFAFAFAFAFAFAFAFAFA07FAFAFAF1F1F1F1F1F1F1F1F1F1F1F1F1FAFAFAFAFAFAFA5C6DFAFAFAFAFAFA
310
FAFAFAFAFAFA030364665C030303011711FB041AFAFAFAFA1AFAFAFAFAFAFA01FA1A16010303035C66640303FAFAFAFAFAFAFAFAFAFAFAFA6D5CFAFAFAFAFAFAFAFAFAF1F1F1F1F1F1F1F1FAFAFAFAFA07FAFAFAFAFAFAFAFAFAFAFAFAFAFAFAFAFAFAFAFAFAFAFAFAFAFAFAFAFAFAFAFAFAFAFAFAFAFAFAFAFAFAFAFAFAFA
310
FAFAFAFAFAFAFAFAFAFAFAFAFAFAFAFAFAFAFAFAFA07FAFAFAF1F1F1F1F1F1F1F1F1F1F1F1F1F1F1F1F1F1FAFA6866FAFAFAFAFAFAFAFAFAFAFAFAFDFA52030303FC5CFCFCFCFB01FAFAFAFAFA1A1AFAFAFAFAF201FAFAFC01FC0303030352FDFDFAFAFAFAFAFAFAFAFAFAFAFA6668FAFAFAFAFAFAFAFAFAF1F1F1F1F1F1F1
310
F1FAFAFAFAFA07FAFAFAFAFAFAFAFAFAFAFAFAFAFAFAFAFAFAFAFAFAFAFAFAFAFAFAFAFAFAFAFAFAFAFAFAFAFAFAFAFAFAFAFAFAFAFAFAFAFAFAFAFAFAFAFAFAFAFAFAFAFAFAFAFAFAFA07FAFAFAF1F1F1F1F1F1F1F1F1F1F1F1F1F1F1F1F1F1FAFA030303FAFAFAFAFAFAFAFAFA6A660303030377FAFCFC01FCFCFCFCFCFC
310
FC04FC1AFCFAFAFAFA0101FA64FC01FCFAFA77030303036877FAFAFAFAFAFAFAFAFA030303FAFAFAFAFAFAFAFAFAFAFAFAFAFAFAFAFAFAFAFAFAFA07FAFAFAFAFAFAFAFAFAFAFAFAFAFAFAFAFAFAFAFAFAFAFAFAFAFAFAFAFAFAFAFAFAFAFAFAFAFAFAFAFAFAFAFAFAFAFAFAFAFAFAFAFAFAFAFAFAFAFAFAFAFAFAFAFAFAFA
310
07FAFAFA03030303030303030303030303030303030303030303030303030303030303030303036DFAFAFAFA57FC01FC2416FCFBFAFA040404FAFAFAFAFAFC1616FCFC64FCFAFAFAFAFA6D03030303686DFAFAFAFAFAFAFA03FAFAFAFAFAFAFAFAFAFAFAFAFAFAFAFAFAFAFAFAFAFAFA07FAFAFAFAFAFAFAFAFAFAFAFAFAFA
310
FAFAFAFAFAFAFAFAFAFAFAFAFAFAFAFAFAFAFAFAFAFAFAFAFAFAFAFAFAFAFAFAFAFAFAFAFAFAFAFAFAFAFAFAFAFAFAFAFAFAFAFAFA07FAFAFAF1F1F1F1F1F1F1F1F1F1F1F1F1F1F1F1F1F1F1F1FA6656FAFAFA6A66030303036AFAFAFAFA6D70035CFCFCFC160F08011AFA040404FAFAFAFA1A01FA0F16FCFCFC03706DFAFA
310
FAFAFA6A030303037077FAFAFA5666FAFAFAFAFAFAFAFAFAFAFAFAFAFAFAFAFAFAFAFAFAFAFA07FAFAFAFAFAFAFAFAFAFAFAFAFAFAFAFAFAFAFAFAFAFAFAFAFAFAFAFAFAFAFAFAFAFAFAFAFAFAFAFAFAFAFAFAFAFAFAFAFAFAFAFAFAFAFAFAFAFAFAFAFAFAFAFAFAFAFA07FAFAFAF1F1F1F1F1F1F1F1F1F1F1F1F1F1F1F1F1
310
F1F1F1FA77646A660303030368770303FA7768665C4C2201010F2F133B040404FA040404FAFAFA040404043B1BFB2201012052666877FAFAFAFA776803030303666A6477FAFAFAFAFAFAFAFAFAFAFAFAFAFAFAFAFAFAFAFAFAFAFA07FAFAFAFAFAFAFAFAFAFAFAFAFAFAFAFAFAFAFAFAFAFAFAFAFAFAFAFAFAFAFAFAFAFAFA
310
FAFAFAFAFAFAFAFAFAFAFAFAFAFAFAFAFAFAFAFAFAFAFAFAFAFAFAFAFAFAFAFA07FAFAFAF1F1F1F1F1F1F1F1FAFAFAFAFAFAFAFAFAFAFAFAFAFA03030303706DFAFA54546A660366201601163BFAFA040404040404FAFAFAFAFAFAFA0404040404041AFAFA3B1601162203666AFAFAFAFAFA6D7003030303FAFAFAFAFAFAFA
310
FAFAFAFAFAFAFAFAFAFAFAFAFAFAFAFAFA07FAFAFAFAFAFAFAFAFAFAFAFAFAFAFAFAFAFAFAFAFAFAFAFAFAFAFAFAFAFAFAFAFAFAFAFAFAFAFAFAFAFAFAFAFAFAFAFAFAFAFAFAFAFAFAFAFAFAFAFAFAFAFAFAFAFAFA07FAFAFAF1F1F1F1F1F1F1F1030303030303030303030303030303030303030303030303663816011624
310
FAFAFAFAFA040404FCFAFAFAFAFAFAFAFAFAFAFAFCFA040404FAFAFAFAFA241601162E03666DFAFAFAFAFA776603FAFAFAFAFAFAFAFAFAFAFAFAFAFAFAFAFAFAFAFAFAFAFAFA07FAFAFAFAFAFAFAFAFAFAFAFAFAFAFAFAFAFAFAFAFAFAFAFAFAFAFAFAFAFAFAFAFAFAFAFAFAFAFAFAFAFAFAFAFAFAFAFAFAFAFAFAFAFAFAFA
310
FAFAFAFAFAFAFAFAFAFAFA07FAFAFAFAFAFAFAFAFAFAFAFAFAFAFAFAFAFAFAFAFAFAFAFAFA6D5CFAFA77685C66381601160FFAFAFAFAFAFAFAFAFAFAFAFCFAFAFAFAFAFAFAFAFAFAFAFCFAFAFAFAFAFAFAFAFAFAFAFA0F1601164A5C6877FAFAFA5C6DFAFAFAFAFAFAFAFAFAFAFAFAFAFAFAFAFAFAFAFAFAFAFAFA07FAFAFA
310
FAFAFAFAFAFAFAFAFAFAFAFAFAFAFAFAFAFAFAFAFAFAFAFAFAFAFAFAFAFAFAFAFAFAFAFAFAFAFAFAFAFAFAFAFAFAFAFAFAFAFAFAFAFAFAFAFAFAFAFAFAFAFAFA07FAFAFAF1F1F1F1F1F1F1F1F1F1F1F1F1F1F1FAFAFAFAFAFAFAFA64685C03612201012042FAFAFAFAFAFAFAFAFAFAFAFAFAFCFAFAFAFAFAFAFAFAFAFAFAFC
310
FAFAFAFAFAFAFAFAFAFAFAFAFAFA2722010120525C567764FAFAFAFAFAFAFAFAFAFAFAFAFAFAFAFAFAFAFAFAFAFAFAFAFA07FAFAFAFAFAFAFAFAFAFAFAFAFAFAFAFAFAFAFAFAFAFAFAFAFAFAFAFAFAFAFAFAFAFAFAFAFAFAFAFAFAFAFAFAFAFAFAFAFAFAFAFAFAFAFAFAFAFAFAFAFAFAFAFAFAFAFA07FAFAFAF1F1F1F1F1F1
310
F1F1F1F1F1F1F1F1F1FAFAFAFAFAFAFAFA035C201601163B6A66FAFAFAFAFAFAFAFAFAFAFAFA04040404040404040404040404040104FAFAFAFAFAFAFAFAFAFAFAFAFAFAFAFA3B160116220356FAFAFAFAFAFAFAFAFAFAFAFAFAFAFAFAFAFAFAFAFAFAFAFAFA07FAFAFAFAFAFAFAFAFAFAFAFAFAFAFAFAFAFAFAFAFAFAFAFA
310
FAFAFAFAFAFAFAFAFAFAFAFAFAFAFAFAFAFAFAFAFAFAFAFAFAFAFAFAFAFAFAFAFAFAFAFAFAFAFAFAFAFAFA07FAFAFA03030303030303030303030303030303030303030303030301163803030303FAFAFAFAFAFAFAFAFAFAFAFA0404040404040404040404040404040404FAFAFAFAFAFAFAFAFAFAFAFAFAFAFAFAFAFAFA24
310
1601FAFAFAFAFAFAFAFAFAFAFAFAFAFAFAFAFAFAFAFAFAFAFAFAFAFA07FAFAFAFAFAFAFAFAFAFAFAFAFAFAFAFAFAFAFAFAFAFAFAFAFAFAFAFAFAFAFAFAFAFAFAFAFAFAFAFAFAFAFAFAFAFAFAFAFAFAFAFAFAFAFAFAFAFAFAFAFAFAFAFAFAFAFA07FAFAFAF1F1F1F1F1F1F1F1F1F1F1F1FAFAFAFAFAFAFAFAFAFAFAFAFAFAFA
310
FAFAFAFAFAFAFAFAFAFAFAFAFAFAFAFAFAFAFAFAFAFAFA04040404FAFAFAFAFAFAFAFAFAFAFAFAFAFAFAFAFAFAFAFAFAFAFAFAFAFAFAFAFAFAFAFAFAFAFAFAFAFAFAFAFAFAFAFAFAFAFAFAFAFAFAFAFAFA07FAFAFAFAFAFAFAFAFAFAFAFAFAFAFAFAFAFAFAFAFAFAFAFAFAFAFAFAFAFAFAFAFAFAFAFAFAFAFAFAFAFAFAFAFA
310
FAFAFAFAFAFAFAFAFAFAFAFAFAFAFAFAFAFAFAFAFAFA07FAFAFAF1F1F1F1F1F1F1F1F1F1F1F1FAFAFAFAFAFAFAFAFAFAFAFAFAFAFAFAFAFAFAFAFAFAFAFAFAFAFAFAFAFA036DFAFAFAFAFAFAFAFAFAFAFAFAFAFAFAFAFAFAFAFAFAFAFAFAFAFAFAFAFAFAFAFAFAFAFAFAFAFAFAFAFAFAFAFAFAFAFAFAFAFAFAFAFAFAFAFAFA
310
FAFAFAFAFAFAFA07FAFAFAFAFAFAFAFAFAFAFAFAFAFAFAFAFAFAFAFAFAFAFAFAFAFAFAFAFAFAFAFAFAFAFAFAFAFAFAFAFAFAFAFAFAFAFAFAFAFAFAFAFAFAFAFAFAFAFAFAFAFAFAFAFAFAFA07FAFAFAFAFAFAFAFAFAFAFAFAFAFAFAFAFAFAFAFAFAFAFAFAFAFAFAFAFAFAFAFAFAFAFAFAFAFAFAFAFAFAFAFAFA016656FAFAFA
310
FAFAFAFAFAFAFAFAFAFAFAFAFAFAFAFAFAFAFAFAFAFAFAFAFAFAFAFAFAFAFAFAFAFAFAFAFAFAFAFAFAFAFAFAFAFAFAFAFAFAFAFAFAFAFAFAFAFAFAFA07FAFAFAFAFAFAFAFAFAFAFAFAFAFAFAFAFAFAFAFAFAFAFAFAFAFAFAFAFAFAFAFAFAFAFAFAFAFAFAFAFAFAFAFAFAFAFAFAFAFAFAFAFAFAFAFAFAFAFAFAFAFAFAFAFAFA
310
FA07FAFAFAFAFAFAFAFAFAFAFAFAFAFAFAFAFAFAFAFAFAFAFAFAFAFAFAFAFAFAFAFAFAFAFAFAFAFAFAFAFAFAFAFAFA01FA6666FAFAFAFAFAFAFAFAFAFAFAFAFAFAFAFAFAFAFAFA1D1101FAFAFAFAFAFAFAFAFAFAFAFAFAFAFAFAFAFAFAFAFAFAFAFAFAFAFAFAFAFAFAFAFAFAFAFAFAFAFA07FAFAFAFAFAFAFAFAFAFAFAFAFA
310
FAFAFAFAFAFAFAFAFAFAFAFAFAFAFAFAFAFAFAFAFAFAFAFAFAFAFAFAFAFAFAFAFAFAFAFAFAFAFAFAFAFAFAFAFAFAFAFAFAFAFAFAFAFA07FAFAFAFAFAFAFAFAFAFAFAFAFAFAFAFAFAFAFAFAFAFAFAFAFAFAFAFAFAFAFAFAFAFAFAFAFAFAFAFAFAFAFAFAFA013BFA5666FAFAFAFAFAFAFAFAFAFAFAFAFAFAFAFAFAF40CF21A01
310
FAFAFAFAFAFAFAFAFAFAFAFAFAFAFAFAFAFAFAFAFAFAFAFAFAFAFAFAFAFAFAFAFAFAFAFAFAFAFA07FAFAFAFAFAFAFAFAFAFAFAFAFAFAFAFAFAFAFAFAFAFAFAFAFAFAFAFAFAFAFAFAFAFAFAFAFAFAFAFAFAFAFAFAFAFAFAFAFAFAFAFAFAFAFAFAFAFAFAFAFAFAFAFAFAFAFA07FAFAFAFAFAFAFAFAFAFAFAFAFAFAFAFAFAFAFA
310
FAFAFAFAFAFAFAFAFAFAFAFAFAFAFAFAFAFAFAFAFAFAFAFAFA1603162EFA6D036DFAFAFAFAFAFAFAFAFAFAFAFA1AF20C11FAFAFA01FAFAFAFAFAFAFAFAFAFAFAFAFAFAFAFAFAFAFAFAFAFAFAFAFAFAFAFAFAFAFAFAFAFAFAFAFAFAFA07FAFAFAFAFAFAFAFAFAFAFAFAFAFAFAFAFAFAFAFAFAFAFAFAFAFAFAFAFAFAFAFAFAFA
310
FAFAFAFAFAFAFAFAFAFAFAFAFAFAFAFAFAFAFAFAFAFAFAFAFAFAFAFAFAFAFAFAFA07FAFAFAFAFAFAFAFAFAFAFAFAFAFAFAFAFAFAFAFAFAFAFAFAFAFAFAFAFAFAFAFAFAFAFAFAFAFAFAFAFAFAFA5666F21A162CFAFA6656FAFAFAFAFAFAFAFA1D11011113FAFAFAFAFA01FAFAFAFAFAFAFAFAFAFAFAFAFAFAFAFAFAFAFAFAFA
310
FAFAFAFAFAFAFAFAFAFAFAFAFAFAFAFAFAFA07FAFAFAFAFAFAFAFAFAFAFAFAFAFAFAFAFAFAFAFAFAFAFAFAFAFAFAFAFAFAFAFAFAFAFAFAFAFAFAFAFAFAFAFAFAFAFAFAFAFAFAFAFAFAFAFAFAFAFAFAFAFAFAFAFAFAFA07FAFAFAFAFAFAFAFAFAFAFAFAFAFAFAFAFAFAFAFAFAFAFAFAFAFAFAFAFAFAFAFAFAFAFAFAFAFAFAFA
310
FAFA6666FAFA1103162CFAFA6666FAFAFAFAFAF40CF21AFAFAFAFAFAFA0F0101FAFAFAFAFAFAFAFAFAFAFAFAFAFAFAFAFAFAFAFAFAFAFAFAFAFAFAFAFAFAFAFAFAFAFAFAFAFAFA07FAFAFAFAFAFAFAFAFAFAFAFAFAFAFAFAFAFAFAFAFAFAFAFAFAFAFAFAFAFAFAFAFAFAFAFAFAFAFAFAFAFAFAFAFAFAFAFAFAFAFAFAFAFAFA
310
FAFAFAFAFAFAFAFAFAFAFAFA07FAFAFAFAFAFAFAFAFAFAFAFAFAFAFAFAFAFAFAFAFAFAFAFAFAFAFAFAFAFAFAFAFAFAFAFAFAFAFAFA016456FAFA5603270C0F2C4FFA5666FA1AF20C11FAFAFAFAFA130F0101010C0101FAFAFAFAFAFAFAFAFAFAFAFAFAFAFAFAFAFAFAFAFAFAFAFAFAFAFAFAFAFAFAFAFAFAFAFAFAFA07FAFA
310
FAFAFAFAFAFAFAFAFAFAFAFAFAFAFAFAFAFAFAFAFAFAFAFAFAFAFAFAFAFAFAFAFAFAFAFAFAFAFAFAFAFAFAFAFAFAFAFAFAFAFAFAFAFAFAFAFAFAFAFAFAFAFAFAFA07FAFAFAFAFAFAFAFAFAFAFAFAFAFAFAFAFAFAFAFAFAFAFAFAFAFAFAFAFAFAFAFAFAFAFAFAFAFAFA01032013FA6603FAFAFA0C161642FA6D012252FAFAFA
310
FA27F20101010C03031AFAFAFAFAFAFAFAFAFAFAFAFAFAFAFAFAFAFAFAFAFAFAFAFAFAFAFAFAFAFAFAFAFAFAFAFAFAFAFAFA07FAFAFAFAFAFAFAFAFAFAFAFAFAFAFAFAFAFAFAFAFAFAFAFAFAFAFAFAFAFAFAFAFAFAFAFAFAFAFAFAFAFAFAFAFAFAFAFAFAFAFAFAFAFAFAFAFAFAFAFAFAFAFAFAFAFAFA07FAFAFAFAFAFAFAFA
310
FAFAFAFAFAFAFAFAFAFAFAFAFAFAFAFAFAFAFAFAFAFAFAFAFAFAFAFAFAFA6D03F90C0C0303FAFAFAFAFA1818164AFA0103FAFA1A0C0101010CF20103686664FAFAFAFAFAFAFAFAFAFAFAFAFAFAFAFAFAFAFAFAFAFAFAFAFAFAFAFAFAFAFAFAFAFAFAFAFAFAFAFA07FAFAFAFAFAFAFAFAFAFAFAFAFAFAFAFAFAFAFAFAFAFAFA
310
FAFAFAFAFAFAFAFAFAFAFAFAFAFAFAFAFAFAFAFAFAFAFAFAFAFAFAFAFAFAFAFAFAFAFAFAFAFAFAFAFAFAFAFA07FAFAFAFAFAFAFAFAFAFAFAFAFAFAFAFAFAFAFAFAFAFAFAFAFAFAFAFAFAFAFAFAFAFAFAFAFA5666FA0C0303031AFAFAFAFAFAFA0101015201420C01010101F2010F11FA7764666654FAFAFAFAFAFAFAFAFAFA
310
FAFAFAFAFAFAFAFAFAFAFAFAFAFAFAFAFAFAFAFAFAFAFAFAFAFAFAFAFA07FAFAFAFAFAFAFAFAFAFAFAFAFAFAFAFAFAFAFAFAFAFAFAFAFAFAFAFAFAFAFAFAFAFAFAFAFAFAFAFAFAFAFAFAFAFAFAFAFAFAFAFAFAFAFAFAFAFAFAFAFAFAFAFAFAFAFA07FAFAFAFAFAFAFAFAFAFAFA030303030303030303030303030303030303
310
030303030303030303030303030303030303030303030303030301011101F2010C1AFAFAFAFAFA5466666477111801FAFAFAFAFAFAFAFAFAFAFAFAFAFAFAFAFAFAFAFAFAFAFAFAFAFAFAFAFAFAFAFAFAFAFA07FAFAFAFAFAFAFAFAFAFAFAFAFAFAFAFAFAFAFAFAFAFAFAFAFAFAFAFAFAFAFAFAFAFAFAFAFAFAFAFAFAFAFAFA
310
FAFAFAFAFAFAFAFAFAFAFAFAFAFAFAFAFAFAFAFAFAFAFA07FAFAFAFAFAFAFAFAFAFAFAF1F1F1F1F1F1FAFAFAFAFAFAFAFAFAFAFAFAFAFAFAFA01136656FAFA036666F418270111FAFAFA03F2F401036A48FA01F201FAFAFAFAFAFAFAFA64523803010101FAFAFAFAFAFAFAFAFAFAFAFAFAFAFAFAFAFAFAFAFAFAFAFAFAFAFA
310
FAFAFAFAFAFAFAFA07FAFAFAFAFAFAFAFAFAFAFAFAFAFAFAFAFAFAFAFAFAFAFAFAFAFAFAFAFAFAFAFAFAFAFAFAFAFAFAFAFAFAFAFAFAFAFAFAFAFAFAFAFAFAFAFAFAFAFAFAFAFAFAFAFAFAFA07FAFAFAFAFAFAFAFAFAFAFAF1F1F1F1F1F1FAFAFAFAFAFAFAFAFAFAFAFAFAFAFAFA01031BFAFA03036AFAFA270CF901F2FA03
310
F20C01030FFA482CFA03F2FAFAFAFAFAFA13F40103030F030F01FAFAFAFAFAFAFAFAFAFAFAFAFAFAFAFAFAFAFAFAFAFAFAFAFAFAFAFAFAFAFAFAFAFAFA07FAFAFAFAFAFAFAFAFAFAFAFAFAFAFAFAFAFAFAFAFAFAFAFAFAFAFAFAFAFAFAFAFAFAFAFAFAFAFAFAFAFAFAFAFAFAFAFAFAFAFAFAFAFAFAFAFAFAFAFAFAFAFAFAFA
310
FAFA07FAFAFAFAFAFAFAFAFAFAFAFAFAFAFAFAFAFAFAFAFAFAFAFAFAFAFAFAFAFAFAFA13011301180366FAFAFAFAFAF901F90C03FA010103161A130F03012C6EFAFAFAFA110C0101F2110301425CFAFAFAFAFAFAFAFAFAFAFAFAFAFAFAFAFAFAFAFAFAFAFAFAFAFAFAFAFAFAFAFAFAFAFAFA07FAFAFAFAFAFAFAFAFAFAFAFA
310
FAFAFAFAFAFAFAFAFAFAFAFAFAFAFAFAFAFAFAFAFAFAFAFAFAFAFAFAFAFAFAFAFAFAFAFAFAFAFAFAFAFAFAFAFAFAFAFAFAFAFAFAFAFAFA07FAFAFAFAFAFAFAFAFAFAFAFAFAFAFAFAFAFAFAFAFAFAFAFAFAFAFAFAFAFAFA1A0CFA0C030322FAFAFAFAFAFAFA6D0327F2010103FA0CF91A166A480166771A0C0101F2180F0116
310
5403FA666DFAFAFAFAFAFAFAFAFAFAFAFAFAFAFAFAFAFAFAFAFAFAFAFAFAFAFAFAFAFAFAFAFAFAFA07FAFAFAFAFAFAFAFAFAFAFAFAFAFAFAFAFAFAFAFAFAFAFAFAFAFAFAFAFAFAFAFAFAFAFAFAFAFAFAFAFAFAFAFAFAFAFAFAFAFAFAFAFAFAFAFAFAFAFAFAFAFAFAFAFAFAFA07FAFAFAFAFAFAFAFAFAFAFAFAFAFAFAFAFAFA
310
FAFAFAFAFAFAFAFAFAFAFAFA1111FAFA0303F40F01FAFAFAFAFA5666FA1803F403FAF90CFA1827FA662C0103010C0F0C0CF413FAFAFA5C666D66FAFAFAFAFAFAFAFAFAFAFAFAFAFAFAFAFAFAFAFAFAFAFAFAFAFAFAFAFAFAFAFAFAFAFA07FAFAFAFAFAFAFAFAFAFAFAFAFAFAFAFAFAFAFAFAFAFAFAFAFAFAFAFAFAFAFAFAFA
310
FAFAFAFAFAFAFAFAFAFAFAFAFAFAFAFAFAFAFAFAFAFAFAFAFAFAFAFAFAFAFAFAFAFA07FAFAFAFAFAFAFAFAFAFAFAFAFAFAFAFAFAFAFAFAFAFAFAFAFAFAFA01F90C1AFAFA0366FA1AF2110111FAFA6603FAFA03110348011A16FA0CF927010301F2030F11F9FAFAFAFAFAFA6D03566656FAFAFAFAFAFAFAFAFAFAFAFAFAFAFA
310
FAFAFAFAFAFAFAFAFAFAFAFAFAFAFAFAFAFAFA07FAFAFAFAFAFAFAFAFAFAFAFAFAFAFAFAFAFAFAFAFAFAFAFAFAFAFAFAFAFAFAFAFAFAFAFAFAFAFAFAFAFAFAFAFAFAFAFAFAFAFAFAFAFAFAFAFAFAFAFAFAFAFAFAFAFAFA07FAFAFAFAFAFAFAFAFAFAFAFAFAFAFAFAFAFAFAFAFAFAFAFAFAFA01FA01F4FAFA0366FAFAFA1301
310
1A01F4665C77FA0356662516F90111FA010101F201031A6866FAFAFAFAFAFAFAFAFA665C6D03F20101FAFAFAFAFAFAFAFAFAFAFAFAFAFAFAFAFAFAFAFAFAFAFAFAFAFAFAFAFAFAFA07FAFAFAFAFAFAFAFAFAFAFAFAFAFAFAFAFAFAFAFAFAFAFAFAFAFAFAFAFAFAFAFAFAFAFAFAFAFAFAFAFAFAFAFAFAFAFAFAFAFAFAFAFAFA
310
FAFAFAFAFAFAFAFAFAFAFAFAFA07FAFAFAFAFAFAFAFAFAFAFAFAFAFAFAFAFAFAFAFAFAFAFAFAFAFAFA01F901110356FAFAFAFAFAFA0C1A034A54FA036666FA66520101FA110F010F42FA6803FA666DFAFAFAFAFAFAFAFA130303010CF201FAFAFAFAFAFAFAFAFAFAFAFAFAFAFAFAFAFAFAFAFAFAFAFAFAFAFAFAFAFAFA07FA
310
FAFAFAFAFAFAFAFAFAFAFAFAFAFAFAFAFAFAFAFAFAFAFAFAFAFAFAFAFAFAFAFAFAFAFAFAFAFAFAFAFAFAFAFAFAFAFAFAFAFAFAFAFAFAFAFAFAFAFAFAFAFAFAFAFAFA07FAFAFAFAFAFAFAFAFAFAFAFAFAFAFAFAFAFAFAFAFAFAFAFAFAFAFAFA0111160CFAFAFAFAFAFAFAFA011B5201036656FAFA0354110FFAF411FA705CFA
310
FA5C666D66FAFAFAFAFAFA1801010C0301011AFAFAFAFAFAFAFAFAFAFAFAFAFAFAFAFAFAFAFAFAFAFAFAFAFAFAFAFAFAFAFAFA07FAFAFAFAFAFAFAFAFAFAFAFAFAFAFAFAFAFAFAFAFAFAFAFAFAFAFAFAFAFAFAFAFAFAFAFAFAFAFAFAFAFAFAFAFAFAFAFAFAFAFAFAFAFAFAFAFAFAFAFAFAFAFAFAFAFAFA07FAFAFAFAFAFAFA
310
FAFAFAFA0303030303030303030303030303030303030303030303030303030303030303030345FAFA6D036D161AFA0F11FA5C70FAFA6D03566656FAF91101010C0F0C0C61031DF2FAFAFAFAFAFAFAFAFAFAFAFAFAFAFAFAFAFAFAFAFAFAFAFAFAFAFAFAFAFAFAFA07FAFAFAFAFAFAFAFAFAFAFAFAFAFAFAFAFAFAFAFAFAFA
310
FAFAFAFAFAFAFAFAFAFAFAFAFAFAFAFAFAFAFAFAFAFAFAFAFAFAFAFAFAFAFAFAFAFAFAFAFAFAFAFAFAFAFAFAFA07FAFAFAFAFAFAFAFAFAFAFAFAFAFAFAFAFAFAFAFAFAFAFAFAFAFAFAFAFAFAF411F401FAFAFAFA01FAFA0361030F0C1AFA6803FA0C01FA01FAFA03FAFAFAFA665C4F0301010C0FF20CF4F9FAFA5C66F411FA
310
FAFAFAFAFAFAFAFAFAFAFAFAFAFAFAFAFAFAFAFAFAFAFAFAFAFAFAFAFAFA07FAFAFAFAFAFAFAFAFAFAFAFAFAFAFAFAFAFAFAFAFAFAFAFAFAFAFAFAFAFAFAFAFAFAFAFAFAFAFAFAFAFAFAFAFAFAFAFAFAFAFAFAFAFAFAFAFAFAFAFAFAFAFAFAFAFAFA07FAFAFAFAFAFAFAFAFAFAFAF1F1F1F1F1FAFAFAFAFAFAFAFAFAFAFAFA
310
FAFAFA1AF21D011DFA01FAFA036666FA01180C115C66F90C01F40CFA705CFAFAFA13F40303010FF2011113FAFAFAFAFA6D0356F213FAFAFAFAFAFAFAFAFAFAFAFAFAFAFAFAFAFAFAFAFAFAFAFAFAFAFAFAFAFA07FAFAFAFAFAFAFAFAFAFAFAFAFAFAFAFAFAFAFAFAFAFAFAFAFAFAFAFAFAFAFAFAFAFAFAFAFAFAFAFAFAFAFA
310
FAFAFAFAFAFAFAFAFAFAFAFAFAFAFAFAFAFAFAFAFAFAFAFA07FAFAFAFAFAFAFAFAFAFAFAF1F1F1F1F1FAFAFAFAFAFAFAFAFAFAFAFAFAFAFAFA1D01FA0101FAFA03036AFAFAFA03030C16741A16010118FA5C701D11010101F203010111FAFAFAFAFAFAFAFAFA665C6D01F20101FAFAFAFAFAFAFAFAFAFAFAFAFAFAFAFAFAFA
310
FAFAFAFAFAFAFAFAFA07FAFAFAFAFAFAFAFAFAFAFAFAFAFAFAFAFAFAFAFAFAFAFAFAFAFAFAFAFAFAFAFAFAFAFAFAFAFAFAFAFAFAFAFAFAFAFAFAFAFAFAFAFAFAFAFAFAFAFAFAFAFAFAFAFAFAFA07FAFAFAFAFAFAFAFAFAFAFAFAFAFAFAFAFAFAFAFAFAFAFAFAFAFAFAFAFAFAFAFAFAFA0113010F0366FAFAFAFAFA03F4F216
310
010F1A01161A112C010C010C0F0CF261031DF2FAFAFAFAFAFAFAFAFA132001010CF201FAFAFAFAFAFAFAFAFAFAFAFAFAFAFAFAFAFAFAFAFAFAFAFAFAFAFA07FAFAFAFAFAFAFAFAFAFAFAFAFAFAFAFAFAFAFAFAFAFAFAFAFAFAFAFAFAFAFAFAFAFAFAFAFAFAFAFAFAFAFAFAFAFAFAFAFAFAFAFAFAFAFAFAFAFAFAFAFAFAFAFA
310
FAFAFA07FAFAFAFAFAFAFAFAFAFAFAFAFAFAFAFAFAFAFAFAFAFAFAFAFAFAFAFAFAFAFAFAFAFAFA0C011616FAFAFAFAFA666AFA01010101011A01010C0C0CF20C0C11FAFAFA5C66F411FAFAFAFAFAF91801010CF2010F27FAFAFAFAFAFAFAFAFAFAFAFAFAFAFAFAFAFAFAFAFAFAFAFAFAFAFAFA07FAFAFAFAFAFAFAFAFAFAFA
310
FAFAFAFAFAFAFAFAFAFAFAFAFAFAFAFAFAFAFAFAFAFAFAFAFAFAFAFAFAFAFAFAFAFAFAFAFAFAFAFAFAFAFAFAFAFAFAFAFAFAFAFAFAFAFAFA07FAFAFAFAFAFAFAFAFAFAFAFAFAFAFAFAFAFAFAFAFAFAFAFAFAFAFAFAFAFAFAFAFAFAFAFA01111101FAFAFA6A66FA0101F20101110F0101F20101F413FAFAFAFAFA6D0356F213
310
FAFA1101010C0F0CF20101FAFAFAFAFAFAFAFAFAFAFAFAFAFAFAFAFAFAFAFAFAFAFAFAFAFAFAFAFAFA07FAFAFAFAFAFAFAFAFAFAFAFAFAFAFAFAFAFAFAFAFAFAFAFAFAFAFAFAFAFAFAFAFAFAFAFAFAFAFAFAFAFAFAFAFAFAFAFAFAFAFAFAFAFAFAFAFAFAFAFAFAFAFAFAFAFAFA07FAFAFAFAFAFAFAFAFAFAFA030303030303
310
030303030303030303030303030303030303030303030303030303FA01FA030301F2FA0118010101FAFAFAFAFAFAFAFAFA665C4F0101010C0F0C0C11FAFAFAFAFAFAFAFAFAFAFAFAFAFAFAFAFAFAFAFAFAFAFAFAFAFAFAFAFAFAFAFAFAFA07FAFAFAFAFAFAFAFAFAFAFAFAFAFAFAFAFAFAFAFAFAFAFAFAFAFAFAFAFAFAFAFA
310
FAFAFAFAFAFAFAFAFAFAFAFAFAFAFAFAFAFAFAFAFAFAFAFAFAFAFAFAFAFAFAFAFAFAFA07FAFAFAFAFAFAFAFAFAFAFAF1F1F1F1F1F1F1F1F1F1F1F1F1F1F1FAFAFAFAFAFAFAFAFAFAFAFA270CF9011AFA01FA52200111F4110F0C0C010CFAFAFAFAFAFAFAFA13161601010FF201F413FAFAFAFAFAFAFAFAFAFAFAFAFAFAFAFA
310
FAFAFAFAFAFAFAFAFAFAFAFAFAFAFAFAFAFAFAFA07FAFAFAFAFAFAFAFAFAFAFAFAFAFAFAFAFAFAFAFAFAFAFAFAFAFAFAFAFAFAFAFAFAFAFAFAFAFAFAFAFAFAFAFAFAFAFAFAFAFAFAFAFAFAFAFAFAFAFAFAFAFAFAFAFAFAFA07FAFAFAFAFAFAFAFAFAFAFAF1F1F1F1F1F1F1F1F1F1F1F1F1F1F1FAFAFAFAFAFAFAFAFAFAFAFA
310
FA1301FA0101FA405201FAF21D161AF90C01F411FAFAFAFA13F4010101F20101111DFAFAFAFAFAFAFAFAFAFAFAFAFAFAFAFAFAFAFAFAFAFAFAFAFAFAFAFAFAFAFAFAFAFAFAFAFAFAFA07FAFAFAFAFAFAFAFAFAFAFAFAFAFAFAFAFAFAFAFAFAFAFAFAFAFAFAFAFAFAFAFAFAFAFAFAFAFAFAFAFAFAFAFAFAFAFAFAFAFAFAFAFA
310
FAFAFAFAFAFAFAFAFAFAFAFAFAFA07FAFAFAFAFAFAFAFAFAFAFAFAFAFAFAFAFAFAFAFAFAFAFAFAFAFAFAFAFAFAFAFAFAFAFAFAFAFAFAFAFA01130C166401FAFA01FA0CF9FA1A2CF2F2131D16010101F20F011801FAFAFAFAFAFAFAFAFAFAFAFAFAFAFAFAFAFAFAFAFAFAFAFAFAFAFAFAFAFAFAFAFAFAFAFAFAFAFAFAFAFA07
310
FAFAFAFAFAFAFAFAFAFAFAFAFAFAFAFAFAFAFAFAFAFAFAFAFAFAFAFAFAFAFAFAFAFAFAFAFAFAFAFAFAFAFAFAFAFAFAFAFAFAFAFAFAFAFAFAFAFAFAFAFAFAFAFAFAFAFA07FAFAFAFAFAFAFAFAFAFAFA030303030303030303030303030303030303030303030303030303030303030303030103FA13F2F90CFAFA70200CF201
310
0C01F20F01F21AFAFAFAFAFAFAFAFAFAFAFAFAFAFAFAFAFAFAFAFAFAFAFAFAFAFAFAFAFAFAFAFAFAFAFAFAFAFAFAFAFAFAFAFAFA07FAFAFAFAFAFAFAFAFAFAFAFAFAFAFAFAFAFAFAFAFAFAFAFAFAFAFAFAFAFAFAFAFAFAFAFAFAFAFAFAFAFAFAFAFAFAFAFAFAFAFAFAFAFAFAFAFAFAFAFAFAFAFAFAFAFAFA07FAFAFAFAFAFA
310
FAFAFAFAFAFAFAFAFAFAFAFAFAFAFAFAFAFAFAFAFAFAFAFAFAFAFAFAFAFAFAFAFAFAFAFAFA0101F401FA11F41A16FA272C010101010F0C0C1AFAFAFAFAFAFAFAFAFAFAFAFAFAFAFAFAFAFAFAFAFAFAFAFAFAFAFAFAFAFAFAFAFAFAFAFAFAFAFAFAFAFAFAFAFAFAFAFA07FAFAFAFAFAFAFAFAFAFAFAFAFAFAFAFAFAFAFAFAFA
310
FAFAFAFAFAFAFAFAFAFAFAFAFAFAFAFAFAFAFAFAFAFAFAFAFAFAFAFAFAFAFAFAFAFAFAFAFAFAFAFAFAFAFAFAFAFA07FAFAFAFAFAFAFAFAFAFAFAF1F1F1F1F1F1F1F1F1F1F1F1F1F1F1F1F1F1F1F1F1F1FAFAFAFAFAFAFAFAFAFAFA1A201D01F21D0F11010F1601F20101F4F9FAFAFAFAFAFAFAFAFAFAFAFAFAFAFAFAFAFAFA
310
FAFAFAFAFAFAFAFAFAFAFAFAFAFAFAFAFAFAFAFAFAFAFAFAFAFAFAFAFAFAFA07FAFAFAFAFAFAFAFAFAFAFAFAFAFAFAFAFAFAFAFAFAFAFAFAFAFAFAFAFAFAFAFAFAFAFAFAFAFAFAFAFAFAFAFAFAFAFAFAFAFAFAFAFAFAFAFAFAFAFAFAFAFAFAFAFAFAFA07FAFAFAFAFAFAFAFAFAFAFAF1F1F1F1F1F1F1F1F1F1F1F1F1F1F1F1
310
F1F1F1F1F1F1FAFAFAFAFAFAFAFAFAFAFAFA4A010101FA01F401F201011601FAFAFAFAFAFAFAFAFAFAFAFAFAFAFAFAFAFAFAFAFAFAFAFAFAFAFAFAFAFAFAFAFAFAFAFAFAFAFAFAFAFAFAFAFAFAFAFAFAFAFAFAFA07FAFAFAFAFAFAFAFAFAFAFAFAFAFAFAFAFAFAFAFAFAFAFAFAFAFAFAFAFAFAFAFAFAFAFAFAFAFAFAFAFAFA
310
FAFAFAFAFAFAFAFAFAFAFAFAFAFAFAFAFAFAFAFAFAFAFAFAFA07FAFAFAFAFAFAFAFAFAFAFAF1F1F1F1F1F1F1F1F1F1F1F1F1F1F1F1F1F1F1FAFAFAFAFAFAFAFAFAFAFAFAFAFAFAFAF901FAFAFA11010101FAFAFAFAFAFAFAFAFAFAFAFAFAFAFAFAFAFAFAFAFAFAFAFAFAFAFAFAFAFAFAFAFAFAFAFAFAFAFAFAFAFAFAFAFAFA
310
FAFAFAFAFAFAFAFAFAFA07FAFAFAFAFAFAFAFAFAFAFAFAFAFAFAFAFAFAFAFAFAFAFAFAFAFAFAFAFAFAFAFAFAFAFAFAFAFAFAFAFAFAFAFAFAFAFAFAFAFAFAFAFAFAFAFAFAFAFAFAFAFAFAFAFAFAFA07FAFAFAFAFAFAFAFAFAFAFAF1F1F1F1F1F1F1F1F1F1F1F1F1F1F1F1F1F1FAFAFAFAFAFAFAFAFAFAFAFAFAFAFAFAFAFAFA
310
FAFAFAFAFAFAFAFAFAFAFAFAFAFAFAFAFAFAFAFAFAFAFAFAFAFAFAFAFAFAFAFAFAFAFAFAFAFAFAFAFAFAFAFAFAFAFAFAFAFAFAFAFAFAFAFAFAFAFAFAFAFAFA07FAFAFAFAFAFAFAFAFAFAFAFAFAFAFAFAFAFAFAFAFAFAFAFAFAFAFAFAFAFAFAFAFAFAFAFAFAFAFAFAFAFAFAFAFAFAFAFAFAFAFAFAFAFAFAFAFAFAFAFAFAFAFA
310
FAFAFAFA07FAFAFAFAFAFAFAFAFAFAFAF1F1F1F1F1F1F1F1F1F1F1F1F1F1F1F1F1F1FAFAFAFAFAFAFAFAFAFAFAFAFAFAFAFAFAFAFAFAFAFAFAFAFAFAFAFAFAFAFAFAFAFAFAFAFAFAFAFAFAFAFAFAFAFAFAFAFAFAFAFAFAFAFAFAFAFAFAFAFAFAFAFAFAFAFAFAFAFAFAFAFAFAFAFAFAFAFAFAFAFA07FAFAFAFAFAFAFAFAFAFA
310
FAFAFAFAFAFAFAFAFAFAFAFAFAFAFAFAFAFAFAFAFAFAFAFAFAFAFAFAFAFAFAFAFAFAFAFAFAFAFAFAFAFAFAFAFAFAFAFAFAFAFAFAFAFAFAFAFA07FAFAFAFAFAFAFAFAFAFAFAFAFAFAFAFAFAFAFAFAFAFAFAFAFAFAFAFAFAFAFAFAFAFAFAFAFAFAFAFAFAFAFAFAFAFAFAFAFAFAFAFAFAFAFAFAFAFAFAFAFAFAFAFAFAFAFAFAFA
310
FAFAFAFAFAFAFAFAFAFAFAFAFAFAFAFAFAFAFAFAFAFAFAFAFAFAFAFAFAFAFAFAFAFAFAFAFAFAFAFAFAFA07FAFAFAFAFAFAFAFAFAFAFAFAFAFAFAFAFAFAFAFAFAFAFAFAFAFAFAFAFAFAFAFAFAFAFAFAFAFAFAFAFAFAFAFAFAFAFAFAFAFAFAFAFAFAFAFAFAFAFAFAFAFAFAFAFAFAFA07FAFAFAFAFAFAFAFAFAFAFAFAFAFAFAFA
310
FAFAFAFAFAFAFAFAFAFAFAFAFAFAFAFAFAFAFAFAFAFAFAFAFAFAFAFAFAFAFAFAFAFAFAFAFAFAFAFAFAFAFAFAFAFAFAFAFAFAFAFAFAFAFAFAFAFAFAFAFAFAFAFAFAFAFAFAFAFAFAFAFAFAFAFAFAFAFAFAFAFAFAFAFAFAFAFAFAFAFAFAFAFAFA07FAFAFAFAFAFAFAFAFAFAFAFAFAFAFAFAFAFAFAFAFAFAFAFAFAFAFAFAFAFAFA
310
FAFAFAFAFAFAFAFAFAFAFAFAFAFAFAFAFAFAFAFAFAFAFAFAFAFAFAFAFAFAFAFAFAFAFAFA07070707070707070707070707070707070707070707070707070707070707070707070707070707070707070707070707070707070707070707070707070707070707070707070707070707070707070707070707070707070707
310
07070707070707070707070707070707070707070707FAFAFAFAFAFAFAFAFAFAFAFAFAFAFAFAFAFAFAFAFAFAFAFAFAFAFAFAFAFAFAFAFAFAFAFAFAFAFAFAFAFAFAFAFAFAFAFAFAFAFAFAFAFAFAFAFAFAFAFAFAFAFAFAFAFAFAFAFAFAFAFAFAFAFAFAFAFAFAFAFAFAFAFAFAFAFAFAFAFAFAFAFAFAFAFAFAFAFAFAFAFAFAFAFA
310
FAFAFAFAFAFAFAFAFAFAFAFAFAFAFAFAFAFAFAFAFAFAFAFAFAFAFAFAFAFAFAFAFAFAFAFAFAFAFAFAFAFAFAFAFAFAFAFAFAFAFAFAFAFAFAFAFAFAFAFAFAFAFAFAFAFAFAFAFAFAFAFAFAFAFAFAFAFAFAFAFAFAFAFAFAFAFAFAFAFAFAFAFAFAFAFAFAFAFAFAFAFAFAFAFAFAFAFA
  0
ENDSEC
  0
EOF
